osu file format v9

[General]
AudioFilename: Step.mp3
AudioLeadIn: 2000
PreviewTime: 49377
Countdown: 0
SampleSet: Normal
StackLeniency: 0.7
Mode: 0
LetterboxInBreaks: 0

[Editor]
Bookmarks: 7453,14282,20136,36477,100867
DistanceSpacing: 1
BeatDivisor: 4
GridSize: 8

[Metadata]
Title:Step
Artist:Kara
Creator:MoonFragrance
Version:Easy
Source:
Tags:djmax technika 3 sweetune dsp media

[Difficulty]
HPDrainRate:1
CircleSize:3
OverallDifficulty:2
ApproachRate:4
SliderMultiplier:0.8
SliderTickRate:2

[Events]
//Background and Video events
0,0,"DMT3_STEP.jpg"
Video,480,"step.avi"
//Break Periods
2,73007,79291
2,143251,153438
//Storyboard Layer 0 (Background)
//Storyboard Layer 1 (Fail)
//Storyboard Layer 2 (Pass)
//Storyboard Layer 3 (Foreground)
//Storyboard Sound Samples
//Background Colour Transformations
3,100,0,0,0

[TimingPoints]
612,487.80487804878,4,2,1,100,1,0
15733,-100,4,2,2,100,0,0
18172,-100,4,2,1,100,0,0
33782,-100,4,2,1,100,0,0
49148,-100,4,1,1,100,0,0
49392,-100,4,1,1,100,0,1
65002,-100,4,2,1,100,0,0
95977,-100,4,1,1,100,0,0
96221,-100,4,1,1,100,0,1
115977,-100,4,2,2,100,0,1
119392,-100,4,1,1,100,0,1
123782,-100,4,2,2,100,0,1
127441,-100,4,1,1,100,0,0
127685,-100,4,2,2,100,0,0
131343,-100,4,1,1,100,0,0
131587,-100,4,2,2,100,0,0
135246,-100,4,1,1,100,0,0
135368,-100,4,2,2,100,0,0
141099,-100,4,2,1,50,0,0
154270,-100,4,2,2,50,0,0
158416,-100,4,1,1,100,0,0
158660,-100,4,1,1,100,0,1
190124,-100,4,2,2,100,0,1
193538,-100,4,1,1,100,0,1
194026,-100,4,2,2,100,0,1
197441,-100,4,2,1,100,0,0

[Colours]
Combo1 : 128,85,255
Combo2 : 143,255,32
Combo3 : 128,159,255
Combo4 : 255,0,64
Combo5 : 255,191,0

[HitObjects]
256,76,612,5,4
360,192,1587,1,2
256,308,2563,1,0
148,192,3538,6,0,B|64:192,2,80,2|8|2
288,272,5490,2,0,B|308:324|396:324|416:272,1,160,2|0
416,112,7441,2,0,B|395:59|307:59|287:111,1,160,2|4
352,160,8904,6,0,B|352:296,1,120,8|2
256,352,10368,1,2
256,272,10855,2,0,B|256:144,1,120,8|2
160,80,12319,5,4
160,160,12807,2,0,B|160:288,1,120,8|2
256,352,14270,1,2
256,272,14758,2,0,B|256:144,1,120,8|0
376,152,16221,6,8,B|376:112|336:80,1,80,8|12
171,83,17685,2,8,B|136:112|136:152,1,80,12|4
104,224,18660,5,8
104,304,19148,1,2
256,356,20124,2,0,B|256:236,1,120,2|0
256,156,21343,1,2
376,152,22075,5,0
408,224,22563,1,8
408,304,23051,1,2
256,356,24026,2,0,B|256:236,1,120,2|0
256,156,25246,1,2
328,64,25977,5,4
256,24,26465,1,8
184,64,26953,1,2
200,224,27929,2,0,B|256:264|312:224,1,120,2|0
256,164,29148,1,2
136,176,29880,6,0,B|96:232|136:304|192:304,1,160,2|0
256,280,31343,1,8
330,303,31831,2,0,B|376:304|416:232|376:176,1,160,2|0
320,120,33294,1,8
256,72,33782,5,4
92,184,35002,2,0,B|92:292|196:340,1,200,2|8
316,340,36953,2,0,B|420:291|420:183,1,200,2|8
256,64,39392,6,0,B|256:192,1,120,2|8
216,256,40611,1,2
296,256,41099,1,8
344,320,41587,6,0,B|304:372|208:372|168:320,1,200,4|2
184,240,43294,2,0,B|184:80,1,160,2|0
256,48,44758,1,2
328,80,45246,2,0,B|328:240,1,160,2|0
148,324,47441,6,0,B|176:360|224:360,1,80,2|8
295,359,48416,2,0,B|336:360|364:324,2,80,2|12|4
256,288,49880,5,8
256,208,50368,1,2
204,56,51343,2,0,B|228:24|284:24|308:56,1,120,0|2
256,120,52563,1,2
376,120,53294,5,4
424,184,53782,1,8
376,248,54270,1,0
256,352,55246,2,0,B|256:224,1,120,0|2
256,152,56465,1,2
136,120,57197,5,4
88,184,57685,1,8
136,248,58172,1,0
256,352,59148,2,0,B|256:224,1,120,0|2
256,152,60368,1,2
216,40,61099,6,0,B|176:40|144:72,2,80,4|8|0
296,40,62563,2,0,B|336:40|368:72,2,80,8|2|8
256,112,64026,2,0,B|256:200,1,80,0|8
256,272,65002,5,4
320,320,65490,2,0,B|384:304|384:232,1,120,8|2
328,128,66953,1,2
256,96,67441,1,8
184,128,67929,1,2
256,272,68904,5,4
192,320,69392,2,0,B|128:304|128:232,1,120,8|2
184,128,70855,1,2
256,96,71343,1,8
328,128,71831,1,2
256,272,72807,5,4
184,152,80611,5,4
256,112,81099,1,8
328,152,81587,1,2
312,312,82563,2,0,B|256:352|200:312,1,120,2|2
256,252,83782,1,2
336,168,84514,6,0,B|388:148|388:64|336:40,1,160
256,40,85977,1,8
176,39,86465,2,0,B|124:64|124:148|176:168,1,160
256,168,87929,1,8
336,168,88416,1,4
496,288,89636,6,0,B|464:360|336:360|296:288,1,240,2|2
276,212,91587,1,2
256,136,92075,2,0,B|240:-8|32:-8|8:136,1,360,2|2
8,216,94758,6,0,B|8:296,2,80,8|2|8
8,136,96221,5,4
40,64,96709,1,8
120,64,97197,1,2
200,200,98172,2,0,B|256:240|312:200,1,120,0|2
256,136,99392,1,2
392,64,100124,5,4
472,64,100611,1,8
504,136,101099,1,2
312,200,102075,2,0,B|256:240|200:200,1,120,0|2
256,136,103294,1,2
136,120,104026,5,4
104,192,104514,1,8
136,264,105002,1,2
280,192,105977,2,0,B|400:192,1,120,0|2
480,192,107197,1,2
448,72,107929,6,0,B|424:32|368:32,1,80,4|8
344,104,108904,1,2
292,164,109392,2,0,B|256:192|220:164,1,80,8|0
168,104,110368,1,8
130,32,110855,2,0,B|88:32|64:72,2,80,2|8|4
208,32,112319,5,8
208,112,112807,2,0,B|208:200,1,80,2|8
216,272,113782,1,2
296,272,114270,1,8
304,192,114758,2,0,B|304:112,1,80,2|8
304,32,115733,5,4
384,32,116221,1,12
456,72,116709,1,8
456,152,117197,1,12
456,232,117685,5,8
456,312,118172,1,12
384,352,118660,1,8
304,352,119148,1,12
256,288,119636,5,4
208,352,120124,1,8
128,352,120611,2,0,B|88:352|64:312,1,80,2|8
104,240,121587,2,0,B|104:160,1,80,2|8
184,168,122563,2,0,B|184:88,1,80,2|8
256,48,123538,5,4
328,88,124026,1,12
256,128,124514,1,8
184,168,125002,1,12
256,208,125490,1,8
328,248,125977,1,12
328,328,126465,2,0,B|256:392|184:328,1,160,8|4
128,272,127929,5,12
128,112,128904,1,12
256,16,129880,1,12
256,96,130368,2,2,B|256:264,1,160,10|4
256,336,131831,5,12
416,336,132807,1,12
480,192,133782,1,12
480,112,134270,2,10,B|480:64|432:8|376:8,1,160,10|4
296,8,135733,5,12
256,80,136221,2,10,B|256:248,1,160
216,312,137685,1,12
136,312,138172,2,10,B|81:312|33:256|33:208,1,160,10|10
32,128,139636,1,12
32,48,140124,2,10,B|104:-12|176:48,1,160,10|2
216,120,141587,5,0
256,192,142075,1,2
296,264,142563,1,0
335,335,143051,1,4
256,192,154758,12,0,157685
120,88,158660,5,4
172,148,159148,1,8
196,224,159636,2,0,B|196:272,1,40,0|2
316,264,160612,2,0,B|316:224,1,40,0|2
340,148,161343,1,2
392,88,161831,1,2
460,188,162563,5,4
420,260,163051,1,8
356,308,163538,2,0,B|316:308,1,40,0|2
196,308,164514,2,0,B|156:308,1,40,0|2
92,260,165246,1,2
52,188,165733,1,2
56,64,166465,5,4
136,64,166953,1,8
200,112,167441,2,0,B|200:160,1,40,0|2
312,152,168416,2,0,B|312:112,1,40,0|2
376,64,169148,1,2
456,64,169636,1,2
456,184,170368,6,0,B|456:232|400:256,1,80,4|8
336,232,171343,2,0,B|295:248|295:296,1,80,2|8
216,294,172319,2,0,B|216:248|176:232,1,80,2|8
96,248,173294,2,0,B|56:232|56:184,1,80,2|8
56,104,174270,5,4
136,88,174758,1,8
216,104,175246,1,0
216,184,175733,2,0,B|216:264,1,80,8|0
296,264,176709,2,0,B|296:184,1,80,8|2
296,104,177685,1,8
376,88,178172,5,4
456,104,178660,1,8
456,184,179148,2,0,B|456:272,1,80,2|8
376,288,180124,1,2
328,352,180612,2,0,B|296:328|296:272,1,80,8|2
215,281,181587,2,0,B|216:328|184:352,1,80,8|6
136,288,182563,5,8
176,216,183051,2,0,B|176:136,1,80,2|8
256,112,184026,1,0
336,136,184514,2,0,B|336:216,1,80,8|0
376,288,185490,1,8
328,352,185977,6,0,B|296:328|296:272,1,80,4|8
215,281,186953,2,0,B|216:328|184:352,2,80,2|8|0
256,216,188416,1,8
256,136,188904,2,0,B|256:48,1,80,2|8
184,16,189880,5,4
112,56,190368,1,12
184,96,190855,1,8
112,136,191343,1,12
184,176,191831,1,8
112,216,192319,1,12
184,256,192807,1,8
216,328,193294,1,12
296,328,193782,5,4
328,256,194270,1,12
400,216,194758,1,8
328,176,195246,1,12
400,136,195733,1,8
328,96,196221,1,12
400,56,196709,1,8
328,16,197197,1,12
