osu file format v13

[General]
AudioFilename: Maru Maru Mori Mori!.mp3
AudioLeadIn: 0
PreviewTime: 57601
Countdown: 0
SampleSet: Normal
StackLeniency: 0.7
Mode: 1
LetterboxInBreaks: 1
WidescreenStoryboard: 0

[Editor]
Bookmarks: 1940
DistanceSpacing: 2
BeatDivisor: 4
GridSize: 32
TimelineZoom: 1.4

[Metadata]
Title:Maru Maru Mori Mori!
TitleUnicode:マル・マル・モリ・モリ!
Artist:Kaoru to Tomoki, Tamani Mook
ArtistUnicode:Kaoru to Tomoki, Tamani Mook
Creator:Inori
Version:Futsuu
Source:Taiko no Tatsujin
Tags:
BeatmapID:462504
BeatmapSetID:194794

[Difficulty]
HPDrainRate:5
CircleSize:5
OverallDifficulty:5
ApproachRate:5
SliderMultiplier:1.4
SliderTickRate:2

[Events]
//Background and Video events
0,0,"cover1.jpg",0,0
//Break Periods
//Storyboard Layer 0 (Background)
//Storyboard Layer 1 (Fail)
//Storyboard Layer 2 (Pass)
//Storyboard Layer 3 (Foreground)
Sprite,Foreground,Centre,"SB\Diff\normal.png",320,240 F,0,-940,,1 S,0,-940,,0.864 M,0,-940,100340,175,75 F,0,99892,100340,1,0
//Storyboard Sound Samples
//Background Colour Transformations
3,100,163,162,255

[TimingPoints]
20,480,4,1,0,100,1,0
30740,-100,4,1,0,100,0,1
40340,-100,4,1,0,100,0,0
57599,-100,4,1,0,100,0,1
96020,-100,4,1,0,100,0,0

[HitObjects]
256,192,1940,5,4,0:0:0:0:
256,192,2420,1,4,0:0:0:0:
256,192,2900,1,4,0:0:0:0:
256,192,3860,1,0,0:0:0:0:
256,192,4100,1,0,0:0:0:0:
256,192,4340,1,0,0:0:0:0:
256,192,4820,1,0,0:0:0:0:
256,192,5780,1,4,0:0:0:0:
256,192,6260,1,4,0:0:0:0:
256,192,6740,1,4,0:0:0:0:
256,192,7700,1,0,0:0:0:0:
256,192,8180,1,0,0:0:0:0:
256,192,8420,1,0,0:0:0:0:
0,192,9620,2,4,L|288:192,2,280,0|0|0,0:0|0:0|0:0,0:0:0:0:
256,192,13460,1,0,0:0:0:0:
256,192,13940,1,0,0:0:0:0:
256,192,14420,1,8,0:0:0:0:
256,192,15380,1,0,0:0:0:0:
256,192,15860,1,0,0:0:0:0:
256,192,16340,1,8,0:0:0:0:
256,192,17300,1,0,0:0:0:0:
256,192,17780,1,0,0:0:0:0:
256,192,18260,1,0,0:0:0:0:
256,192,19220,1,0,0:0:0:0:
256,192,19700,1,0,0:0:0:0:
256,192,20180,1,0,0:0:0:0:
256,192,21140,1,0,0:0:0:0:
256,192,22100,1,0,0:0:0:0:
256,192,23060,1,0,0:0:0:0:
256,192,24980,1,0,0:0:0:0:
256,192,25940,1,0,0:0:0:0:
256,192,26900,1,0,0:0:0:0:
256,192,27860,1,0,0:0:0:0:
256,192,28820,1,0,0:0:0:0:
256,192,30740,1,4,0:0:0:0:
256,192,31220,1,4,0:0:0:0:
256,192,31700,1,4,0:0:0:0:
256,192,32660,1,0,0:0:0:0:
256,192,32900,1,0,0:0:0:0:
256,192,33140,1,0,0:0:0:0:
256,192,33620,1,0,0:0:0:0:
256,192,34580,1,4,0:0:0:0:
256,192,35060,1,4,0:0:0:0:
256,192,35540,1,4,0:0:0:0:
256,192,36500,1,0,0:0:0:0:
256,192,36980,1,0,0:0:0:0:
256,192,37220,1,0,0:0:0:0:
256,192,38420,2,0,L|544:192,1,280
256,192,40340,1,0,0:0:0:0:
256,192,40820,1,0,0:0:0:0:
256,192,41060,1,0,0:0:0:0:
256,192,41300,1,0,0:0:0:0:
256,192,42260,1,0,0:0:0:0:
256,192,42740,1,0,0:0:0:0:
256,192,43220,5,8,0:0:0:0:
256,192,44180,1,0,0:0:0:0:
256,192,44660,1,0,0:0:0:0:
256,192,44900,1,0,0:0:0:0:
256,192,45140,1,0,0:0:0:0:
256,192,46100,1,0,0:0:0:0:
256,192,46580,1,0,0:0:0:0:
256,192,47060,1,8,0:0:0:0:
256,192,48020,1,0,0:0:0:0:
256,192,48500,1,0,0:0:0:0:
256,192,48740,1,0,0:0:0:0:
256,192,48980,1,0,0:0:0:0:
256,192,49940,1,0,0:0:0:0:
256,192,50420,1,0,0:0:0:0:
256,192,50900,1,8,0:0:0:0:
256,192,51860,1,0,0:0:0:0:
256,192,52820,1,0,0:0:0:0:
256,192,53780,1,0,0:0:0:0:
256,192,54260,1,8,0:0:0:0:
256,192,54740,1,0,0:0:0:0:
256,192,55220,1,8,0:0:0:0:
128,192,55700,2,0,L|416:192,1,280
288,192,57620,1,4,0:0:0:0:
288,192,58100,1,4,0:0:0:0:
288,192,58580,1,4,0:0:0:0:
288,192,59540,1,0,0:0:0:0:
288,192,59780,1,0,0:0:0:0:
288,192,60020,1,0,0:0:0:0:
288,192,60500,1,0,0:0:0:0:
288,192,61460,1,4,0:0:0:0:
288,192,61940,1,4,0:0:0:0:
288,192,62420,1,4,0:0:0:0:
288,192,63380,1,0,0:0:0:0:
288,192,63620,1,0,0:0:0:0:
288,192,63860,1,0,0:0:0:0:
288,192,64340,1,0,0:0:0:0:
288,192,65300,1,0,0:0:0:0:
288,192,65540,1,0,0:0:0:0:
288,192,65780,1,0,0:0:0:0:
288,192,66260,1,0,0:0:0:0:
288,192,66740,1,0,0:0:0:0:
288,192,67220,1,0,0:0:0:0:
288,192,67700,1,0,0:0:0:0:
288,192,68180,1,8,0:0:0:0:
288,192,69140,1,0,0:0:0:0:
288,192,70100,1,0,0:0:0:0:
288,192,70580,1,0,0:0:0:0:
32,192,71060,2,0,L|480:192,1,420
256,192,72980,1,4,0:0:0:0:
256,192,73460,1,4,0:0:0:0:
256,192,73940,1,4,0:0:0:0:
256,192,74900,1,0,0:0:0:0:
256,192,75140,1,0,0:0:0:0:
256,192,75380,1,0,0:0:0:0:
256,192,75860,1,0,0:0:0:0:
256,192,76820,1,4,0:0:0:0:
256,192,77300,1,4,0:0:0:0:
256,192,77780,1,4,0:0:0:0:
256,192,78740,1,0,0:0:0:0:
256,192,78980,1,0,0:0:0:0:
256,192,79220,1,0,0:0:0:0:
256,192,79700,1,0,0:0:0:0:
256,192,80660,1,0,0:0:0:0:
256,192,80900,1,0,0:0:0:0:
256,192,81140,1,0,0:0:0:0:
256,192,81620,1,0,0:0:0:0:
256,192,82100,1,0,0:0:0:0:
256,192,82580,1,0,0:0:0:0:
256,192,83060,1,0,0:0:0:0:
256,192,83540,1,8,0:0:0:0:
256,192,84500,1,0,0:0:0:0:
256,192,84980,1,0,0:0:0:0:
256,192,85460,1,0,0:0:0:0:
256,192,85700,1,0,0:0:0:0:
256,192,85940,1,0,0:0:0:0:
256,192,86420,12,0,87380,0:0:0:0:
256,192,88340,5,0,0:0:0:0:
256,192,88820,1,0,0:0:0:0:
256,192,89300,1,8,0:0:0:0:
256,192,90260,1,0,0:0:0:0:
256,192,90740,1,0,0:0:0:0:
256,192,91220,1,0,0:0:0:0:
256,192,92180,1,0,0:0:0:0:
256,192,92660,1,0,0:0:0:0:
256,192,93140,1,8,0:0:0:0:
256,192,94100,1,0,0:0:0:0:
256,192,94580,1,0,0:0:0:0:
256,192,95300,1,4,0:0:0:0:
256,192,95540,1,4,0:0:0:0:
