osu file format v6

[General]
AudioFilename: Kaori Utatsuki - Chasse [Hayate no Gotoku! End 3].mp3
AudioLeadIn: 0
PreviewTime: 14544
Countdown: 1
SampleSet: Soft
StackLeniency: 0.7
Mode: 0
LetterboxInBreaks: 1

[Editor]
DistanceSpacing: 1.20000004768372
BeatDivisor: 4
GridSize: 8

[Metadata]
Title:Chasse
Artist:Kaori Utatsuki
Creator:Yes
Version:Wynd Style
Source:Hayate no Gotoku
Tags:

[Difficulty]
HPDrainRate:6
CircleSize:4
OverallDifficulty:6
SliderMultiplier:1.8
SliderTickRate:1

[Events]
//Background and Video events
0,0,"background.jpg"
//Break Periods
2,40170,44567
//Storyboard Layer 0 (Background)
//Storyboard Layer 1 (Fail)
//Storyboard Layer 2 (Pass)
//Storyboard Layer 3 (Foreground)
Sprite,Foreground,Centre,"1smilelunlun.png",320,240 F,0,441,2206,0,1 M,0,2206,,132,89 F,0,2206,3617,1,0.72192 F,0,3617,3970,0.72192,0
Sprite,Foreground,Centre,"lunlunlunleftaligned.png",320,240 M,0,3970,,401,89 F,0,3970,4323,0,1 F,0,4323,5029,1 F,0,5029,5382,1,0
Sprite,Foreground,Centre,"03evenondaysN.png",320,240 M,0,5559,,194,85 S,0,5559,,0.8361601 F,0,5559,5912,0,1 F,0,5912,10676,1 F,0,10676,11029,1,0
Sprite,Foreground,Centre,"5andyourheart.png",320,240 M,0,11206,,130,88 F,0,11029,11382,0,1 F,0,11382,13147,1,0.9811143 F,0,13147,13500,0.9811143,0
Sprite,Foreground,Centre,"06againtodayN.png",320,240 F,0,13500,13853,0,1 M,0,13970,,395,89 F,0,13853,14912,1 F,0,14912,15264,1,0
Sprite,Foreground,Centre,"7aroundandaround.png",320,240 M,0,15264,,128,90 F,0,15264,15617,0,1 F,0,15617,16323,1 F,0,16323,16676,1,0
Sprite,Foreground,Centre,"08underneaththesunN222.png",320,240 S,0,16676,,0.9385599 F,0,16676,17029,0,0.872 M,0,18088,,276,82 F,0,17029,27970,0.872 F,0,27970,28676,0.872,0
Sprite,Foreground,Centre,"10ifisaidN.png",320,240 S,0,44912,,0.88736 F,0,44912,45264,0,1 M,0,45970,,357,93 F,0,45264,50912,1,0.9625606 F,0,50912,51264,0.9625606,0
Sprite,Foreground,Centre,"11wrappedupN.png",320,240 F,0,51264,51617,0,1 M,0,52323,,271,91 F,0,51617,55853,1 F,0,55853,56206,1,0
Sprite,Foreground,Centre,"12iforget.png",320,240 M,0,56206,,132,94 F,0,56206,56559,0,1 F,0,56559,60794,1,0.9947702 F,0,60794,61147,0.9947702,0
Sprite,Foreground,Centre,"13touchmeN.png",320,240 F,0,61323,61676,0,1 M,0,62029,,392,90 F,0,61676,62912,1,0.973541 F,0,62912,63264,0.973541,0
Sprite,Foreground,Centre,"14evenonnights.png",320,240 M,0,63264,,135,92 F,0,63264,63617,0,1 F,0,63617,67500,1,0.9428706 F,0,67500,67853,0.9428706,0
Sprite,Foreground,Centre,"15evenonmyN.png",320,240 S,0,67853,,0.8361599 F,0,67853,68206,0,1 M,0,69264,,196,86 F,0,68206,73147,1,0.9682724 F,0,73147,73500,0.9682724,0
Sprite,Foreground,Centre,"2lalalunlulu.png",320,240 F,0,74559,74912,0,1 M,0,75264,,132,88 F,0,74912,75617,1 F,0,75617,75970,1,0
Sprite,Foreground,Centre,"18justlikethat.png",320,240 S,0,75970,,0.88736 F,0,75970,76323,0,1 M,0,76853,,171,93 F,0,76323,83735,1,0.9972959 F,0,83735,84088,0.9972959,0
Sprite,Foreground,Centre,"19withtheskytodaylunlun.png",320,240 F,0,84088,84441,0,1 M,0,84970,,132,90 F,0,84441,85500,1,0.9957507 F,0,85500,85853,0.9957507,0
Sprite,Foreground,Centre,"2lalalunlulu.png",320,240 F,0,85853,86206,0,1 M,0,86206,,-53,87 F,0,86206,86912,1 F,0,86912,87264,1,0
Sprite,Foreground,Centre,"21withthewind.png",320,240 M,0,87264,,135,92 F,0,87264,87617,0,1 F,0,87617,91853,1,0.9529309 F,0,91853,92206,0.9529309,0
Sprite,Foreground,Centre,"22letusdanceN.png",320,240 F,0,92206,92559,0,1 M,0,93088,,261,90 F,0,92559,98735,1 F,0,98735,,1 F,0,98735,99617,1,0
Sprite,Foreground,Centre,"23ioverexggerateN.png",320,240 S,0,110382,,0.80544 F,0,110382,110735,0,1 M,0,110912,,202,86 F,0,110735,115147,1,0.8373742 F,0,115147,115500,0.8373742,0
Sprite,Foreground,Centre,"24iknockat.png",320,240 F,0,115500,115853,0,1 M,0,116206,,131,89 F,0,115853,121500,1 F,0,121500,121853,1,0
Sprite,Foreground,Centre,"25wheremyangrylooking.png",320,240 F,0,121853,122206,0,1 M,0,122559,,138,92 F,0,122206,126441,1 F,0,126441,126794,1,0
Sprite,Foreground,Centre,"26makingmyheartN.png",320,240 F,0,126794,127147,0,1 M,0,127676,,389,90 F,0,127147,130676,1 F,0,130676,131091,1,0
Sprite,Foreground,Centre,"27iaskquietly.png",320,240 M,0,131912,,-85,93 F,0,131735,132264,0,1 F,0,132264,133500,1,0.9735326 F,0,133500,133853,0.9735326,0
Sprite,Foreground,Centre,"28keepingmytrue.png",320,240 F,0,133853,134206,0,1 M,0,134382,,137,89 F,0,134206,138088,1 F,0,138088,138441,1,0
Sprite,Foreground,Centre,"29icantgetanyN.png",320,240 F,0,138441,138794,0,1 M,0,139147,,390,90 F,0,138794,143029,1,0.8895184 F,0,143029,143735,0.8895184,0
Sprite,Foreground,Centre,"30iknowlunN.png",320,240 F,0,165970,166500,0,1 M,0,166676,,398,91 F,0,166500,167382,1 F,0,167382,167735,1,0
Sprite,Foreground,Centre,"2lalalunlulu.png",320,240 F,0,167735,168088,1 M,0,168088,,132,88 F,0,168088,168794,1 F,0,168794,169147,1,0
Sprite,Foreground,Centre,"31whenyougaze.png",320,240 F,0,169147,169500,0,1 M,0,169853,,134,91 F,0,169500,174441,1 F,0,174441,,1 F,0,174441,174794,1,0
Sprite,Foreground,Centre,"32iwasreadyN.png",320,240 F,0,174794,175147,0,1 M,0,175853,,390,90 F,0,175147,177264,1 F,0,177264,177617,1,0
Sprite,Foreground,Centre,"33theskyislun.png",320,240 F,0,177617,177970,0,1 M,0,178500,,134,90 F,0,177970,178676,1,0.9773371 F,0,178676,179029,0.9773371,0
Sprite,Foreground,Centre,"34lookuptoN.png",320,240 S,0,180441,,0.8668802 F,0,180441,180794,0,1 M,0,180970,,182,84 F,0,180794,186970,1 F,0,186970,187323,1,0
Sprite,Foreground,Centre,"35itsaneveredngin.png",320,240 F,0,187323,187676,0,1 M,0,187676,,26,90 F,0,187676,211853,1 F,0,211853,212559,1,0
Sprite,Foreground,Centre,"36withyouN.png",320,240 F,0,200735,201088,0,1 M,0,202323,,627,90 F,0,201088,211853,1 F,0,211853,212559,1,0
Sprite,Foreground,Centre,"hello.jpg",320,240 S,0,143382,,0.4982399 F,0,143382,144264,0,1 F,0,144264,148853,1 M,0,143382,149735,358,278,370,284 F,0,148853,149735,1,0
Sprite,Foreground,Centre,"hhhhii.jpg",320,240 F,0,148853,149912,0,1 S,0,150088,,1.33792 F,0,149912,155382,1 F,0,155382,,1 M,0,150264,155912,330,248,355,243 M,0,155912,,355,243 F,0,155382,156088,1,0
Sprite,Foreground,Centre,"hihih.jpg",320,240 F,0,155206,155735,0,1 M,0,155735,,320,240 F,0,155735,156633,1 S,0,155912,161029,0.5699202,0.4982399 F,0,156633,161029,1 F,0,161029,161735,1,0
Sprite,Foreground,Centre,"hi.jpg",320,240 F,0,161029,162088,0,1 M,0,160500,165441,320,240,335,240 S,0,160853,165441,1.23552,1.31744 F,0,162088,165617,1 F,0,165617,166676,1,0
Sprite,Foreground,Centre,"09imfascinatedN.png",320,240 M,0,40147,,92,81 F,0,40147,40559,0,0.778828 F,0,40559,44559,1,0.7967636 F,0,44559,44912,0.7967636,0
Sprite,Foreground,Centre,"lunlunlunleftaligned.png",320,240 M,0,73500,,399,89 F,0,73500,73853,0,1 F,0,73853,74206,1 F,0,74206,74559,1,0
Sprite,Foreground,Centre,"lunlunlunleftaligned.png",320,240 M,0,179029,,399,89 F,0,179029,179382,0,1 F,0,179382,180088,1 F,0,180088,180441,1,0
Sprite,Foreground,Centre,"thanks.png",320,240 F,0,212912,213970,0,1 M,0,214676,,258,89 F,0,213970,215382,1 F,0,215382,218382,1 F,0,218382,219264,1,0
//Storyboard Sound Samples
//Background Colour Transformations
3,100,163,162,255

[TimingPoints]
3265,705.882352941176,4,2,0,76,1,0
59602,-100,4,2,0,20,0,0
61853,-100,4,2,0,75,0,0
72617,-100,4,2,0,21,0,1
73852,-100,4,2,0,75,0,0
108425,-100,4,2,0,58,0,0
109130,-100,4,2,0,67,0,0
109835,-100,4,2,0,75,0,0
130190,-100,4,2,0,21,0,0
132441,-100,4,2,0,76,0,0
167029,-100,4,2,0,100,0,1
191912,-100,4,2,0,0,0,1
192088,-100,4,2,0,100,0,1
195088,-100,4,2,0,0,0,1
195264,-100,4,2,0,100,0,1
217853,-100,4,2,0,0,0,0

[Colours]
Combo1 : 255,255,128
Combo2 : 151,158,249
Combo3 : 255,255,255
Combo4 : 255,203,151
Combo5 : 147,238,145

[HitObjects]
168,224,1500,2,0,B|160:288|256:296,1,90,4|8
344,160,2206,2,0,B|352:96|256:88,1,90,8|6
184,96,2912,1,0
80,136,3265,5,4
128,232,3617,2,2,B|160:288,2,45
232,192,4323,1,2
288,192,4500,1,0
344,192,4676,2,0,B|408:192|408:256,2,90,4|2|0
320,240,5559,1,0
280,280,5735,1,2
168,224,6088,6,0,B|160:288|256:296,1,90,4|2
344,160,6794,2,0,B|352:96|256:88,1,90,0|2
192,80,7500,1,2
160,120,7676,2,0,B|128:144|152:168|96:200,1,90,2|0
72,224,8206,1,2
120,256,8382,1,0
168,288,8559,2,0,B|216:328,1,45,2|0
256,320,8912,6,0,B|317:323,1,45,4|0
352,320,9264,2,0,B|392:288,1,45,2|0
440,272,9617,2,0,L|504:272,1,45,2|2
488,216,9970,2,0,L|453:187,1,45,2|2
416,152,10323,2,0,L|288:152,1,90,6|0
272,152,10853,1,2
216,152,11029,6,0,L|88:152,1,90,4|0
126,152,11559,1,0
126,152,11735,2,4,B|200:80,1,90,4|0
256,192,12264,1,2
386,232,12441,2,0,B|312:304,1,90,4|4
256,192,12970,12,4,14559
400,72,14912,6,2,B|432:128,2,45
320,144,15618,1,2
304,192,15795,1,0
288,240,15971,2,0,C|352:240|352:304,2,90,4|0|4
272,288,16854,1,0
256,336,17030,1,2
168,224,17383,6,0,B|160:288|256:296,1,90,4|0
344,160,18089,2,4,B|352:96|256:88,1,90
256,192,18617,12,4,20206
256,192,20559,5,2
176,120,20912,1,0
96,192,21264,1,2
176,264,21617,1,4
256,336,21970,1,2
336,264,22323,1,2
376,232,22500,1,2
416,192,22676,1,2
376,160,22853,1,2
336,120,23029,2,0,B|264:40|168:128,1,180,4|0
208,168,23912,2,0,B|256:256|312:160,1,135
360,72,24794,1,0
256,56,25147,1,2
152,80,25500,1,0
256,120,25853,6,0,B|256:248,1,90,4|0
256,264,26382,1,2
216,296,26559,2,0,B|256:336|328:272,1,90,4|0
336,256,27088,1,2
368,216,27264,1,6
368,160,27441,2,0,B|368:56,1,90
312,72,27970,1,6
272,104,28147,1,2
224,128,28323,1,2
168,136,28500,1,2
112,136,28676,6,0,B|80:192|112:248,1,90,4|0
208,224,29382,2,0,B|211:288|268:317,1,90,4|0
296,328,29912,1,2
352,336,30088,1,6
408,336,30264,2,0,B|472:336|488:288,1,90
480,240,30794,1,6
496,192,30970,1,2
488,136,31147,2,0,B|432:88|384:168,1,90,0|4
416,248,31853,6,0,B|392:296|336:248,1,90,0|4
304,152,32559,1,2
256,128,32735,1,2
208,152,32912,1,6
170,253,33264,2,0,B|119:296|96:248,1,90,0|4
24,136,33970,1,2
64,104,34147,1,2
112,136,34323,6,2,B|216:136,1,90,6|2
256,40,35029,1,4
400,136,35382,2,2,B|296:136,1,90,2|6
256,344,36441,1,4
160,152,37147,5,4
176,104,37323,1,2
208,64,37500,1,0
256,48,37676,1,2
352,152,37853,5,4
336,104,38029,1,2
304,64,38206,1,0
256,48,38382,1,2
256,104,38559,5,4
256,160,38735,1,2
256,216,38912,1,0
256,272,39088,1,2
256,328,39264,5,4
256,272,39440,1,2
256,216,39617,1,0
256,160,39793,1,2
256,104,39970,1,6
80,80,45617,6,2,L|184:80,1,90
432,80,46323,2,2,L|328:80,1,90
344,192,47029,2,4,L|344:264|448:320,1,180,4|2
448,208,48088,2,2,L|448:96,1,90
368,48,48794,2,2,L|280:128,1,90
328,152,49323,1,0
368,192,49500,2,2,L|304:256,1,90
344,296,50029,1,0
384,336,50206,1,0
424,296,50382,2,0,L|424:256,2,22.5
384,256,50735,2,0,L|384:200,1,45
384,160,51088,2,0,L|384:128,2,22.5
272,160,51617,5,0
160,160,51970,2,2,L|160:280,2,90
168,104,52853,2,4,L|272:104|280:144,1,135,4|8
296,240,53735,1,0
352,336,54088,2,0,L|376:368|488:368,1,135
472,312,54794,2,0,L|472:200,3,90
472,112,56206,1,8
368,112,56559,6,0,L|248:112,3,90,2|0|2|12
256,160,57794,2,0,L|144:160,1,90
136,208,58323,2,0,L|136:312,1,90
192,296,58853,2,0,L|248:296,3,45
256,192,59735,5,0
472,192,60441,1,0
312,48,61147,1,0
256,48,61323,1,0
208,72,61500,1,0
168,112,61676,1,0
168,168,61853,1,4
256,232,62206,6,0,L|256:336,1,90,4|0
312,336,62735,1,2
360,320,62912,1,0
400,288,63088,2,2,L|448:224|416:152,1,135
376,144,63794,1,0
320,128,63970,1,0
264,144,64147,1,2
232,248,64500,1,0
192,144,64853,1,0
136,128,65029,1,0
80,144,65206,1,2
80,200,65382,6,0,L|80:296,2,90
432,200,66794,2,0,L|432:296,2,90
256,80,68206,5,0
224,128,68382,1,2
264,168,68559,1,0
304,200,68735,1,2
256,304,69264,5,0
288,256,69440,1,2
248,216,69617,1,2
208,184,69793,1,0
256,152,69970,2,2,L|256:48,2,90
256,264,71029,2,4,L|208:304|96:304,2,135
256,152,72441,1,4
256,152,72794,5,0
168,312,73147,1,0
256,336,73323,1,0
344,304,73500,1,0
432,136,73853,5,4
384,232,74205,2,2,B|352:288,2,45
280,192,74911,1,2
224,192,75088,1,0
168,192,75264,2,0,L|104:192|104:256,2,90,4|2|0
192,240,76147,1,0
232,280,76323,1,2
344,224,76676,6,0,L|352:288|256:296,1,90,4|2
168,160,77382,2,0,L|160:96|256:88,1,90,4|2
320,80,78088,1,2
352,120,78264,2,0,B|384:144|360:168|416:200,1,90,2|0
440,224,78794,1,2
392,256,78970,1,0
344,288,79147,2,0,B|296:328,1,45,2|0
256,320,79500,6,0,B|195:323,1,45,4|0
160,320,79852,2,0,B|120:288,1,45,2|0
72,272,80205,2,0,L|8:272,1,45,2|2
24,216,80558,2,0,L|59:187,1,45,2|2
96,152,80911,2,0,L|224:152,1,90,6|0
240,152,81441,1,2
296,152,81617,6,0,L|424:152,1,90,4|0
386,152,82147,1,0
386,152,82323,2,4,B|312:80,1,90,4|0
256,192,82852,1,2
126,232,83029,2,0,B|200:304,1,90,4|4
256,192,83558,12,4,85147
112,72,85500,6,2,B|80:128,2,45,2|2|6
192,144,86206,1,2
208,192,86383,1,0
224,240,86559,2,0,C|160:240|160:304,2,90,4|0|4
240,288,87442,1,0
256,336,87618,1,2
344,224,87971,6,0,L|352:288|256:296,1,90,4|0
168,160,88677,2,4,L|160:96|256:88,1,90
256,192,89205,12,4,90794
256,192,91147,5,2
336,120,91500,1,0
416,192,91852,1,2
336,264,92205,1,4
256,336,92558,1,2
176,264,92911,1,2
136,232,93088,1,2
96,192,93264,1,2
136,160,93441,1,2
176,120,93617,2,0,L|256:80|344:128,1,180,4|0
304,168,94500,2,0,B|256:256|200:160,1,135
152,72,95382,1,0
256,56,95735,1,2
360,80,96088,1,0
256,120,96441,6,0,B|256:248,1,90,4|0
256,264,96970,1,2
216,296,97147,2,0,B|256:336|328:272,1,90,4|0
336,256,97676,1,2
368,216,97852,1,6
368,160,98029,2,0,B|368:56,1,90
312,72,98558,1,6
272,104,98735,1,2
224,128,98911,1,2
168,136,99088,1,2
112,136,99264,6,0,L|80:192|112:248,1,90,4|0
200,232,99970,2,0,L|203:296|260:325,1,90,4|0
280,328,100500,1,2
336,328,100676,1,6
392,328,100852,2,0,L|456:328|472:280,1,90
480,248,101382,1,6
488,192,101558,1,2
488,136,101735,2,0,B|432:88|384:168,1,90,0|4
416,248,102441,6,0,B|392:296|336:248,1,90,0|4
304,152,103147,1,2
256,128,103323,1,2
208,152,103500,1,6
170,253,103852,2,0,B|119:296|96:248,1,90,0|4
24,136,104558,1,2
64,104,104735,1,2
112,136,104911,6,2,B|216:136,1,90,6|2
256,40,105617,1,4
400,136,105970,2,2,B|296:136,1,90,2|6
256,344,107029,1,4
160,232,107735,5,4
176,280,107911,1,2
208,320,108088,1,0
256,336,108264,1,2
352,232,108441,5,4
336,280,108617,1,2
304,320,108794,1,0
256,336,108970,1,2
256,280,109147,5,4
256,224,109323,1,2
256,168,109500,1,0
256,112,109676,1,2
256,56,109852,5,4
256,112,110028,1,2
256,168,110205,1,0
256,224,110381,1,2
256,280,110558,1,6
360,256,110912,6,8,L|424:176,1,90,0|8
488,104,111617,1,0
384,64,111970,1,0
280,96,112323,1,0
176,64,112676,1,8
136,160,113029,1,0
240,200,113382,1,0
336,256,113735,1,0
280,344,114088,1,8
184,288,114441,1,0
184,184,114794,2,0,L|184:80,1,90
296,96,115500,1,8
408,96,115853,6,2,L|408:216,1,90
408,224,116382,2,2,L|408:272|456:288,2,90
352,224,117264,1,0
360,120,117617,2,0,B|256:80|144:120,1,180,4|8
208,216,118676,1,0
120,152,119029,2,0,B|80:256|120:368,1,180,4|8
216,296,120088,2,2,B|272:296,2,45
296,224,120794,1,0
328,120,121147,1,2
368,80,121323,2,2,B|512:80,1,135,2|6
472,184,122206,5,0
424,280,122559,1,8
312,280,122912,1,0
256,184,123264,1,0
216,144,123441,2,0,B|48:144,1,135,0|8
48,184,124147,1,0
112,272,124500,1,0
168,272,124676,1,0
256,328,125029,1,0
352,272,125382,1,8
432,200,125735,1,0
384,168,125912,1,0
392,112,126088,1,0
344,80,126264,2,0,B|224:80,1,90
232,128,126794,1,8
136,80,127147,5,0
104,184,127500,1,12
208,224,127853,1,0
240,264,128029,1,0
272,304,128206,2,0,B|464:304,1,180,4|0
456,248,129088,2,0,B|472:192|520:176,2,90
400,248,129970,1,0
312,184,130323,5,0
208,192,130676,1,0
312,184,131029,1,0
400,120,131382,1,0
320,48,131735,1,0
264,48,131911,1,0
216,64,132088,1,0
184,104,132264,1,0
176,160,132441,1,4
256,232,132794,6,0,L|256:336,1,90,4|0
312,336,133323,1,2
360,320,133500,1,0
400,288,133676,2,2,B|448:224|416:152,1,135
376,136,134382,1,0
328,120,134558,1,0
304,168,134735,1,2
256,264,135088,1,0
208,168,135441,1,2
184,120,135618,1,0
136,136,135794,1,0
152,184,135970,5,2
152,184,136323,1,0
152,184,136676,1,4
360,184,137382,5,2
360,184,137735,1,0
360,184,138088,1,4
144,192,138794,5,0
192,224,138970,1,2
232,184,139147,1,0
264,144,139323,1,2
368,192,139852,5,0
320,160,140028,1,2
280,200,140205,1,2
248,240,140381,1,0
216,192,140558,2,2,L|112:192,2,90
200,88,141617,6,4,B|272:56|360:104,2,135
256,184,143029,1,4
256,296,143382,1,4
344,240,143735,1,4
256,184,144088,1,4
168,240,144441,5,4
112,152,144794,1,2
160,128,144970,2,0,B|256:80,1,90,6|0
288,64,145500,1,2
360,144,145853,1,4
432,224,146206,5,0
368,312,146559,1,4
264,296,146912,1,0
216,264,147088,2,6,B|104:264,1,90,6|2
128,208,147617,2,0,B|128:104,1,90,4|0
224,64,148323,1,2
336,64,148676,1,4
432,112,149029,6,2,B|448:160,1,45
448,208,149382,2,2,B|432:256,1,45,6|2
408,296,149735,2,2,B|368:352,1,45
320,248,150264,1,2
328,192,150441,2,0,B|280:88,1,90,0|4
184,80,151147,1,0
136,112,151323,2,4,B|48:168,1,90,4|0
16,192,151853,1,2
56,224,152029,2,0,L|72:272|160:320,1,135,4|0
248,360,152912,1,4
336,304,153264,6,0,L|392:296|440:248,1,90,4|0
384,232,153794,2,2,L|407:208|463:200,2,90
328,216,154676,1,0
280,200,154853,1,0
272,144,155029,2,2,L|240:80,1,45
200,96,155382,2,2,L|120:96,1,45
104,120,155735,6,0,L|80:160,1,45,4|0
88,216,156088,1,2
120,256,156264,1,2
168,272,156441,1,6
216,288,156617,1,2
272,304,156794,1,2
320,320,156970,1,2
376,312,157147,2,0,L|416:288|496:312,2,90,4|4|4
400,208,158206,5,2
352,184,158382,1,2
304,160,158559,1,6
256,144,158735,1,2
208,120,158912,1,2
160,96,159088,2,2,L|120:72,2,45,2|6|2
208,120,159617,2,6,L|168:208|80:296,1,180
256,328,160853,1,0
402,266,161382,1,4
408,160,161735,6,2,L|408:112,1,45
360,88,162088,1,2
312,72,162264,1,0
256,64,162441,2,0,L|184:112|192:224,1,180,4|4
280,272,163500,2,2,L|328:296,2,45
352,192,164206,1,4
256,136,164559,2,2,L|136:136,2,90
368,136,165617,1,4
368,136,166323,1,4
376,240,166676,5,6
328,240,166853,1,2
280,240,167029,2,0,L|176:240,2,90,4|0|4
256,144,168088,5,0
208,144,168265,1,0
160,144,168441,2,0,L|70:144,2,90,4|0|4
160,88,169323,2,2,L|224:88,1,45
312,88,169853,5,4
376,176,170206,1,0
264,176,170559,1,4
320,264,170912,1,0
240,336,171264,5,6
184,328,171441,1,2
152,288,171617,1,0
136,240,171794,1,2
144,184,171970,1,6
176,144,172147,1,2
224,112,172323,1,4
280,96,172500,6,0,L|336:96,1,45,0|4
424,144,173029,1,2
456,184,173206,1,2
408,216,173382,2,0,L|368:312,1,90,4|0
376,352,173912,1,2
328,336,174088,2,0,L|200:296,1,90,4|4
248,256,174617,1,2
216,216,174794,2,0,L|104:248,1,90,4|0
112,192,175323,1,2
88,144,175500,2,0,L|184:104,1,90,4|0
224,96,176029,1,0
272,80,176206,1,4
376,104,176559,2,4,B|344:160|368:208|416:216|432:176|384:152|344:144|304:184|320:192,1,180
296,272,177617,5,2
256,248,177794,1,2
224,200,177970,1,2
176,176,178147,1,2
128,176,178323,5,6
104,72,178676,1,4
208,80,179029,1,4
296,144,179382,1,0
320,192,179559,1,0
328,248,179735,6,4,B|440:248,2,90
240,312,180794,1,2
224,264,180970,1,0
176,248,181147,1,4
128,152,181500,1,0
216,96,181853,1,4
304,152,182206,2,4,B|336:216|440:224,2,135,4|0|2
304,96,183441,6,0,B|152:96,2,135,0|4|0
344,128,184676,1,0
384,168,184853,2,0,L|416:232|368:304,1,135,0|4
128,168,185735,2,4,L|96:232|144:304,2,135
256,192,186970,12,0,187853
96,152,188206,5,0
192,104,188559,1,2
256,192,188912,1,0
320,280,189264,1,2
416,232,189617,1,6
256,192,189970,12,0,191912
256,192,192088,12,0,195088
256,192,195264,12,4,198088
120,88,198794,5,4
336,88,199500,1,4
120,88,200206,1,4
336,88,200912,1,4
440,280,201617,6,4,L|240:280,2,180
368,200,203382,1,2
296,120,203735,2,4,L|496:120,2,180
72,280,205853,6,4,L|272:280,2,180
144,200,207618,1,2
216,120,207971,2,4,L|16:120,2,180
256,336,210088,5,4
160,144,210794,1,4
376,144,211500,1,4
176,232,212206,5,4
216,264,212382,1,0
256,304,212559,1,0
296,264,212735,1,0
336,232,212912,1,4
312,128,213264,5,0
256,112,213441,1,0
208,136,213617,1,4
208,32,213970,5,0
256,48,214147,1,0
304,32,214323,1,4
256,128,214676,5,0
256,184,214853,1,0
256,192,215029,12,0,217853
