osu file format v6

[General]
AudioFilename: Kaori Utatsuki - Chasse [Hayate no Gotoku! End 3].mp3
AudioLeadIn: 0
PreviewTime: 14544
Countdown: 1
SampleSet: Soft
StackLeniency: 0.7
Mode: 0
LetterboxInBreaks: 1

[Editor]
DistanceSpacing: 1.29999995231628
BeatDivisor: 4
GridSize: 8

[Metadata]
Title:Chasse
Artist:Kaori Utatsuki
Creator:Yes
Version:Normal
Source:Hayate no Gotoku
Tags:

[Difficulty]
HPDrainRate:4
CircleSize:4
OverallDifficulty:4
SliderMultiplier:1.2
SliderTickRate:1

[Events]
//Background and Video events
0,0,"background.jpg"
//Break Periods
2,28170,39003
2,98758,106592
//Storyboard Layer 0 (Background)
//Storyboard Layer 1 (Fail)
//Storyboard Layer 2 (Pass)
//Storyboard Layer 3 (Foreground)
Sprite,Foreground,Centre,"1smilelunlun.png",320,240 F,0,441,2206,0,1 M,0,2206,,132,89 F,0,2206,3617,1,0.72192 F,0,3617,3970,0.72192,0
Sprite,Foreground,Centre,"lunlunlunleftaligned.png",320,240 M,0,3970,,401,89 F,0,3970,4323,0,1 F,0,4323,5029,1 F,0,5029,5382,1,0
Sprite,Foreground,Centre,"03evenondaysN.png",320,240 M,0,5559,,194,85 S,0,5559,,0.8361601 F,0,5559,5912,0,1 F,0,5912,10676,1 F,0,10676,11029,1,0
Sprite,Foreground,Centre,"5andyourheart.png",320,240 M,0,11206,,130,88 F,0,11029,11382,0,1 F,0,11382,13147,1,0.9811143 F,0,13147,13500,0.9811143,0
Sprite,Foreground,Centre,"06againtodayN.png",320,240 F,0,13500,13853,0,1 M,0,13970,,395,89 F,0,13853,14912,1 F,0,14912,15264,1,0
Sprite,Foreground,Centre,"7aroundandaround.png",320,240 M,0,15264,,128,90 F,0,15264,15617,0,1 F,0,15617,16323,1 F,0,16323,16676,1,0
Sprite,Foreground,Centre,"08underneaththesunN222.png",320,240 S,0,16676,,0.9385599 F,0,16676,17029,0,0.872 M,0,18088,,276,82 F,0,17029,27970,0.872 F,0,27970,28676,0.872,0
Sprite,Foreground,Centre,"10ifisaidN.png",320,240 S,0,44912,,0.88736 F,0,44912,45264,0,1 M,0,45970,,357,93 F,0,45264,50912,1,0.9625606 F,0,50912,51264,0.9625606,0
Sprite,Foreground,Centre,"11wrappedupN.png",320,240 F,0,51264,51617,0,1 M,0,52323,,271,91 F,0,51617,55853,1 F,0,55853,56206,1,0
Sprite,Foreground,Centre,"12iforget.png",320,240 M,0,56206,,132,94 F,0,56206,56559,0,1 F,0,56559,60794,1,0.9947702 F,0,60794,61147,0.9947702,0
Sprite,Foreground,Centre,"13touchmeN.png",320,240 F,0,61323,61676,0,1 M,0,62029,,392,90 F,0,61676,62912,1,0.973541 F,0,62912,63264,0.973541,0
Sprite,Foreground,Centre,"14evenonnights.png",320,240 M,0,63264,,135,92 F,0,63264,63617,0,1 F,0,63617,67500,1,0.9428706 F,0,67500,67853,0.9428706,0
Sprite,Foreground,Centre,"15evenonmyN.png",320,240 S,0,67853,,0.8361599 F,0,67853,68206,0,1 M,0,69264,,196,86 F,0,68206,73147,1,0.9682724 F,0,73147,73500,0.9682724,0
Sprite,Foreground,Centre,"2lalalunlulu.png",320,240 F,0,74559,74912,0,1 M,0,75264,,132,88 F,0,74912,75617,1 F,0,75617,75970,1,0
Sprite,Foreground,Centre,"18justlikethat.png",320,240 S,0,75970,,0.88736 F,0,75970,76323,0,1 M,0,76853,,171,93 F,0,76323,83735,1,0.9972959 F,0,83735,84088,0.9972959,0
Sprite,Foreground,Centre,"19withtheskytodaylunlun.png",320,240 F,0,84088,84441,0,1 M,0,84970,,132,90 F,0,84441,85500,1,0.9957507 F,0,85500,85853,0.9957507,0
Sprite,Foreground,Centre,"2lalalunlulu.png",320,240 F,0,85853,86206,0,1 M,0,86206,,-53,87 F,0,86206,86912,1 F,0,86912,87264,1,0
Sprite,Foreground,Centre,"21withthewind.png",320,240 M,0,87264,,135,92 F,0,87264,87617,0,1 F,0,87617,91853,1,0.9529309 F,0,91853,92206,0.9529309,0
Sprite,Foreground,Centre,"22letusdanceN.png",320,240 F,0,92206,92559,0,1 M,0,93088,,261,90 F,0,92559,98735,1 F,0,98735,,1 F,0,98735,99617,1,0
Sprite,Foreground,Centre,"23ioverexggerateN.png",320,240 S,0,110382,,0.80544 F,0,110382,110735,0,1 M,0,110912,,202,86 F,0,110735,115147,1,0.8373742 F,0,115147,115500,0.8373742,0
Sprite,Foreground,Centre,"24iknockat.png",320,240 F,0,115500,115853,0,1 M,0,116206,,131,89 F,0,115853,121500,1 F,0,121500,121853,1,0
Sprite,Foreground,Centre,"25wheremyangrylooking.png",320,240 F,0,121853,122206,0,1 M,0,122559,,138,92 F,0,122206,126441,1 F,0,126441,126794,1,0
Sprite,Foreground,Centre,"26makingmyheartN.png",320,240 F,0,126794,127147,0,1 M,0,127676,,389,90 F,0,127147,130676,1 F,0,130676,131091,1,0
Sprite,Foreground,Centre,"27iaskquietly.png",320,240 M,0,131912,,-85,93 F,0,131735,132264,0,1 F,0,132264,133500,1,0.9735326 F,0,133500,133853,0.9735326,0
Sprite,Foreground,Centre,"28keepingmytrue.png",320,240 F,0,133853,134206,0,1 M,0,134382,,137,89 F,0,134206,138088,1 F,0,138088,138441,1,0
Sprite,Foreground,Centre,"29icantgetanyN.png",320,240 F,0,138441,138794,0,1 M,0,139147,,390,90 F,0,138794,143029,1,0.8895184 F,0,143029,143735,0.8895184,0
Sprite,Foreground,Centre,"30iknowlunN.png",320,240 F,0,165970,166500,0,1 M,0,166676,,398,91 F,0,166500,167382,1 F,0,167382,167735,1,0
Sprite,Foreground,Centre,"2lalalunlulu.png",320,240 F,0,167735,168088,1 M,0,168088,,132,88 F,0,168088,168794,1 F,0,168794,169147,1,0
Sprite,Foreground,Centre,"31whenyougaze.png",320,240 F,0,169147,169500,0,1 M,0,169853,,134,91 F,0,169500,174441,1 F,0,174441,,1 F,0,174441,174794,1,0
Sprite,Foreground,Centre,"32iwasreadyN.png",320,240 F,0,174794,175147,0,1 M,0,175853,,390,90 F,0,175147,177264,1 F,0,177264,177617,1,0
Sprite,Foreground,Centre,"33theskyislun.png",320,240 F,0,177617,177970,0,1 M,0,178500,,134,90 F,0,177970,178676,1,0.9773371 F,0,178676,179029,0.9773371,0
Sprite,Foreground,Centre,"34lookuptoN.png",320,240 S,0,180441,,0.8668802 F,0,180441,180794,0,1 M,0,180970,,182,84 F,0,180794,186970,1 F,0,186970,187323,1,0
Sprite,Foreground,Centre,"35itsaneveredngin.png",320,240 F,0,187323,187676,0,1 M,0,187676,,26,90 F,0,187676,194559,1 F,0,194559,197735,1 F,0,197735,198264,1,0 F,0,198264,,0
Sprite,Foreground,Centre,"36withyouN.png",320,240 F,0,194029,194559,0,1 M,0,194559,,630,90 F,0,194559,197735,1 F,0,197735,198264,1,0
Sprite,Foreground,Centre,"hello.jpg",320,240 S,0,143382,,0.4982399 F,0,143382,144264,0,1 F,0,144264,148853,1 M,0,143382,149735,358,278,370,284 F,0,148853,149735,1,0
Sprite,Foreground,Centre,"hhhhii.jpg",320,240 F,0,148853,149912,0,1 S,0,150088,,1.33792 F,0,149912,155382,1 F,0,155382,,1 M,0,150264,155912,330,248,355,243 M,0,155912,,355,243 F,0,155382,156088,1,0
Sprite,Foreground,Centre,"hihih.jpg",320,240 F,0,155206,155735,0,1 M,0,155735,,320,240 F,0,155735,156633,1 S,0,155912,161029,0.5699202,0.4982399 F,0,156633,161029,1 F,0,161029,161735,1,0
Sprite,Foreground,Centre,"hi.jpg",320,240 F,0,161029,162088,0,1 M,0,160500,165441,320,240,335,240 S,0,160853,165441,1.23552,1.28672 F,0,162088,165617,1 F,0,165617,166676,1,0
Sprite,Foreground,Centre,"09imfascinatedN.png",320,240 M,0,40147,,92,81 F,0,40147,40559,0,0.778828 F,0,40559,44559,1,0.7967636 F,0,44559,44912,0.7967636,0
Sprite,Foreground,Centre,"lunlunlunleftaligned.png",320,240 M,0,73500,,399,89 F,0,73500,73853,0,1 F,0,73853,74206,1 F,0,74206,74559,1,0
Sprite,Foreground,Centre,"lunlunlunleftaligned.png",320,240 M,0,179029,,399,89 F,0,179029,179382,0,1 F,0,179382,180088,1 F,0,180088,180441,1,0
Sprite,Foreground,Centre,"thanks.png",320,240 M,0,198617,,266,91 F,0,198441,198970,0,1 F,0,198970,200735,1 F,0,200735,201088,1,0
Sprite,Foreground,Centre,"Yes.png",320,240 M,0,29933,30426,279,92,279,94 F,0,29933,30426,0,1 S,0,30970,,0.7030399 F,0,30426,39073,1 M,0,30426,39794,279,94 F,0,39073,39970,1,0 M,0,39794,39970,279,94,277,90
//Storyboard Sound Samples
//Background Colour Transformations
3,100,163,162,255

[TimingPoints]
3265,705.882352941176,4,2,0,76,1,0
26191,-200,4,2,0,0,0,0
28308,-100,4,2,0,76,0,0
59602,-100,4,2,0,22,0,0
61249,-100,4,2,0,76,0,0
96779,-200,4,2,0,0,0,0
98720,-100,4,2,0,76,0,0
107720,-100,4,2,0,21,0,0
108425,-100,4,2,0,37,0,0
109130,-100,4,2,0,51,0,0
109835,-100,4,2,0,76,0,0
130190,-100,4,2,0,21,0,0
131837,-100,4,2,0,76,0,0
167014,-100,4,2,0,76,0,1
167206,-100,4,2,0,76,0,0
189970,-100,4,2,0,76,0,1
190146,-100,4,2,0,24,0,0
194191,-100,4,2,0,40,0,0
194897,-200,4,2,0,16,0,0
196838,-100,4,2,0,76,0,0

[Colours]
Combo1 : 255,255,128
Combo2 : 151,158,249
Combo3 : 255,255,255
Combo4 : 255,203,151
Combo5 : 147,238,145

[HitObjects]
280,184,3265,1,2
328,120,3617,1,0
376,56,3970,1,2
416,120,4323,2,0,B|416:200,1,60,0|2
416,256,5029,1,0
344,288,5382,1,0
264,280,5735,5,2
208,224,6088,1,2
128,208,6441,1,2
64,256,6794,1,8
104,320,7147,2,0,B|160:344|192:304,2,90
64,256,8559,5,0
16,192,8912,1,4
32,112,9264,1,0
112,112,9617,1,2
192,112,9970,1,0
272,104,10323,1,2
336,56,10676,2,2,B|400:80,1,60
400,152,11382,5,2
400,232,11735,1,2
320,232,12088,1,2
320,312,12441,1,8
248,336,12794,2,0,B|184:376|144:304,1,120
88,256,13853,2,2,B|24:256,1,60
48,176,14559,5,4
96,112,14912,2,0,B|72:88|104:40,1,60
160,96,15617,1,0
232,120,15970,1,2
304,96,16323,2,2,B|384:120,1,60
328,184,17029,5,0
288,248,17382,1,2
368,248,17735,1,2
328,312,18088,1,8
408,320,18441,2,0,B|480:328|488:216,1,120
480,128,19676,6,0,B|440:64|400:64,1,90,0|4
264,88,20912,2,0,B|224:184|280:208,1,120,0|2
264,200,21970,2,0,B|272:256|216:288,1,100,2|0
120,272,23029,1,4
80,80,23912,6,0,B|120:112|184:64,1,90
224,120,24794,1,0
288,80,25147,1,2
352,120,25500,1,2
416,80,25853,1,4
472,160,26382,2,0,B|432:200|496:256|472:296,1,135,0|0
24,80,40323,5,2
96,104,40676,1,2
128,176,41029,1,2
208,168,41382,2,0,B|288:192|240:272,1,120,0|8
224,336,42441,1,0
304,328,42794,2,0,B|384:352,1,60,2|0
416,288,43500,2,0,B|416:224,1,60,2|0
416,228,44029,2,0,B|389:170,1,60,2|0
390,173,44559,2,0,B|325:149,1,60,0|8
328,72,45264,5,0
248,72,45617,2,0,B|176:24|128:104,1,120,0|8
200,128,46676,1,2
152,184,47029,2,0,B|216:232|272:152,1,120,0|8
296,232,48088,5,2
368,264,48441,2,0,B|400:192|328:160,1,120,2|0
296,232,49500,1,0
296,232,49676,2,0,B|248:280|208:224,1,90,0|0
152,272,50559,2,0,B|192:336|280:320,1,120,2|4
328,328,51617,5,0
400,304,51970,1,0
440,240,52323,1,0
440,160,52676,2,0,B|448:88|368:80,1,120,0|8
376,160,53735,1,2
296,160,54088,1,0
248,96,54441,1,0
184,144,54794,2,0,B|144:88,1,60,2|0
149,95,55323,2,0,B|85:119,1,60,2|0
92,116,55853,2,0,B|69:186,1,60,2|8
120,232,56559,5,0
192,200,56912,2,0,B|232:280|152:320,1,120
96,312,57970,1,0
48,248,58323,5,2
72,176,58676,1,0
144,160,59029,1,0
200,216,59382,1,0
256,192,59735,12,4,61147
248,40,61853,5,2
328,40,62206,1,2
288,104,62559,2,0,B|320:160|400:128,1,120
456,176,63617,1,0
456,256,63970,2,0,B|360:352,1,120
304,304,65029,1,0
304,304,65206,5,2
304,304,65382,2,0,B|320:232|248:192,1,120,2|8
224,272,66441,1,2
144,256,66794,2,0,B|136:352|208:352,1,120,0|4
200,160,68206,6,2,B|200:112,3,30,2|0|0|2
312,160,69265,2,2,B|312:112,3,30
256,184,70147,2,0,B|256:280,1,90
176,272,71029,5,4
256,352,71559,1,4
336,272,72088,1,8
256,272,72441,1,4
256,192,72794,5,2
288,120,73147,2,2,B|336:72,1,60
408,64,73853,6,0,B|432:136,1,60,4|0
464,184,74559,1,2
448,264,74912,1,0
376,296,75265,2,0,B|360:264|320:272,2,60,0|0|2
320,352,76323,5,0
240,352,76676,1,2
160,352,77029,1,2
80,352,77382,1,8
56,280,77735,2,0,B|112:248|152:288,2,90
48,200,79147,5,2
96,136,79500,1,4
168,104,79853,1,2
240,128,80206,1,2
272,200,80559,2,0,B|328:200,2,30
272,280,81265,2,0,B|352:304,1,60,2|2
400,264,81970,5,0
440,264,82147,1,0
472,240,82323,1,2
456,160,82676,1,2
440,80,83029,1,2
360,88,83382,2,0,B|280:88,2,60
440,80,84441,1,2
456,160,84794,1,2
376,176,85147,5,4
296,184,85500,2,0,B|248:232,1,60
288,296,86206,1,0
216,320,86559,2,2,B|136:336,2,60
168,256,87617,5,0
96,232,87970,1,0
64,160,88323,1,0
96,88,88676,1,8
176,88,89029,2,0,B|256:128|240:208,1,120
336,248,90265,1,2
328,128,90794,6,0,B|288:64|376:16,1,120,4|0
432,56,91853,1,0
496,104,92206,2,0,B|504:192|400:176,1,120,0|8
440,256,93265,1,0
464,328,93617,2,0,B|416:280|416:392|352:304,1,120,0|8
362,317,94500,6,0,B|258:349,1,90,0|2
208,312,95382,1,2
152,256,95735,1,2
120,184,96088,2,2,B|136:104,1,60,2|0
232,136,96970,2,0,B|272:96|328:192|352:120,1,135,0|0
256,152,107912,6,0,B|256:104,2,30,0|0|0
320,192,108617,6,0,B|368:192,2,30
256,232,109323,6,0,B|256:280,2,30
192,192,110029,6,0,B|144:192,2,30
256,192,110559,5,4
256,192,110912,5,0
232,264,111265,2,0,B|240:320|176:304,1,60
128,320,111970,2,0,B|48:328|56:240,1,120,0|8
40,176,113029,1,0
40,96,113382,2,0,B|112:64,1,60,2|0
168,80,114088,2,0,B|240:96,1,60,2|0
226,93,114617,2,0,B|253:151,1,60,2|0
251,147,115147,2,0,B|211:203,1,60,2|8
160,256,115853,5,0
232,272,116206,2,0,B|280:320|344:280,1,120,0|8
296,216,117265,1,2
352,160,117617,2,0,B|288:112|224:176,1,120,0|8
296,216,118676,5,2
368,240,119029,2,0,B|336:320|256:288,1,120,2|0
224,240,120088,1,0
224,240,120265,2,0,B|184:176|256:152,1,90,0|0
312,152,121147,1,2
384,128,121500,1,2
360,56,121853,1,4
288,80,122206,5,0
208,88,122559,1,0
144,128,122912,1,0
64,112,123265,2,0,B|40:184|136:208,1,120,0|8
56,248,124323,1,0
64,328,124676,2,0,B|144:352,1,60,2|0
192,304,125382,2,0,B|272:272,1,60,2|0
247,281,125912,2,0,B|279:217,1,60,2|0
273,227,126441,2,0,B|343:244,1,60,2|8
404,269,127147,5,0
415,192,127500,2,0,B|495:184|463:88,1,120,4|0
408,56,128559,1,0
328,72,128912,5,2
256,48,129265,1,0
192,88,129617,1,2
184,168,129970,1,2
256,192,130323,12,4,131735
440,184,132441,5,2
368,216,132794,1,2
296,248,133147,2,0,B|264:184|184:200,1,120
224,272,134206,1,0
152,296,134559,2,0,B|184:368|280:328,1,120,0|2
312,296,135617,1,2
384,264,135970,2,0,B|416:344|320:376,1,120,0|8
312,296,137029,1,0
248,344,137382,2,0,B|208:272|280:224,1,120,0|4
216,120,138794,6,2,B|168:120,3,30,2|0|0|2
304,120,139853,2,0,B|352:120,3,30,2|0|0|2
256,120,140735,1,0
256,120,141265,1,0
256,200,141617,5,4
168,280,142147,1,4
256,352,142676,1,8
336,352,143029,1,4
368,280,143382,5,2
408,216,143735,1,2
472,176,144088,1,2
448,104,144441,2,0,B|440:40|352:80,1,90,4|0
264,72,145500,1,0
184,72,145853,1,2
104,72,146206,1,2
48,128,146559,2,0,B|136:176,2,90,8|8|4
320,104,149029,5,2
376,160,149382,1,2
448,128,149735,1,2
448,128,149912,2,0,B|464:32|360:24,1,150,0|8
256,32,151323,1,8
184,56,151676,1,2
152,72,151853,1,2
112,72,152029,1,4
256,304,153265,5,2
176,304,153617,2,0,B|104:304,1,60,2|0
56,256,154323,2,0,B|56:192,1,60,2|0
128,168,155029,1,8
184,120,155382,1,8
168,40,155735,1,4
88,48,156088,6,0,B|32:72|48:128,1,90
64,232,157147,2,2,B|64:296,2,60
144,224,158206,1,0
208,264,158559,2,0,B|208:304,6,30,0|0|8|0|8|0|4
344,192,160323,6,0,B|272:136,1,90,0|0
168,80,161382,5,2
248,80,161735,1,8
248,160,162088,1,8
168,160,162441,2,0,B|112:232|184:272,1,120,4|2
240,304,163500,1,2
320,304,163853,1,2
392,272,164206,2,0,B|440:216,1,60,2|4
256,64,165617,5,2
256,144,165970,1,2
256,224,166323,1,2
304,280,166676,5,0
376,248,167029,2,2,B|408:168,2,60
400,320,168088,1,0
328,360,168441,2,2,B|256:360,2,60
400,320,169500,5,0
456,272,169853,1,2
480,200,170206,1,2
456,128,170559,1,8
400,72,170912,2,0,B|344:40|304:80,2,90
352,136,172323,5,2
312,152,172500,1,0
272,160,172676,1,4
192,136,173029,1,2
152,64,173382,1,2
72,64,173735,1,2
40,136,174088,1,2
48,216,174441,2,0,B|112:240,1,60,2|2
152,296,175147,5,0
208,240,175500,1,2
264,296,175853,1,2
344,296,176206,1,8
392,232,176559,2,0,B|456:200,1,60
408,136,177265,1,2
360,72,177617,2,0,B|296:112,1,60
240,144,178323,5,4
176,184,178676,1,0
96,168,179029,1,2
64,96,179382,1,0
104,96,179559,1,0
144,96,179735,2,2,B|232:96,2,60
64,96,180794,5,2
48,168,181147,1,2
72,240,181500,1,0
128,288,181853,1,8
200,272,182206,2,0,B|232:352|312:296,1,120
248,200,183441,1,0
360,208,183970,6,0,B|440:176|384:96,1,120,4|0
368,40,185029,1,0
296,72,185382,1,2
216,56,185735,2,0,B|184:112|264:136,1,90
240,240,186794,2,0,B|192:192|192:304|128:216,1,120,0|8
138,229,187676,6,0,B|170:333,1,90,0|2
240,328,188559,1,2
320,328,188912,1,2
400,328,189265,2,2,B|480:312,1,60
256,192,190147,12,0,193853
184,192,194559,5,2
312,192,195088,2,0,B|360:136|400:216|440:152,1,135
