osu file format v6

[General]
AudioFilename: Kaori Utatsuki - Chasse [Hayate no Gotoku! End 3].mp3
AudioLeadIn: 0
PreviewTime: 14544
Countdown: 1
SampleSet: Soft
StackLeniency: 0.7
Mode: 0
LetterboxInBreaks: 1

[Editor]
DistanceSpacing: 1.5
BeatDivisor: 4
GridSize: 8

[Metadata]
Title:Chasse
Artist:Kaori Utatsuki
Creator:Yes
Version:Easy
Source:Hayate no Gotoku
Tags:

[Difficulty]
HPDrainRate:2
CircleSize:3
OverallDifficulty:3
SliderMultiplier:0.9
SliderTickRate:1

[Events]
//Background and Video events
0,0,"background.jpg"
//Break Periods
2,28170,38883
//Storyboard Layer 0 (Background)
//Storyboard Layer 1 (Fail)
//Storyboard Layer 2 (Pass)
//Storyboard Layer 3 (Foreground)
Sprite,Foreground,Centre,"1smilelunlun.png",320,240 F,0,441,2206,0,1 M,0,2206,,132,89 F,0,2206,3617,1,0.72192 F,0,3617,3970,0.72192,0
Sprite,Foreground,Centre,"lunlunlunleftaligned.png",320,240 M,0,3970,,401,89 F,0,3970,4323,0,1 F,0,4323,5029,1 F,0,5029,5382,1,0
Sprite,Foreground,Centre,"03evenondaysN.png",320,240 M,0,5559,,194,85 S,0,5559,,0.8361601 F,0,5559,5912,0,1 F,0,5912,10676,1 F,0,10676,11029,1,0
Sprite,Foreground,Centre,"5andyourheart.png",320,240 M,0,11206,,130,88 F,0,11029,11382,0,1 F,0,11382,13147,1,0.9811143 F,0,13147,13500,0.9811143,0
Sprite,Foreground,Centre,"06againtodayN.png",320,240 F,0,13500,13853,0,1 M,0,13970,,395,89 F,0,13853,14912,1 F,0,14912,15264,1,0
Sprite,Foreground,Centre,"7aroundandaround.png",320,240 M,0,15264,,128,90 F,0,15264,15617,0,1 F,0,15617,16323,1 F,0,16323,16676,1,0
Sprite,Foreground,Centre,"08underneaththesunN222.png",320,240 S,0,16676,,0.9385599 F,0,16676,17029,0,0.872 M,0,18088,,276,82 F,0,17029,27970,0.872 F,0,27970,28676,0.872,0
Sprite,Foreground,Centre,"09imfascinatedN.png",320,240 M,0,40147,,153,81 F,0,40147,40500,0,1 F,0,40500,44559,1 F,0,44559,44912,1,0
Sprite,Foreground,Centre,"10ifisaidN.png",320,240 S,0,44912,,0.88736 F,0,44912,45264,0,1 M,0,45970,,357,93 F,0,45264,50912,1,0.9625606 F,0,50912,51264,0.9625606,0
Sprite,Foreground,Centre,"11wrappedupN.png",320,240 F,0,51264,51617,0,1 M,0,52323,,271,91 F,0,51617,55853,1 F,0,55853,56206,1,0
Sprite,Foreground,Centre,"12iforget.png",320,240 M,0,56206,,132,94 F,0,56206,56559,0,1 F,0,56559,60794,1,0.9947702 F,0,60794,61147,0.9947702,0
Sprite,Foreground,Centre,"13touchmeN.png",320,240 F,0,61323,61676,0,1 M,0,62029,,392,90 F,0,61676,62912,1,0.973541 F,0,62912,63264,0.973541,0
Sprite,Foreground,Centre,"14evenonnights.png",320,240 M,0,63264,,135,92 F,0,63264,63617,0,1 F,0,63617,67500,1,0.9428706 F,0,67500,67853,0.9428706,0
Sprite,Foreground,Centre,"15evenonmyN.png",320,240 S,0,67853,,0.8361599 F,0,67853,68206,0,1 M,0,69264,,196,86 F,0,68206,73147,1,0.9682724 F,0,73147,73500,0.9682724,0
Sprite,Foreground,Centre,"2lalalunlulu.png",320,240 F,0,74559,74912,0,1 M,0,75264,,132,88 F,0,74912,75617,1 F,0,75617,75970,1,0
Sprite,Foreground,Centre,"lunlunlunleftaligned.png",320,240 M,0,73500,,394,89 F,0,73500,73853,0,1 F,0,73853,74206,1 F,0,74206,74559,1,0
Sprite,Foreground,Centre,"18justlikethat.png",320,240 S,0,75970,,0.88736 F,0,75970,76323,0,1 M,0,76853,,171,93 F,0,76323,83735,1,0.9972959 F,0,83735,84088,0.9972959,0
Sprite,Foreground,Centre,"19withtheskytodaylunlun.png",320,240 F,0,84088,84441,0,1 M,0,84970,,132,90 F,0,84441,85500,1,0.9957507 F,0,85500,85853,0.9957507,0
Sprite,Foreground,Centre,"2lalalunlulu.png",320,240 F,0,85853,86206,0,1 M,0,86206,,-53,87 F,0,86206,86912,1 F,0,86912,87264,1,0
Sprite,Foreground,Centre,"21withthewind.png",320,240 M,0,87264,,135,92 F,0,87264,87617,0,1 F,0,87617,91853,1,0.9529309 F,0,91853,92206,0.9529309,0
Sprite,Foreground,Centre,"22letusdanceN.png",320,240 F,0,92206,92559,0,1 M,0,93088,,261,90 F,0,92559,98735,1 F,0,98735,,1 F,0,98735,99264,1,0
Sprite,Foreground,Centre,"Yes.png",320,240 M,0,29933,30426,279,92,279,94 F,0,29933,30426,0,1 S,0,38559,,0.71328 F,0,30426,39073,1 M,0,30426,39794,279,94 F,0,39073,39970,1,0 M,0,39794,39970,279,94,277,90
//Storyboard Sound Samples
//Background Colour Transformations
3,100,163,162,255

[TimingPoints]
3265,705.882352941176,4,2,0,76,1,0
26014,-100,4,2,0,7,0,0
28131,-100,4,2,0,76,0,0
59602,-100,4,2,0,22,0,0
61249,-100,4,2,0,76,0,0
73838,-100,4,2,0,76,0,1
74029,-100,4,2,0,76,0,0
99073,-100,4,2,0,9,0,0

[Colours]
Combo1 : 255,255,128
Combo2 : 151,158,249
Combo3 : 255,255,255
Combo4 : 255,203,151
Combo5 : 147,238,145

[HitObjects]
368,256,3265,2,0,B|424:256,2,45,2|0|2
296,256,4323,1,0
224,256,4676,2,0,B|184:296,2,45,2|0|2
224,184,5735,5,2
224,112,6088,2,0,B|280:40,1,90,0|8
160,112,7500,2,0,B|88:32,1,90,0|8
64,104,8559,5,0
64,168,8912,2,0,B|64:280,1,90,4|0
112,304,9970,1,0
176,304,10323,2,2,B|208:352,2,45
184,168,11735,5,2
248,168,12088,1,2
312,168,12441,1,8
376,168,12794,2,0,B|416:208|464:160,1,90
464,96,13853,2,0,B|464:32,1,45
392,48,14559,5,4
336,88,14912,1,0
280,128,15264,1,2
280,264,15970,2,0,B|280:312,2,45,2|0|2
144,264,17382,5,2
144,192,17735,1,2
72,192,18088,1,8
72,120,18441,2,0,B|64:40|152:32,1,135
264,104,20206,6,0,B|304:152|344:96,1,90,4|0
456,168,21617,2,0,B|456:280,1,90,0|8
328,304,23029,2,0,B|328:240|264:232,1,90,0|8
280,96,24441,6,2,B|216:96,4,45
256,192,26206,12,0,27970
296,288,40323,5,0
344,240,40676,1,0
296,192,41029,1,0
336,136,41382,2,0,B|416:128|384:64,2,90,0|8|0
296,80,43147,1,2
256,136,43500,1,0
120,136,44206,1,0
120,272,44912,1,8
256,272,45617,6,0,B|296:328|336:256,1,90,0|8
392,272,46676,1,0
392,200,47029,2,0,B|440:152|480:216,1,90,0|8
456,64,48441,5,2
320,64,49147,1,2
248,64,49500,1,0
248,128,49853,2,0,B|200:176|160:112,1,90,2|0
88,232,51264,1,4
176,328,51970,5,2
232,288,52323,1,2
288,328,52676,2,0,B|400:328,1,90,2|8
464,224,54088,1,0
464,88,54794,1,0
344,152,55500,1,0
344,288,56206,1,8
272,288,56559,5,2
200,288,56912,1,2
64,288,57617,1,0
64,152,58323,1,2
200,152,59029,1,2
256,192,59735,12,4,61147
376,40,61853,5,2
344,96,62206,1,2
384,152,62559,2,0,B|416:208|472:168,1,90
464,312,63970,1,0
344,248,64676,1,0
224,192,65382,6,0,B|184:248|232:280,1,90,2|8
360,272,66794,2,0,B|392:224|344:176,1,90,0|4
296,80,68206,5,2
160,80,68912,1,2
88,192,69617,2,2,B|200:192,1,90
248,192,70676,1,0
312,192,71029,6,8,B|392:192,2,67.5,2|0|8
248,192,72441,1,4
168,80,73147,5,2
304,80,73853,6,2,B|352:80,2,45
304,144,74912,1,0
304,208,75265,2,0,B|240:208,2,45,2|0|2
208,304,76676,5,2
136,312,77029,1,2
80,272,77382,1,8
56,208,77735,2,8,B|88:136|144:128|176:160,1,135,0|0
288,104,79500,5,4
352,104,79853,1,2
352,168,80206,1,2
416,168,80559,1,0
416,232,80912,2,0,B|432:304|360:288,1,90,2|2
256,216,82323,5,2
256,144,82676,1,0
256,72,83029,1,8
184,72,83382,2,0,B|80:72,1,90
112,272,85147,5,4
176,272,85500,1,0
240,272,85853,1,2
240,336,86206,1,2
304,336,86559,2,2,B|352:312,2,45
304,200,87970,5,0
272,136,88323,1,0
216,96,88676,1,8
152,80,89029,2,0,B|72:88|80:184,1,135
192,248,90794,6,0,B|232:288|272:248,1,90,4|0
400,200,92206,2,0,B|424:152|368:112,1,90,0|8
256,56,93617,2,0,B|208:8|208:120|176:56,1,90,0|8
48,80,95029,5,2
88,128,95382,1,2
48,184,95735,1,2
88,232,96088,1,2
48,288,96441,1,2
256,192,96970,12,0,99265
