osu file format v9

[General]
AudioFilename: Negai (TV Size).mp3
AudioLeadIn: 0
PreviewTime: 31730
Countdown: 0
SampleSet: Soft
StackLeniency: 0.7
Mode: 0
LetterboxInBreaks: 1

[Editor]
Bookmarks: 73775
DistanceSpacing: 1
BeatDivisor: 2
GridSize: 4

[Metadata]
Title:Negai (TV Size)
Artist:Kaori Hikita
Creator:athiota33
Version:Normal
Source:Tales of Symphonia
Tags:ending Almateria

[Difficulty]
HPDrainRate:3
CircleSize:3
OverallDifficulty:3
ApproachRate:5
SliderMultiplier:1.1
SliderTickRate:2

[Events]
//Background and Video events
0,0,"bg.jpg"
//Break Periods
//Storyboard Layer 0 (Background)
//Storyboard Layer 1 (Fail)
//Storyboard Layer 2 (Pass)
//Storyboard Layer 3 (Foreground)
//Storyboard Sound Samples
//Background Colour Transformations
3,100,163,162,255

[TimingPoints]
1730,454.545454545455,4,2,1,40,1,0
13775,-100,4,2,1,50,0,0
15820,-100,4,2,1,20,0,0
18093,-100,4,2,1,20,0,0
19002,-100,4,2,1,30,0,0
20820,-100,4,2,1,40,0,0
23775,-100,4,2,1,25,0,0
25139,-100,4,2,1,35,0,0
25366,-100,4,2,1,50,0,0
27184,-100,4,2,1,42,0,0
28093,-100,4,2,1,30,0,0
31730,-100,4,2,1,40,0,0
32639,-100,4,2,1,50,0,1
45366,-100,4,2,1,50,0,0
46275,-100,4,2,1,65,0,0
47184,-100,4,2,1,65,0,1
47298,-100,4,2,1,65,0,0
47639,-100,4,2,1,50,0,0
49002,-100,4,2,1,35,0,0
49911,-100,4,2,1,50,0,0
59911,-100,4,2,1,60,0,0
61730,-100,4,2,1,70,0,1
61843,-100,4,2,1,50,0,0
76275,-100,4,2,1,40,0,1
76389,-100,4,2,1,50,0,0
81730,-100,4,2,1,40,0,0
82639,-100,4,2,1,50,0,0
83093,-100,4,2,1,60,0,0
84002,-100,4,2,1,50,0,0
87184,-100,4,2,1,50,0,1
87298,-100,4,2,1,50,0,0
89002,-100,4,2,1,65,0,0
90593,-100,4,2,1,50,0,0
90820,-100,4,2,1,60,0,0
91275,-100,4,2,1,50,0,0
92184,-100,4,2,1,40,0,0
92639,-100,4,2,1,35,0,0
93093,-100,4,2,1,30,0,0
96275,-100,4,2,1,20,0,0
97219,461.538461538462,4,2,1,20,1,0
100765,480,4,2,1,20,1,0
100885,-100,4,2,1,30,0,0
105591,521.739130434783,4,2,1,35,1,0
106895,550.45871559633,4,2,1,35,1,0
107170,-100,4,2,1,30,0,0
107803,697.674418604651,4,2,1,30,1,0
109198,-100,4,2,1,15,0,0
109547,-100,4,2,1,5,0,0
110709,-100,4,2,1,10,0,0
114954,-200,4,2,1,5,0,0

[Colours]
Combo1 : 254,99,82
Combo2 : 91,215,107
Combo3 : 166,184,255
Combo4 : 248,241,7

[HitObjects]
116,128,2639,2,0,B|196:60|272:136,1,165
308,160,3548,2,0,B|332:216|308:272,2,110,2|0|2
344,56,4911,2,0,B|392:88|408:152,1,110,0|2
344,236,5820,1,0
240,276,6275,2,0,B|192:244|132:268,2,110,2|0|2
88,188,9911,6,0,B|72:248|128:300|196:260,1,165
208,212,10820,2,0,B|224:140|300:148,2,110,2|0|2
316,240,12184,2,0,B|380:240|396:176,2,110,0|2|0
260,240,13320,2,0,B|196:240|180:304,2,110,0|2|0
316,240,14457,6,0,B|440:240,1,110,2|0
480,240,15139,2,0,B|448:148|516:64,1,165,2|0
256,192,18093,5,0
76,64,19002,2,0,B|40:128|64:188,2,110,2|0|2
160,136,20366,2,0,B|176:200|144:248,1,110,0|2
248,288,21275,1,0
256,180,21730,6,0,B|312:200|368:180,1,110,2|0
396,140,22411,2,0,B|464:212|416:292,1,165,2|0
360,292,23320,2,0,B|318:369|260:393|168:345,1,220,2|2
172,240,24684,2,0,B|144:184|172:128,1,110
224,120,25366,6,0,B|276:152|336:120,1,110,2|0
384,132,26048,2,0,B|436:104|488:132,2,110,2|2|0
384,188,27184,2,0,B|420:236|388:292,2,110,2|0|2
288,240,28548,2,0,B|176:240,2,110,0|2|0
332,140,29911,2,0,B|372:147|381:182,2,55,2|0|0
60,268,31730,5,2
156,316,32184,1,0
256,268,32639,2,0,B|256:196|200:156,2,110,6|0|2
148,252,34002,2,0,B|104:216|104:156,2,110,0|2|0
240,316,35366,6,0,B|296:352|348:316,1,110,2|0
432,252,36275,1,2
376,156,36730,2,0,B|428:116|480:160,2,110,0|2|0
288,224,38093,2,0,B|232:224,2,55,2|0|0
288,112,39002,6,0,B|344:76|396:112,2,110,2|0|2
288,224,40366,1,0
288,224,40593,2,0,B|256:276|176:276|136:208,1,165,2|0
96,128,41729,2,0,B|152:92|200:128,2,110,2|0|2
256,192,43093,12,2,45366
256,192,46275,6,0,B|368:192,1,110,2|2
364,80,47184,2,0,B|432:76|464:136,2,110,4|0|2
260,120,48548,1,0
260,120,48775,1,0
260,120,49002,2,0,B|192:124|160:64,2,110,2|0|2
344,192,50366,6,0,B|376:244|344:304,1,110,0|2
252,244,51275,2,0,B|204:280|136:272,2,110,0|2|0
252,132,52639,2,0,B|264:108|252:80|252:80|240:48|252:12,1,110,2|0
360,32,53548,5,2
440,108,54002,1,0
416,216,54457,2,0,B|328:240|272:200|272:200|252:128,1,220,6|2
364,136,55820,2,0,B|340:28,1,110,0|2
233,24,56729,2,0,B|253:136,2,110,0|2|0
256,192,58093,12,2,59911
200,300,60820,6,0,B|256:336|316:292,2,110,2|0|4
152,200,62184,1,0
152,200,62411,2,0,B|176:124|248:96|277:112|277:112|337:147,1,220,2|0
312,192,63548,2,0,B|400:268,2,110,2|0|2
236,112,64911,1,0
164,196,65366,6,0,B|128:244|52:236,1,110,4|0
12,236,66048,2,0,B|52:148|20:68,1,165,2|0
132,64,67184,2,0,B|188:40|244:64,2,110,2|0|2
104,172,68548,1,0
132,280,69002,6,0,B|188:304|244:280,2,110,6|0|2
104,172,70366,2,0,B|104:60,1,110,0|2
216,60,71275,2,0,B|272:60,2,55,0|2|0
224,168,72184,2,0,B|148:180|124:100,2,110,0|2|0
280,168,73320,2,0,B|356:156|380:236,1,110,2|2
396,260,74002,2,0,B|472:272|496:192,2,110,0|2|0
288,272,75366,5,2
180,260,75820,2,0,B|104:272|80:192,2,110,2|6|0
236,168,77184,1,2
316,92,77639,2,0,B|368:56|420:92,2,110,0|2|0
368,188,79002,1,2
280,256,79457,1,0
192,188,79911,6,0,B|140:216|84:188,2,110,4|0|2
192,76,81275,2,0,B|192:16,2,55,0|0|2
192,188,82184,2,0,B|244:216|300:188,1,110,0|2
392,132,83093,1,0
488,188,83548,6,0,B|516:240|488:296,2,110,4|0|2
380,192,84911,2,0,B|324:192,2,55,0|0|2
488,188,85820,2,0,B|516:136|488:80,2,110,0|2|0
436,200,86957,1,0
380,192,87184,6,0,B|348:244|376:300,2,110,4|0|2
312,104,88548,2,0,B|256:68|204:108,1,110,0|2
140,192,89457,2,0,B|172:244|144:300,2,110,0|2|0
156,140,90593,5,0
144,84,90820,1,6
256,84,91275,2,0,B|368:84,1,110,0|2
368,196,92184,2,0,B|368:264,2,55,0|2|0
256,192,93093,12,0,96275
256,192,97219,5,0
256,192,97680,1,0
256,192,98142,12,2,100765
204,256,101245,6,0,B|92:256,2,110,0|2|0
260,256,102445,2,0,B|292:172|260:88,1,165,2|0
152,84,103645,2,0,B|96:56|48:84,2,110,2|0|2
216,172,105085,1,0
288,252,105591,6,0,B|300:316|236:364|180:344,1,165,2|2
80,348,106895,2,0,B|24:348,1,55,0|2
16,232,107803,5,2
228,176,109198,2,0,B|260:232|228:284,1,110,2|0
256,192,110709,12,0,116175
