osu file format v9

[General]
AudioFilename: Negai (TV Size).mp3
AudioLeadIn: 0
PreviewTime: 31730
Countdown: 0
SampleSet: Soft
StackLeniency: 0.7
Mode: 0
LetterboxInBreaks: 1

[Editor]
Bookmarks: 62866
DistanceSpacing: 1
BeatDivisor: 4
GridSize: 4

[Metadata]
Title:Negai (TV Size)
Artist:Kaori Hikita
Creator:athiota33
Version:Hard
Source:Tales of Symphonia
Tags:ending Almateria

[Difficulty]
HPDrainRate:6
CircleSize:4
OverallDifficulty:6
ApproachRate:7
SliderMultiplier:1.7
SliderTickRate:2

[Events]
//Background and Video events
0,0,"bg.jpg"
//Break Periods
//Storyboard Layer 0 (Background)
//Storyboard Layer 1 (Fail)
//Storyboard Layer 2 (Pass)
//Storyboard Layer 3 (Foreground)
//Storyboard Sound Samples
//Background Colour Transformations
3,100,163,162,255

[TimingPoints]
1730,454.545454545455,4,2,1,40,1,0
4911,-100,4,2,1,40,0,0
7184,-100,4,2,1,15,0,0
9911,-100,4,2,1,40,0,0
15820,-100,4,2,1,20,0,0
19002,-100,4,2,1,30,0,0
20820,-100,4,2,1,40,0,0
25139,-100,4,2,1,50,0,0
28093,-100,4,2,1,30,0,0
31957,-100,4,2,1,40,0,0
32639,-100,4,2,1,50,0,1
42411,-100,4,2,1,40,0,1
42639,-100,4,2,1,50,0,1
45366,-100,4,2,1,50,0,0
46275,-100,4,2,1,65,0,0
47184,-100,4,2,1,65,0,1
47298,-100,4,2,1,65,0,0
47639,-100,4,2,1,50,0,0
49002,-100,4,2,1,35,0,0
49911,-100,4,2,1,50,0,0
59911,-100,4,2,1,60,0,0
61730,-100,4,2,1,70,0,1
61843,-100,4,2,1,50,0,0
76275,-100,4,2,1,50,0,1
76389,-100,4,2,1,50,0,0
83093,-100,4,2,1,60,0,0
84002,-100,4,2,1,50,0,0
87184,-100,4,2,1,50,0,1
87298,-100,4,2,1,50,0,0
89002,-100,4,2,1,65,0,0
90593,-100,4,2,1,50,0,0
90820,-100,4,2,1,60,0,0
91275,-100,4,2,1,50,0,0
92184,-100,4,2,1,40,0,0
92639,-100,4,2,1,35,0,0
93320,-133.333333333333,4,2,1,30,0,0
96275,-100,4,2,1,15,0,0
97219,461.538461538462,4,2,1,20,1,0
100765,480,4,2,1,30,1,0
100765,-133.333333333333,4,2,1,30,0,0
105591,521.739130434783,4,2,1,25,1,0
105721,-100,4,2,1,35,0,0
106895,550.45871559633,4,2,1,35,1,0
107170,-100,4,2,1,30,0,0
107445,-100,4,2,1,25,0,0
107803,697.674418604651,4,2,1,20,1,0
108151,-100,4,2,1,5,0,0
109198,-133.333333333333,4,2,1,10,0,0
114954,-200,4,2,1,5,0,0

[Colours]
Combo1 : 254,99,82
Combo2 : 91,215,107
Combo3 : 166,184,255
Combo4 : 248,241,7

[HitObjects]
48,128,2639,2,0,B|112:52|212:80,1,170
280,100,3320,1,0
264,184,3548,2,0,B|324:196|380:144|360:80,2,170,2|0|2
180,36,4911,2,0,B|148:64|92:68,1,85
36,124,5366,2,0,B|0:220|72:276,2,170,2|0|2
196,184,6730,1,0
196,184,6957,1,0
256,192,7184,12,0,9002
172,96,9911,6,0,B|256:64|340:96,1,170
304,172,10593,1,0
264,248,10820,2,0,B|328:288|408:224|388:152,2,170,2|0|0
136,136,12184,1,0
200,80,12411,1,0
272,124,12639,2,0,B|351:83|435:127,1,170,2|0
468,48,13320,2,0,B|412:120|444:228,1,170
372,284,14002,5,0
312,212,14230,2,0,B|288:160|240:160,2,85,2|0|0
228,252,14911,2,0,B|188:292|128:280,1,85,2|0
256,44,15820,1,0
256,44,18093,6,0,B|312:20|372:96|324:152,1,170,2|0
164,232,19002,6,0,B|132:188|76:204,1,85,2|0
40,132,19457,2,0,B|112:192|88:296,2,170,0|2|0
96,68,20593,1,0
168,108,20820,2,0,B|221:194|317:156,1,170,2|0
400,148,21502,1,0
444,76,21730,5,2
444,76,21957,2,0,B|400:56|356:76,2,85,0|0|2
456,160,22639,1,0
392,212,22866,1,0
320,164,23093,2,0,B|240:124|144:168,1,170,2|2
120,240,23775,1,0
156,316,24002,2,0,B|236:356|332:312,1,170,2|0
392,272,24684,2,0,B|424:188|380:100,1,170
280,108,25366,6,0,B|268:40|216:8|148:24,1,170,2|0
188,100,26048,2,0,B|172:172|96:200|28:152,2,170,2|2|0
280,84,27184,1,2
372,100,27411,1,0
460,84,27639,2,0,B|500:168|464:260,1,170,0|2
388,216,28320,2,0,B|312:280|228:224,1,170,0|0
204,308,29002,6,0,B|256:232|204:148,2,170,2|0|2
312,356,30139,1,0
388,276,30366,1,0
192,168,31730,5,2
192,168,32184,2,0,B|232:260|352:232,1,170,0|4
356,316,32866,2,0,B|408:300|416:240,2,85,0|0|0
332,236,33548,2,0,B|248:184|172:236,1,170,2|0
120,336,34230,2,0,B|32:284|76:184,2,170,0|2|0
172,236,35366,6,0,B|168:128|284:92,2,170,2|0|6
248,276,36502,1,0
304,344,36729,2,0,B|344:312|332:260,1,85
324,176,37184,2,0,B|244:136|156:176,2,170,2|0|0
388,108,38320,1,2
480,118,38548,1,0
506,207,38775,1,0
452,284,39002,6,0,B|400:368|304:348,2,170,2|0|2
284,268,40366,1,0
284,268,40593,2,0,B|180:268|148:176,1,170,2|0
152,96,41275,2,0,B|100:88|72:148,1,85,0|0
68,212,41729,2,0,B|104:124|44:52,2,170,2|0|2
228,220,43093,6,0,B|257:266|319:251,2,85,0|0|2
292,164,43775,1,0
256,88,44002,2,0,B|216:56|172:80,1,85,0|0
208,156,44457,2,0,B|161:184|103:146,2,85,2|0|0
292,164,45139,1,0
244,236,45366,6,0,B|182:226|142:285|142:285|101:341|20:312,1,255,4|0
72,224,46275,1,4
12,140,46502,2,0,B|52:104|106:132,2,85
152,164,47184,6,0,B|232:236|328:180,2,170,4|0|2
284,56,48548,1,0
348,112,48775,1,0
309,190,49002,2,0,B|219:231|139:153,2,170,2|0|2
396,44,50366,6,0,B|504:44|504:156,2,170,0|6|0
416,128,51502,2,0,B|380:228|280:180,2,170,2|0|0
332,108,52639,2,0,B|304:52|228:36|144:52|116:108,1,255,2|0
80,204,53548,5,2
140,284,53775,1,0
232,240,54002,2,0,B|296:168|388:200,2,170,0|6|0
196,156,55139,2,0,B|160:52|56:64,2,170,2|0|0
124,204,56275,5,2
292,320,56729,1,0
460,204,57184,1,2
256,192,57639,12,0,59457
256,192,59911,5,2
256,192,60139,5,0
256,192,60252,1,0
256,192,60366,2,0,B|256:292,1,85,2|0
268,360,60820,2,0,B|204:368|152:320|172:232,2,170,2|0|6
256,192,62184,1,0
256,192,62411,2,0,B|288:84|400:116,2,170,2|0|0
328,264,63548,1,4
256,336,63775,2,0,B|212:328|172:336,1,85,0|2
100,260,64229,1,0
100,260,64457,6,0,B|96:188|196:160|236:216,1,170,2|0
184,276,65139,2,0,B|228:300|272:276,2,85,0|4|0
144,200,65820,1,0
56,208,66048,2,0,B|40:140|112:84|176:116,2,170,2|0|0
108,296,67184,6,0,B|156:288|212:296,1,85,4|0
272,332,67639,2,0,B|284:288|272:244,2,85,2|0|2
108,296,68548,1,2
32,144,69002,2,0,B|96:64|192:88,2,170,6|0|2
72,220,70139,1,0
144,264,70366,2,0,B|245:275|296:190,2,170,2|4|0
72,220,71502,2,0,B|80:180|72:136,1,85,2|0
280,104,72184,6,0,B|260:40|208:12|136:44,2,170,0|2|0
284,188,73320,2,0,B|284:272|356:316|416:280,1,170,2|2
396,196,74002,1,0
396,196,74457,2,0,B|376:248|428:320|396:368,2,170,2|0|2
288,324,75820,2,0,B|188:304|188:204,1,170,2|4
108,172,76502,5,0
148,96,76729,1,0
232,92,76957,2,0,B|316:144|392:92,2,170,2|0|0
148,96,78093,2,0,B|147:185|188:252|313:233|332:156,1,255,2|0
248,124,79002,1,2
236,316,79457,6,0,B|138:294|123:204,1,170,0|6
100,116,80139,1,0
188,84,80366,1,0
244,156,80593,2,0,B|244:224|172:256|120:200,2,170,2|0|0
188,84,81729,2,0,B|240:172|336:148,1,170,2|0
368,64,82411,1,0
462,79,82639,5,0
479,172,82866,1,2
400,220,83093,1,0
400,220,83548,6,0,B|360:192|312:184,1,85,4|2
316,88,84002,1,0
224,72,84229,2,0,B|135:149|240:285|351:158,1,255
316,88,85139,1,0
322,186,85366,2,0,B|420:184|444:284,1,170,2|0
352,272,86048,1,0
444,281,86275,2,0,B|404:377|304:349,1,170,2|0
252,196,86957,5,0
252,196,87070,1,0
252,196,87184,2,0,B|176:252|88:212,1,170,6|0
44,144,87866,2,0,B|112:208|100:304,1,170,2|0
180,332,88548,2,0,B|200:280|252:276,1,85,2|0
176,220,89002,6,0,B|268:172|328:252,1,170,4|0
400,296,89684,1,0
456,232,89911,2,0,B|424:172|332:192|324:256,1,170,2|0
256,128,90593,1,0
256,128,90707,1,0
256,128,90820,2,0,B|176:172|84:128,1,170,4|0
32,72,91502,6,0,B|116:112|100:216,1,170,2|0
164,296,92184,1,2
264,324,92411,1,0
360,296,92639,5,4
360,296,93093,1,0
360,296,93320,2,0,B|360:200|268:148|164:196|164:296,1,318.74999050051,2|0
256,192,94911,12,0,96275
256,192,97219,5,0
256,192,97680,1,0
256,192,98142,12,2,100765
192,68,101245,5,0
192,152,101725,1,2
152,152,101965,1,0
112,152,102205,1,0
72,152,102445,2,0,B|24:164|24:232|68:248,1,127.499996200204,2|0
108,256,103165,1,2
260,256,103645,6,0,B|328:256,2,63.749998100102,0|0|0
196,116,104605,1,2
348,116,105085,1,0
276,300,105591,5,2
308,228,105851,1,0
382,205,106112,1,0
444,248,106373,1,2
440,88,106895,5,0
372,124,107170,1,2
304,92,107445,1,0
304,92,107803,6,0,B|224:168|304:256,1,170,2|0
144,284,109198,2,0,B|120:208|51:199,1,127.499996200204,2|0
256,192,110709,12,0,116175
