osu file format v5

[General]
AudioFilename: I Look Up At The Sky Because You Are There (Opening Theme).mp3
AudioLeadIn: 0
PreviewTime: -1
Countdown: 1
SampleSet: Soft
StackLeniency: 0.7
Mode: 0
LetterboxInBreaks: 1

[Metadata]
Title:I Look Up At The Sky Because You Are There
Artist:Kaori Aso
Creator:Sargon
Version:Normal
Source:Wild Arms 4
Tags:WildArms4 Sargon

[Difficulty]
HPDrainRate:5
CircleSize:3
OverallDifficulty:3
SliderMultiplier:0.999999999999999
SliderTickRate:1

[Events]
//Background and Video events
0,0,"wa441.jpg"
//Break Periods
2,58584,65452
2,90823,96123
//Storyboard Layer 0 (Background)
//Storyboard Layer 1 (Failing)
//Storyboard Layer 2 (Passing)
//Storyboard Layer 3 (Foreground)
//Storyboard Sound Samples
//Background Colour Transformations
3,100,163,162,255

[TimingPoints]
-496,447.761194029851,4,2,0,100,1

[Colours]
Combo1 : 244,185,47
Combo2 : 228,7,13
Combo3 : 255,128,0
Combo4 : 104,2,2
Combo5 : 159,80,0

[HitObjects]
32,160,8459,6,0,B|192:160|192:160|192:320,1,300
256,320,10250,2,0,B|416:320|416:320|416:160,1,300
352,128,12041,2,0,B|256:64|160:128|192:288,1,300
224,320,13608,1,8
288,320,14056,1,8
320,320,14280,1,12
384,192,14727,5,0
288,192,15175,1,0
192,192,15623,1,4
128,128,16071,1,0
160,96,16295,1,0
224,96,16742,1,0
288,96,17190,1,0
288,224,18309,5,0
208,224,18757,1,0
128,224,19205,1,0
160,160,19653,1,0
192,128,19877,1,0
192,32,20324,1,0
256,32,20772,1,0
320,224,21892,5,0
320,288,22339,1,0
320,352,22787,1,0
224,352,23235,1,0
224,320,23459,1,0
160,288,23906,1,0
128,256,24130,1,0
96,224,24354,1,0
224,96,25474,5,0
288,96,25921,1,0
352,96,26369,1,4
416,160,26817,1,0
384,192,27041,1,4
288,192,27489,1,0
192,192,27936,1,4
160,80,29056,5,0
224,80,29504,1,0
293,81,29951,1,4
352,128,30399,1,0
352,160,30623,1,0
320,224,31071,1,0
256,256,31518,1,0
192,128,32638,5,0
256,128,33086,1,0
320,128,33533,1,0
352,192,33981,1,0
320,224,34205,1,0
384,256,34653,1,0
304,304,35101,1,0
208,144,36220,5,0
288,96,36668,1,0
384,80,37115,2,0,B|519:350|288:320,1,350
288,256,39130,5,0
256,240,39354,1,0
224,256,39578,1,0
160,208,40026,1,0
144,176,40250,1,0
160,128,40474,2,4,B|224:48|304:16|432:64|464:128|432:208,1,400
256,192,43608,1,0
208,192,43832,1,0
160,192,44056,1,4
304,192,44727,5,0
224,256,45175,1,0
176,256,45399,1,0
176,160,45847,1,0
176,64,46295,1,0
272,64,46742,2,0,B|384:112|400:176|400:240|384:224,1,200
256,272,48309,5,0
160,224,48757,1,0
160,176,48981,1,0
240,112,49429,1,0
336,112,49877,1,0
336,208,50324,1,0
336,304,50772,1,0
240,304,51220,2,0,B|160:304|112:288|80:256|48:208|48:176|48:112|64:64|96:32|144:16|400:32,1,649.999999999999
384,128,54578,5,0
384,176,54802,1,0
240,176,55474,1,0
240,128,55698,1,0
96,112,56369,1,0
96,160,56593,1,0
160,240,57041,1,0
256,240,57489,1,0
352,240,57936,1,0
448,240,58384,1,4
256,192,66220,5,4
112,192,66892,1,0
144,240,67115,1,0
176,288,67339,1,4
400,224,68011,1,4
400,272,68235,1,0
304,304,68683,1,0
176,304,69130,2,0,B|80:304|64:192,1,150
96,176,70026,1,0
160,112,70474,1,0
224,128,70698,1,0
288,96,70921,2,0,B|400:96|384:192,1,150
448,288,72041,5,0
384,320,72265,1,0
256,320,72712,1,0
144,192,73384,1,0
144,128,73608,1,0
272,80,74056,1,0
400,80,74504,2,0,B|480:144|400:224,1,150
336,304,75623,5,0
272,272,75847,1,0
160,192,76295,2,0,B|128:112|208:48|224:128,1,150
352,96,77414,1,0
352,160,77638,1,0
400,208,77862,1,0
352,256,78086,2,0,B|272:320|192:288,1,150
128,192,79205,5,0
176,144,79429,1,0
240,144,79877,1,4
368,208,80548,1,4
256,288,80996,1,0
192,288,81220,1,0
96,192,81668,1,4
192,96,82339,1,4
256,96,82563,1,0
352,176,83011,1,0
352,304,83459,2,0,B|288:336|224:336|208:288,1,150
160,256,84354,1,0
208,208,84578,1,0
176,160,84802,1,0
224,112,85026,1,0
176,64,85250,2,0,B|256:32|320:32|320:80,1,150
384,160,86369,5,0
384,224,86593,1,0
272,288,87041,1,0
160,224,87712,1,0
160,160,87935,1,0
272,80,88383,1,0
400,80,88831,1,0
400,208,89279,1,0
288,272,89727,1,0
176,208,90174,1,0
240,112,90623,1,4
192,64,97563,5,4
192,112,97787,1,4
192,256,98459,1,4
240,256,98683,1,4
384,256,99354,1,4
384,208,99578,1,4
304,144,100026,1,0
224,80,100474,1,4
224,176,100921,1,0
224,224,101145,1,0
224,272,101369,1,4
