osu file format v9

[General]
AudioFilename: Inochi no Darkside-Roling Gothic mix (touhou arenji).mp3
AudioLeadIn: 0
PreviewTime: 56203
Countdown: 0
SampleSet: Soft
StackLeniency: 0.2
Mode: 0
LetterboxInBreaks: 1

[Editor]
Bookmarks: 8164,86261,92266,139930,146310,188344
DistanceSpacing: 1
BeatDivisor: 4
GridSize: 8

[Metadata]
Title:Inochi no Darkside - Rolling Gothic mix
Artist:Kanpyo
Creator:Ex Boy
Version:Ex Insane
Source:
Tags:touhou niconico douga ignorethis Crazy Jay _lolipop

[Difficulty]
HPDrainRate:6
CircleSize:4
OverallDifficulty:8
ApproachRate:8
SliderMultiplier:1.8
SliderTickRate:1

[Events]
//Background and Video events
0,0,"BG Insane.jpg"
//Break Periods
2,20407,25275
2,86461,91516
2,104476,108592
2,140130,145560
//Storyboard Layer 0 (Background)
//Storyboard Layer 1 (Fail)
//Storyboard Layer 2 (Pass)
//Storyboard Layer 3 (Foreground)
//Storyboard Sound Samples
//Background Colour Transformations
3,100,255,255,255

[TimingPoints]
692,375.304935259899,4,2,1,50,1,0
19175,-100,4,2,2,20,0,0
19551,-100,4,2,2,10,0,0
20020,-100,4,2,1,50,0,0
29121,-100,4,2,1,50,0,0
31748,-100,4,2,2,79,0,0
31936,-100,4,2,1,70,0,0
40990,-100,4,2,1,70,0,0
55486,-100,4,1,1,70,0,0
55580,-100,4,2,1,70,0,0
58442,-100,4,2,2,100,0,0
59145,-100,4,2,1,70,0,0
60693,-100,4,2,2,100,0,0
61350,-100,4,2,1,70,0,0
64446,-100,4,2,2,100,0,0
65150,-100,4,2,1,70,0,0
66651,-100,4,2,2,70,0,0
66839,-100,4,2,1,70,0,0
70780,-100,4,1,1,70,0,0
70967,-100,4,2,1,70,0,0
76785,-100,4,1,1,70,0,0
76972,-100,4,2,1,70,0,0
79787,-100,4,1,1,70,0,0
79975,-100,4,2,1,70,0,0
82414,-100,4,2,2,100,0,0
82414,-100,4,2,2,100,0,0
83165,-100,4,2,1,70,0,0
84713,-100,4,2,2,100,0,0
85417,-100,4,2,1,20,0,0
85698,-100,4,2,1,40,0,0
85886,-100,4,2,1,60,0,0
86073,-100,4,2,1,80,0,0
86261,-100,4,1,1,80,0,0
86261,-100,4,1,1,30,0,0
86355,-100,4,2,1,80,0,0
94799,-100,4,1,1,80,0,0
94987,-100,4,2,1,80,0,0
97802,-100,4,1,1,80,0,0
97989,-100,4,2,1,80,0,0
97989,-100,4,2,1,80,0,0
100804,-100,4,1,1,80,0,0
100992,-100,4,2,1,80,0,0
103807,-100,4,1,1,80,0,0
103994,-100,4,2,1,80,0,0
109905,-100,4,2,2,30,0,0
110187,-100,4,2,1,70,0,0
116192,-100,4,2,2,30,0,0
122196,-100,4,2,1,40,0,0
123698,-100,4,2,1,50,0,0
125199,-100,4,2,1,60,0,0
126700,-100,4,2,1,70,0,0
128201,-100,4,2,2,70,0,0
139179,-100,4,2,1,50,0,0
139460,-100,4,2,1,40,0,0
140023,-100,4,2,1,70,0,0
146216,-100,4,2,1,50,0,0
151846,-100,4,1,1,50,0,0
152033,-100,4,2,1,50,0,0
161228,-100,4,2,1,30,0,0
164231,-100,4,2,1,50,0,0
170236,-100,4,2,1,30,0,0
174552,-100,4,2,1,50,0,0
175490,-100,4,2,1,30,0,0
176240,-100,4,2,1,50,0,0

[Colours]
Combo1 : 247,68,238
Combo2 : 227,0,5
Combo3 : 255,255,255
Combo4 : 10,209,10

[HitObjects]
112,48,8198,1,2
400,48,8948,1,0
400,336,9699,1,0
112,336,10449,1,0
360,192,11200,5,0
256,88,11951,1,0
152,192,12701,1,0
256,296,13452,1,0
456,48,14202,5,8
456,336,14765,1,0
456,336,14953,1,0
256,192,15516,1,0
256,192,15704,1,0
56,48,16267,1,0
56,48,16455,1,2
56,336,17017,1,0
56,336,17205,1,0
256,192,17768,1,0
256,192,17956,1,0
256,192,18518,5,0
256,192,18706,1,0
256,192,18894,2,0,B|336:136,1,90
368,64,19269,1,8
352,64,19363,1,8
336,64,19457,1,8
256,64,19644,2,8,B|256:40,8,22.5
176,64,20207,5,8
48,48,26025,5,0
64,48,26118,1,0
80,48,26212,2,0,B|192:48,2,90,8|0|0
56,120,26775,1,0
80,192,26963,2,0,B|176:192,2,90,8|0|0
56,264,27526,1,0
80,336,27713,2,0,B|192:336,2,90,8|0|0
56,264,28276,1,0
80,192,28464,2,0,B|184:192,3,90,8|0|0|0
256,192,29215,6,0,B|288:96,1,90,8|0
296,32,29590,2,0,B|392:88,1,90
452,121,29965,2,0,B|368:152,1,90,8|0
296,176,30341,2,0,B|392:240,1,90
440,224,30716,2,0,B|360:304,1,90,8|0
336,352,31091,2,0,B|280:272,1,90
224,232,31467,2,0,B|296:176,1,90,8|0
295,176,31842,1,8
200,72,32217,6,0,B|112:24,1,90,8|0
120,112,32592,2,0,B|216:64,1,90,8|0
199,155,32968,2,0,B|111:107,1,90,8|0
119,195,33343,2,0,B|215:147,1,90,8|0
198,239,33718,2,0,B|110:191,1,90,8|0
118,279,34093,2,0,B|214:231,1,90,8|0
197,322,34469,2,0,B|109:274,1,90,8|0
117,362,34844,2,0,B|213:314,1,90,8|0
314,321,35220,6,0,B|395:362,1,90,8|0
396,281,35595,2,0,B|300:329,1,90,8|0
317,238,35971,2,0,B|405:286,1,90,8|0
397,198,36346,2,0,B|301:246,1,90,8|0
318,154,36721,2,0,B|406:202,1,90,8|0
398,114,37096,2,0,B|302:162,1,90,8|0
319,71,37472,2,0,B|407:119,1,90,8|0
399,31,37847,2,0,B|303:79,1,90,8|0
256,104,38222,5,2
224,112,38316,1,0
192,112,38410,1,2
120,120,38597,1,2
88,128,38691,1,0
56,152,38785,1,2
56,232,38973,1,2
88,256,39067,1,0
120,264,39161,1,2
192,272,39348,1,2
224,272,39442,1,0
256,280,39536,1,2
304,224,39723,5,2
280,192,39817,1,0
304,168,39911,1,2
368,200,40099,1,2
392,168,40193,1,0
368,144,40287,1,2
304,168,40474,1,2
280,136,40568,1,0
304,112,40662,1,2
376,136,40850,1,2
400,104,40944,1,0
376,80,41038,1,8
312,48,41224,6,0,B|352:24,2,45,8|0|2
248,80,41600,2,0,B|208:104,2,45,2|0|2
312,120,41975,2,0,B|352:96,2,45,8|0|2
248,152,42351,2,0,B|208:176,2,45,2|8|8
304,192,42726,6,0,B|360:192,2,45,8|0|2
248,240,43101,2,0,B|192:240,2,45,2|0|2
304,280,43476,2,0,B|360:280,2,45,8|0|2
248,328,43851,2,0,B|192:328,2,45,8|0|2
320,328,44227,5,8
389,309,44415,1,8
442,261,44602,1,8
464,192,44790,1,8
446,122,44977,1,8
387,80,45165,1,8
315,85,45353,1,8
269,140,45540,1,8
265,212,45728,5,8
314,264,45916,1,8
385,270,46103,1,8
440,224,46291,1,8
442,151,46479,1,8
382,110,46666,1,8
313,132,46854,1,8
298,202,47042,1,8
357,242,47229,5,8
286,257,47417,1,8
220,288,47605,1,8
165,334,47792,1,8
155,142,47980,5,8
226,127,48168,1,8
292,96,48356,1,8
347,50,48543,1,8
480,192,48731,5,8
416,232,48918,1,8
352,192,49106,1,8
288,232,49293,1,8
224,192,49481,1,8
160,232,49669,1,8
96,192,49856,1,8
32,232,50044,1,8
80,288,50232,6,0,B|120:336,13,45,8|0|0|0|8|0|0|0|8|0|0|0|8|0
144,328,51545,6,0,B|208:328,15,45,2|0|8|0|0|0|8|0|0|0|8|0|0|0|8|0
224,320,53047,1,0
256,304,53140,1,0
280,280,53234,6,0,B|312:232,7,45,8|0|0|0|8|0|0|0
320,208,53985,5,8
328,176,54079,1,0
328,144,54172,1,0
320,112,54266,1,0
296,80,54360,1,8
264,56,54454,1,0
232,48,54548,1,0
192,48,54642,1,0
160,56,54735,1,8
128,72,54829,1,0
104,104,54923,1,0
96,136,55017,1,0
96,176,55111,1,8
104,208,55205,1,0
128,240,55298,1,0
160,256,55392,1,0
192,264,55486,1,4
472,40,56237,6,0,B|432:80|384:88|336:72,1,135,8|0
312,64,56612,1,8
280,80,56706,1,0
264,112,56800,1,4
280,184,56987,2,0,B|304:240|272:272,2,90,8|4|8
224,136,57550,1,4
152,112,57738,5,8
80,128,57926,1,4
56,152,58019,1,0
48,184,58113,1,8
56,216,58207,1,0
80,240,58301,1,4
112,248,58395,1,0
144,240,58488,2,0,B|208:200|280:208,2,135,4|2|2
144,312,59239,6,8,B|264:344|320:248,1,180
304,192,59802,1,4
304,119,59990,2,8,B|261:42|141:74,1,180
104,128,60553,1,4
112,160,60646,1,0
136,192,60740,2,0,B|80:224|56:152|0:200,2,135,4|2|2
200,160,61491,1,8
232,152,61585,1,0
272,152,61679,1,4
304,160,61772,1,0
336,176,61866,1,8
464,344,62242,5,8
408,296,62429,1,4
376,288,62523,1,0
344,288,62617,1,8
312,296,62711,1,0
280,312,62804,1,4
216,352,62992,2,0,B|112:304,1,90,8|4
144,240,63367,2,0,B|240:288,1,90,8|4
280,232,63743,5,8
224,184,63930,1,4
192,168,64024,1,0
224,144,64118,1,8
192,128,64212,1,0
224,104,64306,1,4
192,88,64400,1,0
224,72,64493,2,0,B|272:16|368:40,2,135,4|2|2
256,128,65244,5,8
464,192,65807,1,2
464,192,65995,1,8
256,256,66558,1,2
256,224,66651,1,0
256,192,66745,2,0,B|168:256,1,90,4|0
256,256,67120,2,0,B|344:192,1,90,8|0
384,160,67496,2,8,B|424:128,4,45
320,200,68059,5,2
288,208,68153,1,0
256,208,68246,1,8
224,200,68340,1,0
192,184,68434,1,2
168,160,68528,1,0
160,128,68622,1,8
160,88,68716,1,0
176,56,68809,1,2
200,32,68903,1,0
232,24,68997,1,8
264,24,69091,1,0
296,40,69185,1,2
320,64,69278,1,0
328,96,69372,1,8
328,136,69466,1,0
304,168,69560,1,2
272,184,69654,1,0
240,184,69748,6,0,B|176:160,2,45,8|0|2
280,240,70123,2,0,B|344:264,2,45,8|0|2
208,248,70498,2,0,B|160:224,2,45,8|0|2
208,248,70874,1,4
48,344,71249,5,8
80,320,71343,1,0
112,296,71436,1,2
48,272,71624,1,8
80,248,71718,1,0
112,224,71811,1,2
48,200,71999,1,8
80,176,72093,1,0
112,152,72186,1,2
48,128,72375,1,8
80,104,72469,1,0
112,80,72562,1,2
168,32,72750,6,0,B|112:32,2,45,8|0|2
208,32,73032,1,0
240,32,73125,1,8
200,96,73313,1,2
240,96,73407,1,0
272,96,73501,2,0,B|392:96,1,90,8|2
432,96,73876,1,8
472,96,73970,1,0
448,160,74157,1,0
408,160,74251,6,0,B|352:160,3,45,8|0|2|0
336,184,74627,2,0,B|264:184,3,45,8|0|2|0
264,208,75002,2,0,B|192:208,3,45,8|0|2|0
192,232,75377,2,0,B|144:232,3,45,8|0|2|0
128,264,75752,6,0,B|64:264,2,45,8|0|2
192,296,76128,2,0,B|264:296,2,45,8|0|2
128,336,76503,2,0,B|72:336,2,45,8|0|2
128,336,76878,1,4
288,288,77254,6,0,B|328:240,1,45,8|0
344,224,77441,1,2
288,176,77629,2,0,B|248:224,1,45,8|0
232,240,77816,1,2
176,192,78004,2,0,B|216:144,1,45,8|0
232,128,78191,1,2
176,80,78379,2,0,B|136:128,1,45,8|0
120,144,78566,1,2
80,80,78755,5,8
104,56,78849,1,0
136,40,78943,1,2
168,32,79036,1,0
208,32,79130,1,8
272,56,79318,1,2
304,72,79412,1,0
336,72,79506,2,0,B|392:64|424:104,2,90,8|2|4
472,192,80256,6,0,B|456:280|368:280,1,135,8|0
352,272,80631,1,8
320,248,80725,1,0
288,240,80819,1,2
256,240,80913,1,0
224,256,81007,1,8
168,304,81194,2,0,B|128:328|80:312,2,90,2|8|2
200,240,81757,5,8
216,168,81945,1,2
216,128,82039,1,0
208,96,82133,1,8
192,64,82226,1,0
160,40,82320,1,2
120,96,82508,2,0,B|112:144|80:176|24:184,2,135,4|2|2
160,40,83259,5,8
256,344,83822,1,2
256,344,84009,1,8
352,40,84572,1,2
384,48,84666,1,0
416,64,84760,2,0,B|472:88|488:144|480:192,2,135,4|2|2
376,128,85510,6,2,B|368:152|336:152,3,45
304,160,85886,2,2,B|280:160|272:192,3,45
256,224,86261,5,4
48,48,92266,6,0,B|48:144,1,90,8|2
104,96,92641,2,0,B|200:96,1,90,8|2
152,160,93017,2,0,B|152:256,1,90,8|2
208,208,93392,2,0,B|320:208,1,90,8|2
256,272,93767,2,0,B|256:320,2,45,8|0|2
320,296,94142,2,0,B|368:296,2,45,8|0|2
344,360,94518,2,0,B|296:360,2,45,8|0|2
344,360,94893,1,4
464,336,95268,6,0,B|464:240,1,90,8|2
408,288,95643,2,0,B|312:288,1,90,8|2
360,224,96019,2,0,B|360:128,1,90,8|2
304,176,96394,2,0,B|192:176,1,90,8|2
256,112,96769,2,0,B|256:64,2,45,8|0|2
192,88,97144,2,0,B|144:88,2,45,8|0|2
168,24,97520,2,0,B|216:24,2,45,8|0|2
168,24,97895,1,4
168,24,98271,5,8
168,64,98365,1,0
168,96,98458,1,2
240,96,98646,1,8
240,136,98740,1,0
240,168,98834,1,2
168,168,99021,1,8
168,208,99115,1,0
168,240,99209,1,2
240,240,99397,1,8
240,280,99491,1,0
240,312,99584,1,2
168,312,99772,6,0,B|112:312,2,45,8|0|2
240,312,100147,2,0,B|288:312,2,45,8|0|2
168,312,100523,2,0,B|56:312,1,90,8|2
78,312,100898,1,4
344,360,101273,5,8
344,320,101367,1,0
344,288,101460,1,2
272,288,101648,1,8
272,248,101742,1,0
272,216,101836,1,2
344,216,102023,1,8
344,176,102117,1,0
344,144,102211,1,2
272,144,102399,1,8
272,104,102493,1,0
272,72,102586,1,2
344,72,102774,6,0,B|400:72,2,45,8|0|2
272,72,103149,2,0,B|224:72,2,45,8|0|2
344,72,103525,2,0,B|456:72,1,90,8|2
434,72,103900,1,4
434,72,104276,5,8
78,72,109342,5,2
78,72,109530,6,0,B|24:104|24:168|40:216,1,135,8|0
76,192,109905,2,8,B|108:192,4,22.5
76,192,110281,6,0,B|76:88,1,90,8|0
148,192,110656,2,0,B|148:304,1,90,8|0
220,192,111031,2,0,B|220:88,1,90,8|0
292,192,111406,2,0,B|292:304,1,90,8|0
364,192,111782,2,0,B|364:88,1,90,8|0
436,192,112157,2,0,B|436:304,1,90,8|0
436,282,112532,5,8
436,282,112720,1,8
436,102,112908,1,8
436,102,113095,1,8
436,192,113283,6,0,B|436:288,1,90,8|0
364,192,113658,2,0,B|364:96,1,90,8|0
292,192,114034,2,0,B|292:288,1,90,8|0
220,192,114409,2,0,B|220:96,1,90,8|0
148,192,114784,2,0,B|148:288,1,90,8|0
76,192,115159,2,0,B|76:96,1,90,8|0
76,102,115535,5,8
76,102,115722,1,8
76,282,115910,1,8
76,282,116098,1,8
168,312,116285,6,0,B|200:272,1,45,8|0
224,328,116473,2,0,B|240:280,1,45
272,328,116661,2,0,B|272:280,1,45,8|0
320,312,116848,2,0,B|288:240,1,45
360,280,117036,2,0,B|312:232,1,45,8|0
384,240,117224,2,0,B|320:216,1,45,8|0
392,192,117411,2,0,B|328:192,2,45,8|0|8
344,72,117787,6,0,B|312:112,1,45,8|0
288,56,117975,2,0,B|272:104,1,45
240,56,118163,2,0,B|240:104,1,45,8|0
192,72,118350,2,0,B|224:144,1,45
152,104,118538,2,0,B|200:152,1,45,8|0
128,144,118726,2,0,B|192:168,1,45,8|0
120,192,118913,2,0,B|184:192,2,45,8|0|8
48,192,119288,6,0,B|96:160,3,45,8|0|2|0
120,192,119663,2,0,B|168:224,3,45,8|0|2|0
192,192,120038,2,0,B|240:160,3,45,8|0|2|0
264,192,120413,2,0,B|312:224,3,45,8|0|2|0
328,192,120789,2,0,B|376:160,3,45,8|0|2|0
400,192,121164,2,0,B|448:224,3,45,8|0|2|0
464,192,121540,2,0,B|368:128,1,90,8|2
464,192,121915,2,0,B|368:256,1,90,8|2
328,280,122290,5,8
280,280,122478,1,8
232,280,122666,1,8
184,280,122853,1,8
184,280,123041,1,8
232,280,123229,1,8
280,280,123416,1,8
328,280,123604,1,8
344,120,123792,5,8
344,168,123980,1,8
344,216,124168,1,8
344,264,124355,1,8
344,264,124543,1,8
344,216,124731,1,8
344,168,124918,1,8
344,120,125106,1,8
184,104,125293,5,8
232,104,125481,1,8
280,104,125669,1,8
328,104,125856,1,8
328,104,126044,1,8
280,104,126232,1,8
232,104,126419,1,8
184,104,126607,1,8
168,264,126794,5,8
168,216,126982,1,8
168,168,127170,1,8
168,120,127357,1,8
168,120,127545,1,8
168,168,127733,1,8
168,216,127920,1,8
168,264,128108,1,8
104,296,128295,6,2,B|128:360|200:360|240:352,1,135,2|2
248,344,128670,1,2
280,320,128764,1,2
296,288,128858,1,2
304,216,129046,2,2,B|256:104|384:48,1,180
424,56,129609,1,2
472,104,129796,6,2,B|488:160|472:200,1,90,2|2
456,224,130078,1,2
408,280,130266,1,2
376,304,130359,1,2
344,312,130453,1,2
304,312,130547,2,2,B|224:312|200:224,2,135
133,288,131298,6,2,B|240:256|200:144,1,180
256,192,131861,1,2
310,236,132048,2,2,B|272:128|378:95,1,180
448,80,132611,1,2
416,80,132705,1,2
384,64,132799,2,2,B|328:16|248:48,1,135
232,64,133174,2,2,B|192:96|144:80,2,90
264,56,133643,1,2
296,72,133737,1,2
312,104,133831,1,2
312,136,133925,1,2
176,192,134300,6,2,B|120:192,7,45
96,208,135051,2,2,B|64:248,3,45
64,280,135426,2,2,B|80:344|160:336,1,90
168,280,135801,2,2,B|184:344|264:336,1,90
264,336,136083,1,2
296,320,136177,1,2
320,296,136270,1,2
336,264,136364,1,2
336,232,136458,1,2
320,200,136552,2,2,B|288:160|296:96|352:80,2,135
436,192,137302,6,2,B|244:192,1,180
256,192,137865,1,2
256,192,138053,2,2,B|67:192,1,180
56,264,138616,5,2
80,296,138710,1,2
104,328,138804,2,2,B|128:360|200:368|232:320,1,135
232,296,139179,1,8
304,296,139367,1,8
376,296,139554,1,8
400,264,139648,1,8
424,232,139742,1,8
448,200,139836,1,8
472,168,139930,1,8
256,72,146310,5,8
376,192,146685,1,8
256,312,147060,1,8
136,192,147436,1,8
256,72,147811,6,0,B|256:128,2,45,8|0|2
136,192,148186,2,0,B|192:192,2,45,8|0|2
256,312,148562,2,0,B|256:256,2,45,8|0|2
376,192,148937,2,0,B|320:192,2,45,8|0|2
472,192,149312,6,0,B|424:176,3,45,8|0|2|0
400,192,149688,2,0,B|352:208,3,45,8|0|2|0
320,192,150063,2,0,B|272:176,3,45,8|0|2|0
248,192,150439,2,0,B|200:208,3,45,8|0|2|0
176,192,150813,2,0,B|128:176,3,45,8|0|2|0
104,192,151189,2,0,B|56:208,3,45,8|0|2|0
32,192,151564,1,2
32,192,151658,1,2
32,192,151752,1,2
32,192,151939,5,4
472,72,152315,6,2,B|424:96|384:72,1,90,8|2
376,64,152596,1,2
368,56,152690,2,2,B|320:32|280:56,1,90,8|2
272,64,152971,1,2
264,72,153065,2,2,B|216:96|176:72,1,90,8|2
168,64,153346,1,2
160,56,153440,2,2,B|112:32|72:56,1,90,8|2
64,64,153721,1,2
56,72,153816,6,2,B|16:120|64:160,1,90,8|2
64,160,154097,1,2
72,168,154191,2,2,B|112:216|64:256,1,90,8|2
64,256,154472,1,2
56,264,154567,2,2,B|81:320|138:295,1,90,8|2
138,295,154848,1,2
149,291,154942,2,2,B|209:276|224:336,1,90,8|2
224,337,155223,1,2
232,344,155317,6,2,B|336:352,1,90,8|2
328,352,155599,1,2
336,352,155692,2,2,B|425:345,1,90,8|2
456,344,155974,1,2
480,320,156068,5,2
480,288,156162,1,2
464,264,156255,1,2
400,232,156443,2,0,B|272:232,1,90,8|0
264,176,156818,1,2
248,144,156912,1,2
224,120,157005,1,2
168,72,157193,2,0,B|78:72,1,90,8|0
56,144,157569,2,0,B|146:144,1,90,8|0
160,216,157944,2,8,B|70:216,1,90
88,288,158320,6,0,B|48:312,2,45,8|0|2
160,304,158695,2,0,B|184:344,2,45,8|0|2
176,232,159070,2,0,B|216:208,2,45,8|0|2
104,216,159445,2,0,B|80:176,2,45,8|0|2
88,288,159821,6,0,B|48:312,2,45,8|0|2
192,312,160196,2,0,B|216:352,2,45,8|0|2
208,208,160571,2,0,B|248:184,2,45,8|0|2
104,184,160946,2,0,B|80:144,2,45,8|0|2
88,288,161322,6,0,B|48:312,2,45,8|0|2
264,320,161697,2,0,B|288:360,2,45,8|0|2
296,144,162073,2,0,B|336:120,2,45,8|0|2
120,112,162448,2,0,B|96:72,2,45,8|0|2
160,176,162823,6,2,B|184:216,3,45
200,248,163199,2,0,B|232:304|304:272,1,90,8|0
336,248,163574,2,0,B|392:216|360:144,1,90,8|0
344,104,163949,2,8,B|328:80|296:80,2,45
304,168,164324,6,2,B|256:176|200:152|184:104,1,135
176,80,164700,2,2,B|168:56|184:24,2,45
112,112,165075,2,2,B|176:192|120:288,1,180
72,328,165638,1,2
124,280,165826,2,2,B|160:240|208:256,1,90
240,264,166107,2,2,B|304:280|336:248,1,90
344,224,166389,2,2,B|352:192|392:192,1,45
408,192,166576,2,2,B|448:240|440:296|424:328,2,135
360,136,167327,6,2,B|288:168|216:96|272:8,1,180
256,42,167890,1,2
255,42,168078,2,2,B|296:96|224:168|152:136,1,180
96,112,168640,2,2,B|56:112|64:176,1,45
64,176,168828,2,2,B|112:240|88:328,2,135
136,168,169579,2,2,B|176:192,3,45
208,208,169954,1,10
256,48,170329,5,8
256,192,170705,1,8
256,336,171080,1,8
256,336,171268,1,8
256,336,171455,1,8
256,192,171831,1,8
400,192,172206,1,8
256,192,172581,2,8,B|96:192,2,135
328,192,173332,1,8
112,192,173895,1,8
112,192,174082,1,8
256,32,174645,5,2
256,48,174739,1,2
256,64,174833,2,8,B|240:120|272:152|256:200,2,135
256,64,175584,1,8
256,64,175677,1,8
256,64,175771,1,8
256,64,175865,1,8
256,64,175959,1,8
448,312,176334,5,8
360,192,176710,1,8
256,312,177085,1,8
152,192,177460,1,8
64,312,177835,2,0,B|120:312,2,45,8|0|2
64,240,178211,2,0,B|64:184,2,45,8|0|2
136,240,178586,2,8,B|232:240,2,90
64,72,179337,5,8
152,192,179713,1,8
256,72,180088,1,8
360,192,180463,1,8
448,72,180838,2,0,B|392:72,2,45,8|0|2
448,144,181214,2,0,B|448:200,2,45,8|0|2
376,144,181589,2,8,B|280:144,2,90
56,192,182339,5,8
456,192,182714,1,8
128,192,183090,1,8
384,192,183465,1,8
200,192,183840,2,0,B|248:232,3,45,8|0|2|0
312,192,184216,2,0,B|264:152,3,45,8|0|2|0
256,192,184591,2,8,B|216:256|304:304|256:368,1,180
168,112,185342,5,8
208,88,185435,1,2
256,80,185529,1,2
304,88,185623,1,2
344,112,185717,1,8
256,192,185904,5,2
344,272,186092,5,8
304,296,186185,1,2
256,304,186279,1,2
208,296,186373,1,2
168,272,186467,1,8
256,192,186655,5,2
256,192,186749,1,2
256,192,186843,1,8
256,192,186890,12,4,187969
256,192,188344,5,8
