osu file format v9

[General]
AudioFilename: Hakutyou no Mizuumi -still a duking-.mp3
AudioLeadIn: 2000
PreviewTime: 31954
Countdown: 0
SampleSet: Normal
StackLeniency: 0.7
Mode: 1
LetterboxInBreaks: 0

[Editor]
DistanceSpacing: 0.8
BeatDivisor: 4
GridSize: 8

[Metadata]
Title:Hakuchou no Mizuumi ~still a duckling~
Artist:Kanou Mari
Creator:banvi
Version:Taiko Oni
Source:Taiko no Tatsujin
Tags:namco Lunet woodrockman TnT

[Difficulty]
HPDrainRate:5
CircleSize:5
OverallDifficulty:5
ApproachRate:5
SliderMultiplier:2.1
SliderTickRate:1

[Events]
//Background and Video events
0,0,"TBG.jpg"
//Break Periods
//Storyboard Layer 0 (Background)
//Storyboard Layer 1 (Fail)
//Storyboard Layer 2 (Pass)
//Storyboard Layer 3 (Foreground)
//Storyboard Sound Samples
//Background Colour Transformations
3,100,163,162,255

[TimingPoints]
40,375,4,1,0,100,1,0
790,250,4,1,0,100,1,0
1017,250,4,1,0,100,1,0
1017,-150,4,1,0,100,0,0
32017,-150,4,1,0,100,0,1
48017,-150,4,1,0,100,0,0
56017,-200,4,1,0,100,0,0
72017,-150,4,1,0,100,0,1
104017,-150,4,1,0,100,0,0
110017,-50,4,1,0,100,0,0

[Colours]
Combo1 : 112,196,193
Combo2 : 243,89,34

[HitObjects]
256,192,1017,1,4
256,192,1517,5,12
256,192,2017,1,8
256,192,2267,5,0
256,192,2517,1,0
256,192,2767,5,8
256,192,3017,1,8
256,192,3517,1,12
256,192,4017,1,8
256,192,4267,1,8
256,192,4517,5,0
256,192,4579,1,0
256,192,4642,1,0
256,192,4767,5,8
256,192,4892,1,8
256,192,5142,1,8
256,192,5267,5,0
256,192,5392,5,8
256,192,5642,1,8
256,192,5767,5,0
256,192,5892,5,8
256,192,6142,1,8
256,192,6267,5,0
256,192,6392,5,8
256,192,6517,1,8
256,192,6642,1,8
256,192,6767,5,0
256,192,6892,5,8
256,192,7142,1,8
256,192,7267,5,0
256,192,7392,5,8
256,192,7517,1,8
256,192,7642,1,8
256,192,7767,5,0
256,192,7892,5,8
256,192,8142,1,8
256,192,8267,5,0
256,192,8392,5,8
256,192,8517,1,8
256,192,8642,1,8
256,192,8767,5,0
256,192,9017,1,0
256,192,9267,1,0
256,192,9392,1,0
256,192,9517,5,8
256,192,9642,1,8
256,192,9767,5,0
256,192,10017,1,0
256,192,10142,1,0
256,192,10267,5,8
256,192,10392,5,0
256,192,10517,5,8
256,192,10767,1,8
256,192,11017,5,0
256,192,11142,1,0
256,192,11267,5,8
256,192,11517,5,4
256,192,11767,1,4
256,192,11892,1,4
256,192,12017,1,4
256,192,12767,1,0
256,192,12892,1,0
256,192,13017,5,8
256,192,13267,5,0
256,192,13392,1,0
256,192,13517,5,8
256,192,13642,1,8
256,192,13767,5,0
256,192,14017,1,0
256,192,14142,1,0
256,192,14267,5,8
256,192,14392,5,0
256,192,14517,5,8
256,192,14767,1,8
256,192,15017,5,0
256,192,15142,1,0
256,192,15267,5,8
256,192,15517,5,4
256,192,15767,1,4
256,192,15892,1,4
256,192,16017,1,4
256,192,17017,1,0
256,192,17142,5,8
256,192,17267,5,0
256,192,17517,1,0
256,192,17642,5,8
256,192,17767,5,0
256,192,18017,1,0
256,192,18142,5,8
256,192,18392,1,8
256,192,18517,5,0
256,192,18767,1,0
256,192,18892,1,0
256,192,19017,5,8
256,192,19392,1,8
256,192,19517,5,0
256,192,19767,1,0
256,192,19892,1,0
256,192,20017,5,8
256,192,20267,1,8
256,192,20392,1,8
256,192,20517,5,0
256,192,20642,5,8
256,192,20767,5,0
256,192,20892,1,0
256,192,21017,5,8
256,192,21267,1,8
256,192,21392,1,8
256,192,21517,5,0
256,192,21767,1,0
256,192,21892,1,0
256,192,22017,5,8
256,192,22392,1,8
256,192,22517,5,0
256,192,22767,1,0
256,192,22892,1,0
256,192,23017,5,8
256,192,23267,1,8
256,192,23392,1,8
256,192,23517,5,0
256,192,23767,5,8
256,192,23892,1,8
256,192,24017,5,0
256,192,24183,1,0
256,192,24350,1,0
256,192,24517,1,0
256,192,25017,5,8
256,192,25183,1,8
256,192,25350,1,8
256,192,25517,1,8
256,192,26017,5,0
256,192,26183,1,0
256,192,26267,1,0
256,192,26350,1,0
256,192,26517,1,0
256,192,27017,5,8
256,192,27183,1,8
256,192,27267,1,8
256,192,27350,1,8
256,192,27517,1,8
256,192,28017,5,0
256,192,28267,5,8
256,192,28392,1,8
256,192,28517,1,8
256,192,28642,1,8
256,192,28767,1,8
256,192,28892,1,8
256,192,29017,5,0
256,192,29142,1,0
256,192,29267,1,0
256,192,29392,1,0
256,192,29517,1,0
256,192,29579,1,0
256,192,29642,1,0
256,192,29767,1,0
256,192,29892,1,0
256,192,30267,5,8
256,192,30392,1,8
256,192,30517,1,8
256,192,30642,1,8
256,192,30767,1,8
256,192,30892,1,8
256,192,31017,6,0,B|256:72|256:72|144:72|144:72|144:208,1,350
256,192,31767,1,0
256,192,31892,5,8
256,192,32017,5,0
256,192,32267,1,0
256,192,32392,1,0
256,192,32517,5,8
256,192,32642,5,0
256,192,32767,1,0
256,192,32892,5,8
256,192,33017,5,0
256,192,33142,5,8
256,192,33204,1,8
256,192,33267,1,8
256,192,33392,1,8
256,192,33517,5,4
256,192,34017,1,0
256,192,34142,5,8
256,192,34267,5,0
256,192,34517,1,0
256,192,34642,5,8
256,192,34767,5,0
256,192,34892,5,8
256,192,35017,5,0
256,192,35142,5,8
256,192,35204,1,8
256,192,35267,1,8
256,192,35392,1,8
256,192,35642,5,0
256,192,35892,1,0
256,192,36017,1,0
256,192,36267,1,0
256,192,36392,1,0
256,192,36517,5,8
256,192,36642,5,0
256,192,36767,5,8
256,192,36892,5,0
256,192,37017,5,8
256,192,37267,1,8
256,192,37392,1,8
256,192,37517,1,8
256,192,37767,5,0
256,192,37892,1,0
256,192,38017,5,8
256,192,38267,5,0
256,192,38517,1,0
256,192,38642,5,8
256,192,38767,5,0
256,192,38892,5,8
256,192,39017,5,0
256,192,39142,5,8
256,192,39204,1,8
256,192,39267,1,8
256,192,39392,1,8
256,192,39642,5,0
256,192,39892,1,0
256,192,40017,1,0
256,192,40267,1,0
256,192,40392,1,0
256,192,40517,5,8
256,192,40642,5,0
256,192,40767,5,8
256,192,40892,5,0
256,192,41017,1,0
256,192,41142,5,8
256,192,41204,1,8
256,192,41267,1,8
256,192,41392,1,8
256,192,41517,5,4
256,192,42017,1,0
256,192,42142,5,8
256,192,42267,5,0
256,192,42517,1,0
256,192,42642,5,8
256,192,42767,5,0
256,192,42892,5,8
256,192,43017,5,0
256,192,43142,5,8
256,192,43204,1,8
256,192,43267,1,8
256,192,43392,1,8
256,192,43642,5,0
256,192,43892,1,0
256,192,44017,1,0
256,192,44267,1,0
256,192,44392,1,0
256,192,44517,5,8
256,192,44767,5,0
256,192,44892,1,0
256,192,45017,5,8
256,192,45142,5,0
256,192,45267,5,8
256,192,45392,5,0
256,192,45517,5,8
256,192,45767,1,8
256,192,45892,1,8
256,192,46017,5,0
256,192,46267,5,8
256,192,46392,1,8
256,192,46517,5,0
256,192,46767,5,8
256,192,47017,5,4
256,192,47267,1,4
256,192,47517,1,4
256,192,47767,1,4
256,192,48017,1,4
256,192,48517,5,8
256,192,48892,1,8
256,192,49142,1,8
256,192,49392,1,8
256,192,49517,1,8
256,192,50017,5,0
256,192,50517,5,8
256,192,50892,1,8
256,192,51142,1,8
256,192,51392,1,8
256,192,51517,1,8
256,192,51767,1,8
256,192,52017,5,0
256,192,52392,1,0
256,192,52642,1,0
256,192,52892,1,0
256,192,53142,1,0
256,192,53392,5,8
256,192,53517,5,0
256,192,54017,1,0
256,192,54392,1,0
256,192,54642,1,0
256,192,54892,1,0
256,192,55142,1,0
256,192,55392,5,8
256,192,55517,5,0
256,192,56267,1,0
256,192,56329,1,0
256,192,56392,1,0
256,192,56517,1,0
256,192,56767,1,0
256,192,57017,1,0
256,192,57267,1,0
256,192,57329,1,0
256,192,57392,1,0
256,192,57517,5,8
256,192,57767,1,8
256,192,58267,5,0
256,192,58329,1,0
256,192,58392,1,0
256,192,58517,1,0
256,192,58767,1,0
256,192,59017,1,0
256,192,59267,1,0
256,192,59329,1,0
256,192,59392,1,0
256,192,59517,5,8
256,192,59767,1,8
256,192,60017,5,0
256,192,60267,5,8
256,192,60329,1,8
256,192,60392,1,8
256,192,60517,1,8
256,192,60767,1,8
256,192,61017,5,0
256,192,61267,1,0
256,192,61329,1,0
256,192,61392,1,0
256,192,61517,1,0
256,192,62017,1,0
256,192,62267,5,8
256,192,62329,1,8
256,192,62392,1,8
256,192,62517,1,8
256,192,62767,1,8
256,192,63017,5,0
256,192,63267,5,8
256,192,63329,1,8
256,192,63392,1,8
256,192,63517,1,8
256,192,64267,5,0
256,192,64329,1,0
256,192,64392,1,0
256,192,64517,1,0
256,192,64767,1,0
256,192,65017,1,0
256,192,65267,1,0
256,192,65329,1,0
256,192,65392,1,0
256,192,65517,5,12
256,192,65767,5,4
256,192,66267,1,0
256,192,66329,1,0
256,192,66392,1,0
256,192,66517,1,0
256,192,66767,1,0
256,192,67017,1,0
256,192,67267,1,0
256,192,67329,1,0
256,192,67392,1,0
256,192,67517,5,12
256,192,67767,5,4
256,192,68017,1,0
256,192,68267,5,8
256,192,68329,1,8
256,192,68392,1,8
256,192,68517,1,8
256,192,68767,1,8
256,192,69017,5,0
256,192,70017,1,0
256,192,70267,5,8
256,192,70329,1,8
256,192,70392,1,8
256,192,70517,1,8
256,192,70767,1,8
256,192,71017,6,0,B|384:192|384:192|384:56,1,262.5
256,192,71767,5,8
256,192,72267,5,0
256,192,72392,5,8
256,192,72517,5,0
256,192,72767,5,8
256,192,73017,5,0
256,192,73142,5,8
256,192,73267,5,0
256,192,73517,1,0
256,192,73642,5,8
256,192,73767,5,0
256,192,73892,5,8
256,192,74017,5,0
256,192,74267,5,8
256,192,74392,5,0
256,192,74517,5,8
256,192,74767,1,8
256,192,75017,5,0
256,192,75142,1,0
256,192,75267,5,8
256,192,75517,5,0
256,192,75642,5,8
256,192,75767,5,0
256,192,76017,1,0
256,192,76142,1,0
256,192,76267,5,8
256,192,76392,1,8
256,192,76517,5,0
256,192,76642,1,0
256,192,76767,5,8
256,192,76892,5,0
256,192,77017,5,8
256,192,77079,1,8
256,192,77142,1,8
256,192,77267,5,0
256,192,77517,5,8
256,192,77579,1,8
256,192,77642,1,8
256,192,77767,5,0
256,192,78017,5,8
256,192,78142,1,8
256,192,78267,5,0
256,192,78392,1,0
256,192,78517,5,8
256,192,78642,1,8
256,192,78767,5,0
256,192,78892,1,0
256,192,79017,5,8
256,192,79079,1,8
256,192,79142,1,8
256,192,79267,5,0
256,192,79517,5,8
256,192,79579,1,8
256,192,79642,1,8
256,192,79767,5,0
256,192,79892,5,8
256,192,80267,5,0
256,192,80392,5,8
256,192,80517,5,0
256,192,80767,5,8
256,192,81017,5,0
256,192,81142,5,8
256,192,81267,5,0
256,192,81517,1,0
256,192,81642,5,8
256,192,81767,5,0
256,192,81892,5,8
256,192,82017,5,0
256,192,82267,5,8
256,192,82392,5,0
256,192,82517,5,8
256,192,82767,1,8
256,192,83017,5,0
256,192,83142,1,0
256,192,83267,5,8
256,192,83517,5,0
256,192,83642,5,8
256,192,83767,5,0
256,192,84017,1,0
256,192,84142,1,0
256,192,84267,5,8
256,192,84392,1,8
256,192,84517,5,0
256,192,84642,1,0
256,192,84767,5,8
256,192,84892,5,0
256,192,85017,5,8
256,192,85079,1,8
256,192,85142,1,8
256,192,85267,5,0
256,192,85517,5,8
256,192,85579,1,8
256,192,85642,1,8
256,192,85767,5,0
256,192,86017,5,8
256,192,86142,1,8
256,192,86267,5,0
256,192,86392,1,0
256,192,86517,5,8
256,192,86642,1,8
256,192,86767,5,0
256,192,86892,1,0
256,192,87017,5,8
256,192,87079,1,8
256,192,87142,1,8
256,192,87267,1,0
256,192,87392,5,0
256,192,87642,5,8
256,192,87767,5,0
256,192,88017,1,0
256,192,88142,1,0
256,192,88267,5,8
256,192,88392,1,8
256,192,88517,5,0
256,192,88642,1,0
256,192,88767,5,8
256,192,88892,1,8
256,192,89017,5,0
256,192,89142,1,0
256,192,89267,5,8
256,192,89392,1,8
256,192,89517,5,0
256,192,89579,1,0
256,192,89642,1,0
256,192,89767,1,0
256,192,90017,5,8
256,192,90142,1,8
256,192,90267,5,0
256,192,90392,1,0
256,192,90517,5,8
256,192,90642,1,8
256,192,90767,5,0
256,192,90892,1,0
256,192,91017,5,8
256,192,91142,1,8
256,192,91267,5,0
256,192,91392,1,0
256,192,91517,5,8
256,192,91579,1,8
256,192,91642,1,8
256,192,91767,5,0
256,192,92017,1,0
256,192,92142,1,0
256,192,92267,5,8
256,192,92517,5,0
256,192,92642,1,0
256,192,92767,5,8
256,192,92892,5,0
256,192,93017,5,8
256,192,93267,5,0
256,192,93517,5,8
256,192,93642,1,8
256,192,93767,5,0
256,192,94017,1,0
256,192,94142,1,0
256,192,94267,5,8
256,192,94517,5,0
256,192,94642,1,0
256,192,94767,5,8
256,192,94892,5,0
256,192,95017,1,0
256,192,95267,5,8
256,192,95517,1,8
256,192,95767,1,8
256,192,96017,5,0
256,192,96142,1,0
256,192,96267,5,8
256,192,96392,1,8
256,192,96517,5,0
256,192,96579,1,0
256,192,96642,1,0
256,192,96767,5,8
256,192,96892,1,8
256,192,97017,5,0
256,192,97079,1,0
256,192,97142,1,0
256,192,97267,5,8
256,192,97392,1,8
256,192,97517,5,0
256,192,97579,1,0
256,192,97642,1,0
256,192,97767,1,0
256,192,98017,5,8
256,192,98142,1,8
256,192,98267,5,0
256,192,98392,1,0
256,192,98517,5,8
256,192,98579,1,8
256,192,98642,1,8
256,192,98767,5,0
256,192,98892,1,0
256,192,99017,5,8
256,192,99079,1,8
256,192,99142,1,8
256,192,99267,5,0
256,192,99392,1,0
256,192,99517,5,8
256,192,99579,1,8
256,192,99642,1,8
256,192,99767,5,0
256,192,100017,1,0
256,192,100142,1,0
256,192,100267,5,8
256,192,100517,5,0
256,192,100642,1,0
256,192,100767,5,8
256,192,101017,5,0
256,192,101267,1,0
256,192,101329,1,0
256,192,101392,1,0
256,192,101517,1,0
256,192,102017,1,4
256,192,102517,5,12
256,192,103017,1,12
256,192,103517,1,12
256,192,104017,5,4
256,192,104517,1,0
256,192,104642,1,0
256,192,104767,5,8
256,192,104892,1,8
256,192,105017,1,8
256,192,105392,5,0
256,192,105517,5,8
256,192,105892,5,0
256,192,106017,5,8
256,192,106267,1,8
256,192,106517,5,0
256,192,106579,1,0
256,192,106642,1,0
256,192,106767,1,0
256,192,107017,5,8
256,192,107267,5,0
256,192,107517,1,0
256,192,107579,1,0
256,192,107642,1,0
256,192,107767,1,0
256,192,108017,5,8
256,192,110267,1,12
