osu file format v9

[General]
AudioFilename: Hakutyou no Mizuumi -still a duking-.mp3
AudioLeadIn: 2000
PreviewTime: 31954
Countdown: 0
SampleSet: Normal
StackLeniency: 0.7
Mode: 0
LetterboxInBreaks: 1

[Editor]
DistanceSpacing: 0.8
BeatDivisor: 4
GridSize: 4

[Metadata]
Title:Hakuchou no Mizuumi ~still a duckling~
Artist:Kanou Mari
Creator:banvi
Version:Normal
Source:Taiko no Tatsujin
Tags:namco Lunet woodrockman TnT

[Difficulty]
HPDrainRate:3
CircleSize:3
OverallDifficulty:3
ApproachRate:4
SliderMultiplier:0.999999999999999
SliderTickRate:1

[Events]
//Background and Video events
0,0,"LBG.jpg"
//Break Periods
2,50217,54697
//Storyboard Layer 0 (Background)
//Storyboard Layer 1 (Fail)
//Storyboard Layer 2 (Pass)
//Storyboard Layer 3 (Foreground)
//Storyboard Sound Samples
//Background Colour Transformations
3,100,163,162,255

[TimingPoints]
40,375,4,2,1,70,1,0
790,250,4,2,1,70,1,0
1017,250,4,2,1,70,1,0
9017,-100,4,2,1,70,0,0
10204,-100,4,2,2,70,0,0
10829,-100,4,2,1,70,0,0
13204,-100,4,2,2,70,0,0
13329,-100,4,2,1,70,0,0
14204,-100,4,2,2,70,0,0
14829,-100,4,2,1,70,0,0
16767,-100,4,2,1,80,0,0
23892,-100,4,2,1,70,0,0
24392,-100,4,2,1,50,0,0
24892,-100,4,2,1,70,0,0
25392,-100,4,2,1,50,0,0
25892,-100,4,2,1,70,0,0
26392,-100,4,2,1,50,0,0
26892,-100,4,2,1,70,0,0
27392,-100,4,2,1,50,0,0
27892,-100,4,2,1,80,0,0
30892,-100,4,2,1,60,0,0
32017,-100,4,2,1,85,0,1
32204,-100,4,2,2,85,0,1
32329,-100,4,2,1,85,0,1
34892,-100,4,1,0,60,0,1
35954,-100,4,2,1,85,0,1
38892,-100,4,1,0,60,0,1
39954,-100,4,2,1,85,0,1
41204,-100,4,2,2,85,0,1
41829,-100,4,2,1,85,0,1
42892,-100,4,1,0,60,0,1
43954,-100,4,2,1,85,0,1
46204,-100,4,2,2,85,0,1
46829,-100,4,2,1,85,0,1
50017,-100,4,2,1,10,0,0
55517,-100,4,2,1,60,0,0
71767,-100,4,2,1,70,0,0
77204,-100,4,2,2,70,0,0
77829,-100,4,2,1,70,0,0
79204,-100,4,2,2,70,0,0
79329,-100,4,2,1,70,0,0
85204,-100,4,2,2,70,0,0
85829,-100,4,2,1,70,0,0
87204,-100,4,2,2,70,0,0
87329,-100,4,2,1,70,0,0
87892,-100,4,2,1,80,0,0
99896,-100,4,2,1,70,0,0
104392,-100,4,1,0,60,0,0
110267,-100,4,1,0,90,0,1
110329,-100,4,2,1,80,0,0

[Colours]
Combo1 : 0,255,255
Combo2 : 255,0,0
Combo3 : 0,0,255
Combo4 : 255,128,0

[HitObjects]
170,232,1017,2,0,B|210:280|256:288|304:280|345:226,1,200,4|2
256,92,2017,2,0,B|256:200,4,99.9999999999999,4|8|8|8|8
256,192,3517,12,4,5017
96,192,5767,1,8
176,56,6267,1,8
336,56,6767,1,8
416,192,7267,1,8
336,328,7767,1,8
176,328,8267,1,8
256,192,8767,2,0,B|256:88,1,99.9999999999999,8|4
96,56,9517,6,0,B|96:112|136:152,1,99.9999999999999,0|8
200,192,10017,2,0,B|168:288|32:320,2,200
216,112,11267,1,8
256,40,11517,1,0
336,56,11767,1,8
360,136,12017,2,0,B|392:184|448:208,3,99.9999999999999,0|8|0|8
480,272,13017,6,0,B|424:352|304:344,1,200
224,320,13767,1,8
184,248,14017,2,0,B|144:136|40:120,2,200
104,272,15267,2,0,B|48:288|24:344,2,99.9999999999999,8|0|8
184,248,16017,1,0
256,288,16267,1,8
328,248,16517,1,2
256,104,17017,6,0,B|176:32|64:48,2,200,4|8|8
320,156,18267,2,0,B|376:140|400:92,2,99.9999999999999,0|8|0
244,184,19017,2,0,B|264:288|380:336,2,200,8|8|8
256,104,20267,1,0
196,48,20517,1,8
116,64,20767,1,0
108,144,21017,6,0,B|120:252|32:320,2,200,4|8|8
116,64,22267,2,0,B|64:64|16:24,2,99.9999999999999,0|8|0
192,36,23017,2,0,B|292:12|384:80,1,200,8|8
256,192,24017,5,2
256,192,24517,1,4
96,192,25017,1,2
96,192,25517,1,4
176,328,26017,5,2
176,328,26517,1,4
336,328,27017,1,2
336,328,27517,1,4
424,192,28017,6,0,B|424:136|376:96,3,99.9999999999999,4|8|0|8
312,64,29017,2,0,B|256:64|216:112,3,99.9999999999999,4|8|0|8
208,184,30017,2,0,B|208:240|256:280,3,99.9999999999999,4|8|0|8
320,312,31017,5,2
400,296,31267,1,2
452,232,31517,1,2
440,152,31767,1,2
388,88,32017,6,0,B|308:12|188:36,1,200,4|0
128,64,32767,1,8
92,136,33017,2,0,B|60:172|60:236,1,99.9999999999999,0|8
140,208,33517,2,0,B|140:264|184:304,1,99.9999999999999,4|8
240,248,34017,2,0,B|280:208|352:216,3,99.9999999999999,0|8|0|8
412,208,35017,2,2,B|472:152|452:60,1,150
384,28,35642,1,2
288,108,36017,5,4
224,160,36267,2,0,B|172:132|144:80,2,99.9999999999999,8|0|8
260,232,37017,2,0,B|260:288|224:324,1,99.9999999999999,0|8
152,356,37517,2,0,B|103:368|59:328,1,99.9999999999999,0|8
28,256,38017,2,0,B|28:200|64:164,3,99.9999999999999,0|8|0|8
124,112,39017,2,2,B|204:132|272:88,1,150,2|2
328,36,39642,1,2
404,140,40017,6,0,B|408:192|384:240,1,99.9999999999999,4|8
332,296,40517,1,0
256,324,40767,1,8
176,324,41017,2,0,B|76:316|16:208,2,200,0|4|0
180,244,42267,2,0,B|144:200|144:140,2,99.9999999999999,8|0|8
244,196,43017,2,2,B|260:104|336:68,1,150,2|2
396,40,43642,1,2
452,152,44017,5,4
448,236,44267,2,0,B|480:280|480:340,2,99.9999999999999,8|0|8
376,192,45017,1,4
256,300,45517,1,4
136,192,46017,2,0,B|32:144|32:20,2,200,4|0|4
188,132,47267,1,8
256,88,47517,1,8
324,132,47767,1,8
256,192,48017,12,0,50017
236,216,56017,5,4
168,256,56267,2,0,B|120:272|92:324,2,99.9999999999999,2|8|0
132,184,57017,2,0,B|180:168|208:116,1,99.9999999999999,0|2
256,56,57517,1,8
256,56,57767,1,0
416,56,58267,5,2
380,128,58517,1,0
300,128,58767,1,0
264,200,59017,2,0,B|272:252|240:296,1,99.9999999999999,0|2
164,272,59517,2,0,B|156:220|188:176,1,99.9999999999999,8|0
224,108,60017,6,0,B|176:80|160:28,2,99.9999999999999,0|2|8
300,128,60767,1,0
348,64,61017,2,0,B|444:104|480:224,1,200,0|8
316,212,62017,6,0,B|264:224|240:280,1,99.9999999999999,0|2
192,336,62517,2,0,B|136:344|92:308,1,99.9999999999999,8|0
36,260,63017,1,0
36,180,63267,1,2
97,127,63517,2,0,B|160:48|280:56,1,200,8|4
324,120,64267,6,0,B|360:164|424:172,2,99.9999999999999,2|8|0
256,164,65017,2,0,B|256:220,2,50,0|0|2
188,120,65517,1,4
188,120,65767,1,4
188,288,66267,5,2
256,332,66517,1,8
324,288,66767,1,0
324,208,67017,2,0,B|380:208,2,50,0|0|2
256,164,67517,1,4
256,164,67767,1,4
188,208,68017,6,0,B|160:160|108:144,2,99.9999999999999,0|2|8
188,288,68767,1,0
256,332,69017,2,0,B|372:340|432:232,1,200,0|8
412,164,69767,1,0
332,152,70017,6,0,B|280:156|240:196,1,99.9999999999999,0|2
188,136,70517,2,0,B|151:173|99:177,1,99.9999999999999,8|0
52,112,71017,1,8
88,40,71267,1,8
168,60,71517,1,8
256,192,72017,5,4
316,248,72267,2,0,B|420:248,2,99.9999999999999,8|0|8
256,300,73017,2,0,B|228:344|168:356,1,99.9999999999999,0|8
96,356,73517,1,0
40,300,73767,1,8
96,156,74267,6,0,B|36:156,2,50,8|0|0
148,96,74767,1,8
228,96,75017,2,0,B|252:48|304:32,2,99.9999999999999,0|8|0
256,172,75767,1,8
284,248,76017,6,0,B|260:296|208:312,1,99.9999999999999,0|8
136,344,76517,1,0
60,316,76767,1,8
56,236,77017,2,0,B|88:136|40:40,2,200
60,316,78267,1,8
136,344,78517,1,0
184,280,78767,1,8
136,216,79017,2,0,B|140:132|200:80,2,150,0|0|8
184,280,80017,5,4
232,344,80267,2,0,B|340:344,2,99.9999999999999,8|0|8
184,280,81017,1,0
104,280,81267,1,8
56,216,81517,2,0,B|24:168|36:112,1,99.9999999999999,0|8
192,144,82267,5,8
236,76,82517,1,0
316,76,82767,1,8
360,144,83017,2,0,B|396:108|452:104,2,99.9999999999999,0|8|0
316,212,83767,1,8
236,212,84017,6,0,B|200:176|144:172,2,99.9999999999999,4|8|0
272,284,84767,1,8
352,284,85017,2,0,B|448:240|476:128,2,200
316,212,86267,2,0,B|296:164|248:140,2,99.9999999999999,8|0|8
248,256,87017,2,0,B|172:272|128:348,2,150,0|0|8
288,324,88017,5,4
368,324,88267,2,0,B|408:356|464:356,2,99.9999999999999,8|0|8
408,256,89017,2,0,B|468:256,2,50,0|0|8
364,188,89517,2,0,B|324:156|268:156,2,99.9999999999999,0|8|4
324,256,90267,5,8
260,304,90517,1,0
180,320,90767,1,8
112,276,91017,2,0,B|72:308,2,50,0|0|8
76,204,91517,1,0
76,204,91767,1,8
112,132,92017,6,0,B|132:80|184:64,1,99.9999999999999,4|8
196,144,92517,2,0,B|240:116|300:128,1,99.9999999999999,0|8
360,172,93017,2,0,B|388:216|376:276,3,99.9999999999999,0|8|0|8
328,332,94017,6,0,B|284:360|224:348,1,99.9999999999999,4|8
164,304,94517,2,0,B|136:260|148:200,2,99.9999999999999,0|8|4
228,256,95267,1,8
292,208,95517,1,8
356,256,95767,1,8
420,208,96017,6,0,B|468:176|476:124,2,99.9999999999999,4|8|0
356,160,96767,1,8
292,112,97017,2,0,B|292:64,2,50,0|0|8
228,160,97517,2,0,B|180:192|172:244,2,99.9999999999999,0|8|4
164,108,98267,6,0,B|212:76|220:24,2,99.9999999999999,8|0|8
100,56,99017,2,0,B|48:56,2,50,0|0|8
84,136,99517,2,0,B|32:136,2,50,0|0|8
68,216,100017,6,0,B|36:252|40:312,1,99.9999999999999,4|8
115,335,100517,1,0
184,296,100767,1,8
256,332,101017,2,0,B|335:260|322:143,1,200,4|0
256,108,101767,1,2
256,108,102017,5,4
140,220,102517,1,4
256,332,103017,1,4
372,220,103517,1,4
256,108,104017,1,4
208,260,104517,6,0,B|256:284|303:260,1,99.9999999999999,2|2
256,192,105017,1,2
256,24,105517,1,2
172,160,106017,6,2,B|160:220|196:260,1,99.9999999999999,6|0
268,280,106517,2,2,B|320:272|344:208,1,99.9999999999999,2|0
328,140,107017,2,2,B|288:100|232:108,1,99.9999999999999,2|0
256,192,107517,1,2
256,192,107767,1,2
256,192,108017,1,4
256,192,110267,5,4
