osu file format v9

[General]
AudioFilename: Hakutyou no Mizuumi -still a duking-.mp3
AudioLeadIn: 2000
PreviewTime: 31954
Countdown: 0
SampleSet: Soft
StackLeniency: 0.7
Mode: 0
LetterboxInBreaks: 1

[Editor]
DistanceSpacing: 1
BeatDivisor: 4
GridSize: 8

[Metadata]
Title:Hakuchou no Mizuumi ~still a duckling~
Artist:Kanou Mari
Creator:banvi
Version:Insane
Source:Taiko no Tatsujin
Tags:namco Lunet woodrockman TnT

[Difficulty]
HPDrainRate:7
CircleSize:4
OverallDifficulty:8
ApproachRate:9
SliderMultiplier:1.79999990463257
SliderTickRate:1

[Events]
//Background and Video events
0,0,"LBG.jpg"
//Break Periods
2,50217,55417
//Storyboard Layer 0 (Background)
//Storyboard Layer 1 (Fail)
//Storyboard Layer 2 (Pass)
//Storyboard Layer 3 (Foreground)
//Storyboard Sound Samples
//Background Colour Transformations
3,100,163,162,255

[TimingPoints]
40,375,4,2,1,70,1,0
790,250,4,2,1,70,1,0
1017,250,4,2,1,70,1,0
5017,-100,4,2,1,70,0,0
16642,-100,4,2,1,80,0,0
24392,-100,4,2,1,50,0,0
24892,-100,4,2,1,70,0,0
25392,-100,4,2,1,50,0,0
25892,-100,4,2,1,70,0,0
26392,-100,4,2,1,50,0,0
26892,-100,4,2,1,70,0,0
27392,-100,4,2,1,50,0,0
27892,-100,4,2,1,80,0,0
32017,-100,4,2,1,85,0,1
34985,-100,4,1,0,60,0,1
35673,-100,4,2,1,85,0,1
38985,-100,4,1,0,60,0,1
39673,-100,4,2,1,85,0,1
42985,-100,4,1,0,60,0,1
43673,-100,4,2,1,85,0,1
50017,-100,4,2,1,10,0,0
55767,-133.333333333333,4,2,1,60,0,0
70892,-100,4,2,1,70,0,0
87954,-100,4,2,1,80,0,0
104392,-100,4,1,0,60,0,0
107892,-200,4,2,1,45,0,0
110267,-100,4,1,0,90,0,1
110329,-100,4,1,0,80,0,0

[Colours]
Combo1 : 0,255,255
Combo2 : 255,0,0
Combo3 : 0,0,255
Combo4 : 255,128,0

[HitObjects]
88,284,790,2,0,B|20:284,2,59.9999968210857
88,284,1017,2,0,B|272:284,1,179.999990463257,4|0
424,100,1517,2,0,B|228:100,1,179.999990463257,4|0
256,192,2017,1,4
256,24,2267,5,0
256,360,2517,1,4
88,192,2767,1,0
416,192,3017,1,4
256,192,3517,6,0,B|288:144|216:56|260:16,1,180,4|0
128,112,4017,1,4
384,112,4267,1,4
256,192,4517,5,0
256,208,4579,1,0
256,224,4642,1,0
256,240,4704,1,0
256,256,4767,2,0,B|256:344,1,89.9999952316285
130,227,5142,5,2
220,75,5392,1,0
381,156,5642,1,2
282,308,5892,1,0
95,102,6142,5,2
335,40,6392,1,0
415,280,6642,1,2
166,333,6892,1,0
176,124,7142,6,0,B|184:76|160:28|112:8|60:24,1,180,2|0
336,260,7642,2,0,B|328:308|352:356|400:376|452:360,1,180,2|0
176,192,8142,6,0,B|216:152|256:144|296:152|336:192,1,180,2|0
256,240,8517,2,0,B|256:328,2,90,0|2|2
256,240,8892,1,2
256,152,9017,6,0,B|224:56|128:40,1,180,4|8
40,56,9392,1,0
24,144,9517,2,0,B|0:184|24:248,1,90
88,280,9767,2,0,B|112:240|88:176,1,90,8|0
104,112,10017,2,0,B|168:48|272:64,1,180,0|8
352,80,10392,1,0
416,136,10517,2,0,B|462:213|421:310,1,180,0|8
352,360,10892,1,0
272,320,11017,6,0,B|176:288|104:352,2,180,0|8|0
352,360,11642,1,0
440,344,11767,1,8
456,256,11892,1,0
432,168,12017,2,0,B|432:120|400:80,1,90
328,40,12267,2,0,B|280:32|240:64,1,90,8|0
304,128,12517,1,0
216,144,12642,1,0
160,80,12767,1,8
72,96,12892,1,0
48,184,13017,6,0,B|24:272|96:352,1,180,0|8
168,304,13392,1,0
256,328,13517,2,0,B|288:368|344:368,1,90
336,280,13767,2,0,B|381:280|413:240,1,90,8|0
336,192,14017,2,0,B|232:192|184:96,1,180,0|8
240,40,14392,1,0
304,96,14517,2,0,B|264:176|160:208,1,180,0|8
80,224,14892,1,0
96,136,15017,6,0,B|144:224|128:328,2,180,0|8|0
80,224,15642,1,0
160,192,15767,1,8
220,128,15892,1,0
256,48,16017,5,2
112,288,16267,1,8
400,288,16517,1,4
176,144,16767,5,0
176,144,16829,1,0
176,144,16892,1,0
176,144,16954,1,0
176,144,17017,2,0,B|216:104|256:96|296:104|336:147,1,180,4|2
256,188,17392,1,0
256,276,17517,2,0,B|244:324|200:348,2,90,8|0|2
168,268,17892,1,0
96,320,18017,2,0,B|32:248|68:148,1,180,8|2
96,72,18392,1,0
184,72,18517,2,0,B|240:76|276:40,1,90,8|0
352,24,18767,2,0,B|400:48|420:104,1,90,2|0
456,164,19017,6,0,B|472:264|384:332,1,180,8|2
352,248,19392,1,0
304,176,19517,1,8
228,132,19642,1,0
148,164,19767,1,2
84,224,19892,1,0
44,300,20017,6,0,B|108:372|216:348,1,180,8|2
168,272,20392,1,0
168,184,20517,1,8
209,108,20642,1,0
293,90,20767,1,2
376,108,20892,1,0
452,156,21017,6,0,B|424:248|496:332,2,180,4|2|8
460,72,21642,1,0
384,24,21767,1,2
376,108,21892,1,0
293,90,22017,2,0,B|216:36|112:56,1,180,8|2
48,96,22392,1,0
32,176,22517,2,0,B|28:228|72:268,1,90,8|0
148,244,22767,2,0,B|152:296|108:336,1,90,2|0
32,352,23017,6,0,B|112:308|220:336,1,179.999990463257,8|2
292,364,23392,1,0
360,308,23517,2,0,B|440:260,1,90,8|0
464,136,23767,2,0,B|384:184,1,90,8|0
256,140,24017,6,0,B|232:74|175:51,2,119.999993642171,4|0|0
99,23,24517,1,4
273,237,25017,6,0,B|338:213|361:156,2,119.999993642171,4|0|0
389,80,25517,1,4
167,240,26017,6,0,B|190:305|247:328,2,119.999993642171,4|0|0
323,356,26517,1,4
152,136,27017,6,0,B|86:159|63:216,2,119.999993642171,4|0|0
36,293,27517,1,4
360,296,28017,6,0,B|280:352,1,90,4|0
200,320,28267,2,0,B|273:268,1,90,8|0
272,180,28517,2,0,B|192:236,1,90
112,204,28767,2,0,B|185:152,1,90,8|0
140,76,29017,6,0,B|156:28|212:20,1,90,4|0
372,76,29267,2,0,B|357:29|307:22,1,90,8|0
256,104,29517,2,0,B|208:112|192:161,1,90
255,104,29767,2,0,B|302:112|318:161,1,90,8|0
256,240,30017,6,0,B|256:328,1,90,4|0
164,284,30267,2,0,B|112:200,1,89.9999952316285,8|0
348,284,30517,2,0,B|400:200,1,89.9999952316285,0|0
256,128,30767,2,0,B|256:16,1,90,8|0
256,38,31017,5,4
72,192,31267,1,4
256,346,31517,1,4
440,192,31767,1,4
256,38,32017,6,0,B|152:31|92:116,1,179.999990463257,4|8
72,192,32392,1,0
112,272,32517,2,0,B|112:328|160:360,1,90
160,200,32767,2,0,B|160:144|112:112,1,90,8|0
200,280,33017,2,0,B|304:280|352:184,1,180,0|8
332,112,33392,1,0
412,144,33517,6,0,B|476:80,1,90,4|2
304,28,33767,2,0,B|240:91,1,90,8|2
188,164,34017,6,0,B|92:144|52:48,2,180,0|8|0
272,172,34642,1,0
332,112,34767,1,8
412,144,34892,1,0
464,216,35017,2,2,B|496:256|488:312,2,90,2|0|2
404,284,35392,2,2,B|344:356|240:352,1,180,2|2
160,360,35767,1,8
88,308,35892,1,0
40,232,36017,6,0,B|16:128|84:64,1,180,4|8
132,136,36392,1,0
212,108,36517,2,0,B|248:144|300:144,1,90
364,28,36767,2,0,B|328:64|276:64,1,90,8|0
376,116,37017,2,0,B|460:160|480:268,1,180,0|8
444,336,37392,1,0
360,336,37517,2,0,B|276:292|256:184,1,180,0|8
288,116,37892,1,0
224,52,38017,6,0,B|140:12|44:32,2,179.999990463257,0|8|0
200,140,38642,2,0,B|172:176|172:232,2,89.9999952316285,0|8|0
288,116,39017,1,2
324,32,39142,1,0
404,68,39267,1,2
372,152,39392,2,2,B|448:204|456:312,1,179.999990463257,2|2
368,292,39767,1,8
368,292,39892,1,0
304,356,40017,6,0,B|212:364|136:296,1,180,4|8
160,212,40392,1,0
148,128,40517,2,0,B|104:124|60:148,1,90
160,212,40767,2,0,B|204:216|248:192,1,90,8|0
320,144,41017,2,0,B|328:244|436:284,1,180,0|8
428,192,41392,5,0
352,260,41517,1,4
256,296,41642,1,2
160,260,41767,1,8
84,192,41892,1,2
72,108,42017,6,0,B|120:20|244:36,2,180,0|8|0
84,192,42642,1,0
152,140,42767,1,8
164,224,42892,1,0
248,256,43017,2,2,B|256:304|220:348,2,90,2|0|2
236,172,43392,2,2,B|232:60|336:28,1,180,2|2
408,20,43767,1,8
464,84,43892,1,0
476,172,44017,6,0,B|448:264|344:300,1,180,4|8
264,316,44392,1,0
176,272,44517,2,0,B|217:251|221:199,1,90
64,140,44767,2,0,B|84:180|128:200,1,90,8|0
156,112,45017,2,0,B|196:76|248:92|248:92|324:148,1,180,4|8
313,140,45392,1,0
356,272,45517,2,0,B|316:308|264:292|264:292|188:236,1,180,4|8
199,244,45892,1,0
116,192,46017,5,4
256,52,46267,1,8
396,192,46517,1,0
256,332,46767,1,8
116,192,47017,6,0,B|212:192,1,90,4|0
396,192,47267,2,0,B|300:192,1,90,8|0
256,52,47517,2,0,B|256:140,1,90
256,332,47767,2,0,B|256:244,1,90,8|0
256,192,48017,12,0,50017
148,72,56017,6,0,B|76:104|68:196,2,134.999995976687,0|2|8
256,192,56767,1,0
372,72,57017,2,0,B|412:88|436:128,1,67.4999979883433
444,192,57267,2,0,B|451:218|434:258,1,67.4999979883433,2|0
372,312,57517,1,8
256,192,57767,1,0
144,312,58017,6,0,B|72:292|48:208,1,134.999995976687,0|2
160,100,58517,2,0,B|232:120|256:204,1,134.999995976687,8|0
256,352,59017,1,0
384,256,59267,1,2
440,192,59392,1,0
384,128,59517,2,0,B|340:60|264:52,1,134.999995976687,8|0
256,192,60017,6,0,B|120:192,1,134.999995976687,0|2
256,192,60517,2,0,B|256:340,1,134.999995976687,8|0
256,192,61017,2,0,B|392:192,1,134.999995976687,0|2
256,192,61517,2,0,B|256:48,1,134.999995976687,8|0
121,192,62017,5,0
256,57,62267,1,2
391,192,62517,1,8
256,327,62767,1,0
200,176,63017,6,0,B|148:120,1,67.4999979883433,8|0
312,176,63267,2,0,B|364:120,1,67.4999979883433,8|0
256,92,63517,1,8
256,92,63579,1,0
256,92,63642,2,0,B|256:4,2,67.4999979883433
176,64,64017,6,0,B|96:64,1,67.4999979883433,4|0
152,144,64267,2,0,B|72:144,1,67.4999979883433,2|0
128,224,64517,1,8
256,328,64767,1,0
384,224,65017,2,0,B|424:216|440:176,1,67.4999979883433,0|0
360,144,65267,2,0,B|328:128|312:80,1,67.4999979883433,2|0
416,64,65517,5,4
96,64,65767,1,4
256,328,66017,6,0,B|336:328,1,67.4999979883433
280,248,66267,2,0,B|360:248,1,67.4999979883433,2|0
312,168,66517,2,0,B|368:120|352:40,1,134.999995976687,8|0
192,64,67017,1,0
132,120,67142,1,0
172,192,67267,1,2
112,248,67392,1,0
152,320,67517,6,0,B|216:344,1,67.4999979883433,4|0
372,304,67767,2,0,B|308:280,1,67.4999979883433,4|0
368,192,68017,6,0,B|416:144|408:64,2,134.999995976687,0|2|8
256,312,68767,1,0
144,192,69017,2,0,B|96:144|104:64,2,134.999995976687,0|2|8
256,72,69767,1,0
256,232,70017,6,0,B|200:192,1,67.4999979883433
256,232,70267,2,0,B|312:192,1,67.4999979883433,2|0
256,232,70517,2,0,B|280:264|232:336|260:368,1,134.999995976687,8|0
172,276,71017,5,8
172,276,71079,1,0
172,276,71142,1,0
340,276,71267,1,8
340,276,71329,1,0
340,276,71392,1,0
256,132,71517,2,8,B|256:88,4,45
256,348,72017,6,0,B|280:308|268:256,1,90,4|0
184,288,72267,2,8,B|176:240|136:208,1,90,8|0
96,136,72517,1,0
256,48,72767,1,8
416,136,73017,1,0
456,212,73142,1,0
376,244,73267,1,8
416,320,73392,1,0
336,352,73517,2,0,B|144:352,1,180,0|8
72,192,74017,6,0,B|72:104,1,90
152,152,74267,2,0,B|152:64,1,90,8|0
232,112,74517,2,0,B|296:40|408:56,1,180,0|8
396,224,75017,1,0
336,284,75142,1,0
256,316,75267,1,8
176,284,75392,1,0
116,224,75517,1,0
256,104,75767,1,8
424,240,76017,6,0,B|400:336|304:360,1,180,0|8
96,152,76517,2,0,B|120:56|216:32,1,180,0|8
96,232,77017,2,0,B|120:328|216:352,1,180,0|8
424,144,77517,2,0,B|400:48|304:24,1,180,0|8
256,192,78017,6,0,B|240:240|184:264,1,90
256,192,78267,2,0,B|208:176|184:120,1,90,8|0
256,192,78517,2,0,B|272:144|328:120,1,90
256,192,78767,2,0,B|304:208|328:264,1,90,8|0
256,312,79017,6,0,B|448:312,2,180,0|8|0
168,312,79642,1,0
96,360,79767,1,8
48,288,79892,1,0
120,240,80017,6,0,B|48:168|88:56,2,180,4|8|0
168,168,80642,2,0,B|200:136|256:144,2,90,0|8|0
232,228,81017,2,0,B|196:260|194:317,1,90
277,347,81267,2,0,B|312:314|314:257,1,90,8|0
360,192,81517,1,0
256,48,81767,1,8
144,192,82017,6,0,B|56:232|56:352,2,180,0|8|0
180,272,82642,2,0,B|204:312|268:320,2,90,0|8|0
256,228,83017,1,0
180,68,83267,1,8
256,28,83392,1,0
332,68,83517,1,0
256,228,83767,1,8
432,248,84017,6,0,B|408:344|312:368,2,180,4|8|0
256,192,84767,1,8
88,144,85017,2,0,B|112:48|208:24,2,180,0|8|0
256,192,85767,1,8
208,368,86017,6,0,B|112:368,1,90
208,368,86267,2,0,B|168:280,1,90,8|0
304,368,86517,2,0,B|400:368,1,90
304,368,86767,2,0,B|344:280,1,90,8|0
368,200,87017,5,8
144,200,87267,1,8
256,32,87517,2,0,B|256:88,6,45,8|0|0|0|8|0|0
168,56,88017,6,0,B|72:64|32:176,1,180,4|8
24,248,88392,1,0
104,224,88517,2,0,B|152:224|184:264,1,90
232,328,88767,2,0,B|280:336|320:304,1,90,8|0
384,256,89017,1,0
428,184,89142,1,0
424,100,89267,1,8
356,52,89392,1,0
272,36,89517,2,0,B|208:40|184:120|108:120,1,180,8|8
256,352,90017,6,0,B|352:344|396:236,1,180,4|8
412,168,90392,1,0
368,96,90517,2,0,B|340:48|288:32,1,90
209,37,90767,2,0,B|172:48|144:96,1,90,8|0
108,172,91017,1,0
108,256,91142,1,0
160,324,91267,1,8
244,320,91392,1,0
316,272,91517,2,0,B|388:272|408:184|484:184,1,180,8|8
256,40,92017,6,0,B|252:88|204:124,1,90,4|0
124,116,92267,2,0,B|128:164|176:200,1,90,8|0
256,192,92517,2,0,B|252:240|204:276,1,90
124,268,92767,2,0,B|128:316|176:352,1,90,8|0
256,344,93017,6,0,B|304:316|384:364|432:328,1,179.999990463257,0|8
256,40,93517,2,0,B|208:68|128:20|80:56,1,179.999990463257,0|8
256,344,94017,5,4
408,192,94267,1,8
256,40,94517,1,4
104,192,94767,1,8
256,344,95017,6,0,B|304:328|336:296,1,90,4|0
256,344,95267,2,0,B|208:328|176:296,1,90,8|0
256,248,95517,2,0,B|288:200|216:112|260:72,1,180,8|8
432,32,96017,6,0,B|480:48|496:112,1,90,4|0
404,108,96267,2,0,B|356:124|340:188,1,90,8|0
432,192,96517,2,0,B|496:256|480:368,2,180,0|8|0
376,256,97142,1,0
304,304,97267,1,8
216,288,97392,1,0
144,240,97517,2,0,B|80:176|96:64,1,180,8|8
368,80,98017,6,0,B|336:40|288:32,1,90,4|0
288,120,98267,2,0,B|281:162|241:194,1,90,8|0
192,120,98517,2,0,B|136:40|32:40,2,180,0|8|0
152,200,99142,1,0
152,288,99267,1,8
232,328,99392,1,0
320,336,99517,2,0,B|368:328|400:280,2,90,8|0|8
424,144,100017,6,0,B|400:48|304:24,1,180,4|8
96,232,100517,2,0,B|120:328|216:352,1,180,0|8
256,192,101017,6,0,B|288:144|216:56|260:16,2,180,4|0|0
256,192,101767,1,2
48,48,102017,5,4
464,336,102517,1,4
464,48,103017,1,4
48,336,103517,1,4
256,192,104017,5,4
208,120,104517,6,0,B|164:144|168:212,1,90,2|0
304,264,104767,2,0,B|348:240|344:172,1,90,2|0
376,104,105017,2,2,B|328:52|256:28|180:48|128:116,1,270,2|2
136,280,105517,2,2,B|184:332|256:356|332:336|384:268,1,270,2|2
256,32,106017,5,6
96,192,106267,1,0
256,352,106517,1,2
416,192,106767,1,0
146,82,107017,5,2
365,301,107267,1,0
365,82,107517,1,2
146,301,107767,1,0
171,135,108017,6,0,B|259:83|344:139,4,179.999990463257,4|2|2|2|2
256,352,110267,5,4
