osu file format v9

[General]
AudioFilename: Hakutyou no Mizuumi -still a duking-.mp3
AudioLeadIn: 2000
PreviewTime: 31954
Countdown: 0
SampleSet: Soft
StackLeniency: 0.7
Mode: 0
LetterboxInBreaks: 1

[Editor]
DistanceSpacing: 0.8
BeatDivisor: 4
GridSize: 4

[Metadata]
Title:Hakuchou no Mizuumi ~still a duckling~
Artist:Kanou Mari
Creator:banvi
Version:Easy
Source:Taiko no Tatsujin
Tags:namco Lunet woodrockman TnT

[Difficulty]
HPDrainRate:2
CircleSize:3
OverallDifficulty:2
ApproachRate:2
SliderMultiplier:0.6
SliderTickRate:1

[Events]
//Background and Video events
0,0,"LBG.jpg"
//Break Periods
2,50217,54457
//Storyboard Layer 0 (Background)
//Storyboard Layer 1 (Fail)
//Storyboard Layer 2 (Pass)
//Storyboard Layer 3 (Foreground)
//Storyboard Sound Samples
//Background Colour Transformations
3,100,163,162,255

[TimingPoints]
40,375,4,2,1,70,1,0
790,250,4,2,1,70,1,0
1017,250,4,2,1,70,1,0
16642,-100,4,2,1,80,0,0
23892,-100,4,2,1,70,0,0
24517,-100,4,2,1,50,0,0
24892,-100,4,2,1,70,0,0
25517,-100,4,2,1,50,0,0
25892,-100,4,2,1,70,0,0
26521,-100,4,2,1,50,0,0
26892,-100,4,2,1,70,0,0
27517,-100,4,2,1,50,0,0
27892,-100,4,2,1,80,0,0
32017,-100,4,2,1,85,0,1
34954,-100,4,1,0,60,0,1
35829,-100,4,2,1,85,0,1
38954,-100,4,1,0,60,0,1
39829,-100,4,2,1,85,0,1
42954,-100,4,1,0,60,0,1
43829,-100,4,2,1,60,0,1
50017,-100,4,2,1,10,0,0
55517,-100,4,2,1,60,0,0
60454,-100,4,2,2,60,0,0
60579,-100,4,2,1,60,0,0
61454,-100,4,2,2,60,0,0
61579,-100,4,2,1,60,0,0
68454,-100,4,2,2,60,0,0
68579,-100,4,2,1,60,0,0
69454,-100,4,2,2,60,0,0
69579,-100,4,2,1,60,0,0
71767,-100,4,2,1,70,0,0
101892,-100,4,2,1,80,0,0
104392,-100,4,1,0,60,0,0
110267,-100,4,1,0,90,0,1
110329,-100,4,2,1,80,0,0

[Colours]
Combo1 : 0,255,255
Combo2 : 255,0,0
Combo3 : 0,0,255
Combo4 : 255,128,0

[HitObjects]
160,112,1017,2,0,B|192:48|256:32|320:48|352:120,2,240,4|8|8
256,144,3517,1,4
208,228,4017,1,4
304,228,4517,1,4
252,364,5267,6,0,B|120:364,3,120,8|8|8|8
88,276,7267,2,0,B|220:276,3,120,8|8|8|8
256,276,9017,5,4
352,276,9517,2,0,B|416:240|420:176,2,120,8|0|8
320,184,11017,2,0,B|320:56,2,120,0|8|0
320,304,12642,6,0,B|224:304,1,90
136,304,13517,1,8
76,232,14017,1,0
136,160,14517,1,8
232,160,15017,2,0,B|284:124|288:52,2,120,0|8|0
136,160,16517,1,2
176,248,17017,6,0,B|84:332,2,120,4|8|0
256,304,18517,1,8
336,248,19017,2,0,B|428:332,2,120,0|8|0
256,192,20517,1,8
256,96,21017,5,4
160,96,21517,2,0,B|40:96,2,120,8|0|8
208,180,23017,1,0
304,180,23517,1,8
352,96,24017,6,0,B|392:44|464:44,1,120,2|4
500,128,25017,2,0,B|460:180|388:180,1,120,2|4
304,200,26017,6,0,B|348:244|348:308,1,120,2|4
256,340,27017,2,0,B|212:296|212:232,1,120,2|4
228,136,28017,6,0,B|152:32|16:32,2,240,4|4|4
256,328,31017,1,2
256,328,31517,1,2
256,232,32017,6,0,B|328:220|356:156,2,120,4|8|0
256,136,33517,1,4
252,40,34017,2,0,B|124:40,1,120,0|8
112,136,35017,2,2,B|20:136,2,90,2|2|0
160,136,36017,5,4
256,136,36517,2,0,B|272:64|336:44,2,120,8|0|8
352,136,38017,1,0
432,192,38517,1,8
356,252,39017,2,2,B|408:332,2,90,2|2|2
308,252,40017,5,4
248,328,40517,1,8
152,328,41017,1,0
92,252,41517,1,4
152,176,42017,2,0,B|152:56,1,120,0|8
240,92,43017,2,2,B|304:28,2,90,2|2|0
240,140,44017,5,4
336,140,44517,2,0,B|400:140|440:200,2,120,8|4|8
348,236,46017,1,4
348,236,46517,1,8
304,324,47017,1,8
208,324,47517,1,8
256,192,48017,12,0,50017
256,192,56017,5,4
160,192,56517,2,0,B|32:192,2,120,8|0|8
256,192,58017,1,2
352,192,58517,2,0,B|480:192,2,120,8|0|8
256,192,60017,6,0,B|184:84|64:56,2,240,2|2|2
208,276,62517,1,8
304,276,63017,1,0
352,192,63517,1,8
304,108,64017,6,0,B|344:56|412:40,2,120,4|8|0
256,188,65517,1,4
208,272,66017,2,0,B|168:324|100:340,2,120,0|8|0
256,188,67517,1,4
352,188,68017,6,0,B|480:228|500:368,2,240,2|2|2
304,272,70517,1,8
208,272,71017,1,0
160,188,71517,1,8
64,188,72017,6,0,B|64:64,2,120,4|8|0
64,284,73517,1,8
132,352,74017,2,0,B|172:296|144:228,1,120,0|8
240,212,75017,2,0,B|200:156|228:88,1,120,0|8
320,112,76017,5,0
392,48,76517,1,8
464,112,77017,1,8
392,288,78017,2,0,B|344:248|280:252,1,120,0|8
200,308,79017,2,0,B|152:348|88:344,1,120,0|8
120,252,80017,5,4
120,156,80517,2,0,B|120:24,2,120,8|0|8
204,204,82017,2,0,B|252:244|316:240,1,120,0|8
344,148,83017,2,0,B|296:108|232:112,1,120,0|8
136,124,84017,5,4
68,192,84517,1,8
136,260,85017,1,8
312,328,86017,1,0
380,260,86517,1,8
312,192,87017,1,0
380,124,87517,1,8
312,56,88017,6,0,B|192:56,1,120,4|8
96,56,89017,1,0
48,140,89517,1,8
128,196,90017,2,0,B|168:244|168:316,1,120,0|8
260,340,91017,2,0,B|308:300|380:300,1,120,0|8
468,312,92017,5,4
480,216,92517,1,8
384,200,93017,2,0,B|332:168|316:100,1,120,0|8
256,32,94017,2,0,B|224:84|156:100,1,120,4|8
68,72,95017,1,4
68,72,95517,1,8
88,164,96017,6,0,B|36:200|36:276,1,120,4|8
84,352,97017,1,0
84,352,97517,1,8
176,328,98017,2,0,B|228:292|228:216,1,120,4|8
184,140,99017,1,0
184,140,99517,1,8
240,60,100017,5,4
336,60,100517,1,8
392,140,101017,1,4
256,192,101767,1,2
256,240,102017,2,0,B|256:372,4,120,4|4|4|4|4
192,168,104517,5,2
256,96,105017,1,2
320,168,105517,1,2
256,192,106017,12,4,108017
256,192,110267,5,4
