osu file format v10

[General]
AudioFilename: I wanna Go.mp3
AudioLeadIn: 1026
PreviewTime: 57654
Countdown: 0
SampleSet: Soft
StackLeniency: 0.5
Mode: 0
LetterboxInBreaks: 1

[Editor]
Bookmarks: 40116,84423,104270,112116,155500
DistanceSpacing: 1
BeatDivisor: 4
GridSize: 4

[Metadata]
Title:I Wanna Go
TitleUnicode:I Wanna Go
Artist:Kanon746
ArtistUnicode:Kanon746
Creator:SC-DrawerX3
Version:Hard
Source:
Tags:Hawkii Append Len Kagamine Vocaloid Britney Spears
BeatmapID:183281
BeatmapSetID:61512

[Difficulty]
HPDrainRate:7
CircleSize:4
OverallDifficulty:6
ApproachRate:7
SliderMultiplier:1.8
SliderTickRate:1

[Events]
//Background and Video events
0,0,"Len Kagamine - Power.jpg"
//Break Periods
2,56931,57677
2,75393,79831
2,110469,111216
2,149039,154716
//Storyboard Layer 0 (Background)
//Storyboard Layer 1 (Fail)
//Storyboard Layer 2 (Pass)
//Storyboard Layer 3 (Foreground)
//Storyboard Sound Samples
//Background Colour Transformations
3,100,163,162,255

[TimingPoints]
1337,461.538461538462,4,2,2,50,1,0
1567,-100,4,2,1,50,0,0
10567,-100,4,2,2,50,0,0
12413,-100,4,2,1,50,0,0
14260,-100,4,2,2,50,0,0
17952,-100,4,2,1,50,0,0
19798,-100,4,2,2,50,0,0
25337,-100,4,2,1,50,0,0
28567,-100,4,2,2,50,0,0
40106,-100,4,2,1,50,0,0
56721,-100,4,2,2,50,0,0
58567,-83.3333333333333,4,1,1,70,0,1
58798,-83.3333333333333,4,1,0,70,0,1
62260,-83.3333333333333,4,2,2,90,0,1
62490,-83.3333333333333,4,1,0,70,0,1
65721,-83.3333333333333,4,2,0,80,0,1
65837,-83.3333333333333,4,1,0,70,0,1
65952,-83.3333333333333,4,1,1,70,0,1
66183,-83.3333333333333,4,1,0,70,0,1
69644,-83.3333333333333,4,2,2,90,0,1
69875,-83.3333333333333,4,1,0,70,0,1
75183,-83.3333333333333,4,2,2,70,0,1
77029,-100,4,2,1,50,0,0
80721,-100,4,2,2,50,0,0
84413,-100,4,2,1,50,0,0
97106,-100,4,2,2,50,0,0
99183,-100,4,2,1,50,0,0
100567,-100,4,2,2,50,0,0
102875,-100,4,2,1,50,0,0
104260,-100,4,2,2,50,0,0
106567,-100,4,2,1,50,0,0
107952,-100,4,2,2,50,0,0
110260,-100,4,2,1,50,0,0
112106,-100,4,2,1,50,0,0
115337,-100,4,2,1,50,0,0
115798,-100,4,2,2,50,0,0
119490,-100,4,2,1,50,0,0
123183,-100,4,2,2,50,0,0
124567,-100,4,2,1,50,0,0
128721,-100,4,2,2,50,0,0
130567,-83.3333333333333,4,1,1,70,0,1
134260,-83.3333333333333,4,2,2,90,0,1
134490,-83.3333333333333,4,1,0,70,0,1
137952,-83.3333333333333,4,1,1,70,0,1
141183,-83.3333333333333,4,2,0,80,0,1
141413,-83.3333333333333,4,1,0,70,0,1
141644,-83.3333333333333,4,2,2,70,0,1
141875,-83.3333333333333,4,1,0,70,0,1
147183,-83.3333333333333,4,2,2,70,0,1
149029,-100,4,2,1,50,0,0
155490,-133.333333333333,4,2,1,50,0,0
156413,-133.333333333333,4,1,1,50,0,0
156644,-133.333333333333,4,2,1,60,0,0
171183,-83.3333333333333,4,1,1,80,0,1
172798,-83.3333333333333,4,1,2,80,0,1
174875,-83.3333333333333,4,2,2,90,0,1
174990,-83.3333333333333,4,1,0,80,0,1
178337,-83.3333333333333,4,2,0,80,0,1
178452,-83.3333333333333,4,1,0,80,0,1
178567,-83.3333333333333,4,1,1,80,0,1
182260,-83.3333333333333,4,2,2,90,0,1
182375,-83.3333333333333,4,1,0,90,0,1
185490,-83.3333333333333,4,1,2,80,0,1
185606,-83.3333333333333,4,1,0,80,0,1
185721,-83.3333333333333,4,2,0,80,0,0
185952,-83.3333333333333,4,1,1,80,0,1
189644,-83.3333333333333,4,2,2,90,0,1
189760,-83.3333333333333,4,1,0,90,0,1
193337,-83.3333333333333,4,1,1,80,0,1
194952,-83.3333333333333,4,1,0,80,0,1
197029,-83.3333333333333,4,1,0,80,0,1
197029,-83.3333333333333,4,2,2,90,0,1
197144,-83.3333333333333,4,1,0,80,0,1
202567,-83.3333333333333,4,2,2,80,0,1
204413,-100,4,1,0,60,0,0

[Colours]
Combo1 : 255,255,255
Combo2 : 255,218,89
Combo3 : 113,255,145
Combo4 : 207,64,255
Combo5 : 253,68,72
Combo6 : 40,255,244

[HitObjects]
116,112,1347,2,0,B|148:60|224:68,2,90,6|0|0,0:0|0:0|0:0,0:0:0
128,140,1923,2,0,B|168:184|168:232|116:288,1,135,2|2,0:0|0:0,0:0:0
208,336,2500,1,0,0:0:0
220,324,2616,1,0,0:0:0
232,312,2731,1,0,0:0:0
312,228,2962,1,0,0:0:0
392,144,3193,6,0,B|336:168|284:128|272:72|300:36,1,180,0|2,0:0|0:0,0:0:0
260,56,3770,2,0,B|212:112|128:80,1,135,0|2,0:0|0:0,0:0:0
136,84,4577,1,0,0:0:0
124,268,5039,6,0,B|176:280|224:252,1,90,2|0,0:0|0:0,0:0:0
296,212,5500,1,2,0:0:0
324,192,5616,2,0,B|360:160|428:168,1,90,0|0,0:0|0:0,0:0:0
408,136,5962,2,0,B|356:116|336:76,1,90,2|0,0:0|0:0,0:0:0
338,81,6423,1,0,0:0:0
184,176,6885,5,0,0:0:0
108,144,7116,2,0,B|64:192|120:260,1,90,2|0,0:0|0:0,0:0:0
128,244,7462,2,0,B|184:236|216:276,1,90,2|0,0:0|0:0,0:0:0
240,284,7808,2,0,B|256:308|304:316,3,45,0|0|0|0,0:0|0:0|0:0|0:0,0:0:0
280,272,8270,2,2,B|312:260|336:284,3,45
352,296,8731,6,0,B|400:332|472:300,1,90,6|0,0:0|0:0,0:0:0
408,228,9193,2,0,B|464:228|492:176,1,90
408,140,9654,5,2,0:0:0
336,76,9885,1,0,0:0:0
320,184,10116,5,2,0:0:0
396,44,10347,1,0,0:0:0
292,76,10577,6,0,B|256:116|200:116|152:104|120:36,1,180,6|0,0:0|0:0,0:0:0
135,62,11270,1,0,0:0:0
272,252,11962,5,2,0:0:0
232,324,12193,1,2,0:0:0
184,256,12423,2,0,B|240:288|300:244|320:204|308:168,2,180,4|0|2,0:0|0:0|0:0,0:0:0
116,184,13577,1,2,0:0:0
216,176,13808,1,0,0:0:0
156,104,14039,1,2,0:0:0
256,100,14270,2,0,B|300:124|356:128|404:108|436:84,1,180,4|0,0:0|0:0,0:0:0
428,92,14962,1,2,0:0:0
440,200,15423,5,0,0:0:0
364,144,15654,1,0,0:0:0
344,232,15885,2,0,B|304:272|252:268,1,90,2|0,0:0|0:0,0:0:0
168,260,16347,1,0,0:0:0
92,216,16577,1,2,0:0:0
68,132,16808,1,0,0:0:0
112,56,17039,6,0,B|168:84,5,60,2|0|0|0|0|0,0:0|0:0|0:0|0:0|0:0|0:0,0:0:0
192,96,17962,6,0,B|248:124|308:96,1,90,4|0,0:0|0:0,0:0:0
240,28,18423,2,0,B|292:12|340:40,1,90
380,104,18885,1,0,0:0:0
280,108,19116,1,2,0:0:0
328,32,19347,1,0,0:0:0
380,104,19577,1,0,0:0:0
332,184,19808,6,0,B|288:220|288:276|320:328|376:336,1,180,4|0,0:0|0:0,0:0:0
356,330,20500,1,2,0:0:0
392,248,20731,1,0,0:0:0
332,184,20962,1,0,0:0:0
264,120,21193,5,2,0:0:0
196,64,21423,1,0,0:0:0
164,152,21654,2,0,B|136:196|80:192,1,90,2|0,0:0|0:0,0:0:0
116,32,22116,2,0,B|136:88|76:124,1,90
40,192,22577,1,0,0:0:0
104,256,22808,1,2,0:0:0
184,220,23039,2,0,B|232:200|268:236,1,90
212,304,23500,6,0,B|252:344|308:316,2,90,2|0|0,0:0|0:0|0:0,0:0:0
184,220,24193,1,0,0:0:0
184,220,24308,1,0,0:0:0
184,220,24423,1,0,0:0:0
280,240,24654,6,0,B|344:224|344:156,1,90
328,92,25116,1,2,0:0:0
244,36,25347,2,0,B|172:108,1,90,4|0,0:0|0:0,0:0:0
64,84,25808,2,0,B|76:184,1,90,2|0,0:0|0:0,0:0:0
164,136,26270,6,0,B|152:44,5,60,2|0|0|0|0|0,0:0|0:0|0:0|0:0|0:0|0:0,0:0:0
192,76,27193,6,0,B|224:124|288:132|328:112|352:68,1,180,2|0,0:0|0:0,0:0:0
244,196,27885,1,2,0:0:0
280,100,28116,2,0,B|232:72|172:96|136:124|140:208,1,180,0|4,0:0|0:0,0:0:0
136,272,28808,5,0,0:0:0
232,268,29039,2,0,B|284:268|308:312,1,90,2|0,0:0|0:0,0:0:0
268,228,29500,2,0,B|228:188|252:128,2,90,2|0|2,0:0|0:0|0:0,0:0:0
344,292,30193,1,0,0:0:0
416,232,30423,2,0,B|456:196|436:128,1,90,2|0,0:0|0:0,0:0:0
384,68,30885,6,0,B|372:120|324:128|268:132|260:204,1,180,2|0,0:0|0:0,0:0:0
364,164,31577,1,2,0:0:0
452,144,31808,2,0,B|440:196|392:204|336:208|328:280,1,180,0|4,0:0|0:0,0:0:0
330,270,32500,5,0,0:0:0
256,320,32731,1,2,0:0:0
176,276,32962,2,0,B|124:244|144:176,2,90,8|2|8,0:0|0:0|0:0,0:0:0
228,200,33654,2,0,B|220:136|276:108,1,90,2|8,0:0|0:0,0:0:0
316,180,34116,1,2,0:0:0
257,119,34347,5,8,0:0:0
176,120,34577,2,0,B|136:152|80:144|40:104|40:64,1,180,2|0,0:0|0:0,0:0:0
128,48,35270,1,2,0:0:0
128,48,35500,2,0,B|88:132|48:216,1,180,2|4,0:0|0:0,0:0:0
136,268,36193,5,0,0:0:0
212,172,36423,1,2,0:0:0
284,272,36654,1,8,0:0:0
212,172,36885,1,2,0:0:0
136,268,37116,1,8,0:0:0
112,180,37347,2,0,B|124:124|92:88,1,90,2|8,0:0|0:0,0:0:0
36,32,37808,1,2,0:0:0
97,94,38039,2,0,B|137:138|217:102,1,90,8|2,0:0|0:0,0:0:0
276,96,38500,5,0,0:0:0
356,56,38731,1,2,0:0:0
360,144,38962,1,2,0:0:0
276,96,39193,2,0,B|208:128,5,60,2|0|0|0|0|0,0:0|0:0|0:0|0:0|0:0|0:0,0:0:0
192,136,40116,6,0,B|140:156|132:224,1,90,4|0,0:0|0:0,0:0:0
232,216,40577,2,0,B|220:268|264:304,1,90
352,328,41039,1,2,0:0:0
444,284,41270,1,0,0:0:0
448,188,41500,1,2,0:0:0
360,128,41731,6,0,B|256:92,1,90,2|0,0:0|0:0,0:0:0
156,140,42193,2,0,B|264:180,1,90,2|0,0:0|0:0,0:0:0
300,280,42654,2,0,B|200:244,1,90,2|0,0:0|0:0,0:0:0
112,224,43116,1,0,0:0:0
96,128,43347,2,0,B|120:76|96:36,1,90,2|0,0:0|0:0,0:0:0
196,96,43808,6,0,B|184:152|244:176,1,90,2|0,0:0|0:0,0:0:0
344,40,44270,2,0,B|288:48|276:108,1,90,2|0,0:0|0:0,0:0:0
372,132,44731,1,2,0:0:0
440,204,44962,1,0,0:0:0
340,224,45193,1,0,0:0:0
248,248,45423,2,0,B|216:296|128:280,1,90,2|0,0:0|0:0,0:0:0
168,192,45885,6,0,B|108:204|72:152|72:84|144:64,2,180
200,188,46923,1,0,0:0:0
236,184,47039,1,2,0:0:0
348,164,47270,1,0,0:0:0
376,264,47500,6,0,B|288:308,1,90,6|0,0:0|0:0,0:0:0
208,264,47962,2,0,B|304:216,1,90,2|0,0:0|0:0,0:0:0
372,184,48423,1,2,0:0:0
284,140,48654,1,0,0:0:0
360,96,48885,1,0,0:0:0
448,132,49116,6,0,B|424:180|464:232,1,90,2|0,0:0|0:0,0:0:0
352,160,49577,2,0,B|296:192|312:272,1,90,2|0,0:0|0:0,0:0:0
236,172,50039,2,0,B|180:180|160:236,1,90,2|0,0:0|0:0,0:0:0
156,316,50500,1,0,0:0:0
248,268,50731,1,0,0:0:0
132,116,51193,6,0,B|88:32,1,90,6|0,0:0|0:0,0:0:0
232,152,51654,2,0,B|216:56,1,90,2|0,0:0|0:0,0:0:0
328,196,52116,2,0,B|328:96,2,90,2|0|0,0:0|0:0|0:0,0:0:0
328,292,52808,1,2,0:0:0
416,248,53039,2,0,B|444:200|404:144,1,90
328,196,53500,2,0,B|300:136|224:128|188:136|156:168,1,180
100,224,54193,1,2,0:0:0
136,316,54423,1,0,0:0:0
256,192,54654,12,4,56731,0:0:0
168,220,58577,6,0,B|124:160|188:100,1,107.999996704102,6|0,0:0|0:0,0:0:0
244,172,59039,2,0,B|276:112|352:128,1,107.999996704102,2|0,0:0|0:0,0:0:0
324,216,59500,1,2,0:0:0
424,240,59731,1,0,0:0:0
420,144,59962,1,0,0:0:0
408,48,60193,6,0,B|296:80,1,107.999996704102,2|8,0:0|0:0,0:0:0
264,172,60654,2,0,B|388:136,1,107.999996704102,2|8,0:0|0:0,0:0:0
456,200,61116,2,0,B|340:236,1,107.999996704102,2|8,0:0|0:0,0:0:0
256,252,61577,2,0,B|240:212|200:196|164:200,1,107.999996704102
68,168,62039,1,2,0:0:0
68,148,62154,1,0,0:0:0
68,132,62270,6,0,B|120:172|180:144,1,107.999996704102,6|8,0:0|0:0,0:0:0
184,268,62731,2,0,B|232:224|224:164,1,107.999996704102,2|8,0:0|0:0,0:0:0
336,272,63193,2,0,B|332:204|272:168,2,107.999996704102,2|8|0,0:0|0:0|0:0,0:0:0
432,304,63885,1,2,0:0:0
336,272,64116,1,0,0:0:0
416,216,64347,6,0,B|420:152|352:120,1,107.999996704102
312,204,64808,2,0,B|256:176|264:104,1,107.999996704102,2|0,0:0|0:0,0:0:0
263,115,65270,1,0,0:0:0
124,232,65731,1,4,0:0:0
144,256,65847,1,0,0:0:0
172,280,65962,6,0,B|212:328|284:312,1,107.999996704102,6|0,0:0|0:0,0:0:0
244,228,66423,2,0,B|308:240|336:184,1,107.999996704102,2|0,0:0|0:0,0:0:0
256,144,66885,1,2,0:0:0
260,60,67116,1,0,0:0:0
336,96,67347,1,0,0:0:0
420,40,67577,6,0,B|420:152,1,107.999996704102,2|8,0:0|0:0,0:0:0
336,96,68039,2,0,B|336:232,1,107.999996704102,2|8,0:0|0:0,0:0:0
252,144,68500,2,0,B|252:260,1,107.999996704102,2|8,0:0|0:0,0:0:0
176,300,68962,1,0,0:0:0
88,284,69193,1,2,0:0:0
52,200,69423,1,0,0:0:0
108,128,69654,6,0,B|122:68|192:56,1,107.999996704102,6|8,0:0|0:0,0:0:0
276,80,70116,2,0,B|265:144|192:152,1,107.999996704102,2|8,0:0|0:0,0:0:0
108,127,70577,1,2,0:0:0
52,200,70808,2,0,B|76:264|152:256,1,107.999996704102,8|0,0:0|0:0,0:0:0
224,228,71270,2,0,B|280:192|340:232,1,107.999996704102
388,284,71731,1,2,0:0:0
312,336,71962,1,0,0:0:0
228,296,72193,2,0,B|272:244|240:192,1,107.999996704102,0|2,0:0|0:0,0:0:0
160,232,72654,2,0,B|124:176|164:128,1,107.999996704102,0|2,0:0|0:0,0:0:0
256,192,73116,12,4,75193,0:0:0
344,84,80731,6,0,B|396:112|388:180,1,90,6|0,0:0|0:0,0:0:0
380,248,81193,1,0,0:0:0
308,160,81423,2,0,B|304:212|240:236,1,90
160,248,81885,1,2,0:0:0
160,148,82116,2,0,B|184:96|248:100,1,90
308,160,82577,2,0,B|340:216|440:212|468:144,1,180,2|2,0:0|0:0,0:0:0
460,157,83270,1,2,0:0:0
196,216,83962,1,0,0:0:0
152,200,84077,1,0,0:0:0
116,176,84193,1,0,0:0:0
100,60,84423,6,0,B|144:104|216:76,1,90,2|0,0:0|0:0,0:0:0
268,68,84885,2,0,B|324:48|368:88,1,90
420,156,85347,5,2,0:0:0
372,252,85577,1,2,0:0:0
272,204,85808,1,0,0:0:0
320,112,86039,1,2,0:0:0
420,156,86270,6,0,B|456:192|444:244,2,90
352,104,86962,2,0,B|300:76|308:12,1,90,2|0,0:0|0:0,0:0:0
233,146,87423,5,0,0:0:0
220,28,87654,1,0,0:0:0
128,96,87885,2,0,B|176:128|176:176|152:228|96:224,1,180,4|0,0:0|0:0,0:0:0
48,148,88577,1,0,0:0:0
128,96,88808,1,0,0:0:0
225,111,89039,2,0,B|273:51,5,60,2|0|0|0|0|0,0:0|0:0|0:0|0:0|0:0|0:0,0:0:0
296,120,89962,6,0,B|300:172|352:184,1,90,4|0,0:0|0:0,0:0:0
440,164,90423,2,0,B|420:116|376:108,1,90
296,120,90885,1,2,0:0:0
216,128,91116,1,0,0:0:0
160,68,91347,1,0,0:0:0
160,68,91577,1,2,0:0:0
68,72,91808,6,0,B|32:128|68:200|152:204,1,180,6|0,0:0|0:0,0:0:0
139,202,92500,1,0,0:0:0
232,204,92731,1,0,0:0:0
424,264,93193,5,2,0:0:0
380,340,93423,1,0,0:0:0
336,264,93654,2,0,B|364:212|328:164,1,90,2|0,0:0|0:0,0:0:0
264,128,94116,2,0,B|232:172|264:224,1,90
336,264,94577,1,2,0:0:0
416,216,94808,1,0,0:0:0
336,172,95039,1,0,0:0:0
264,128,95270,1,2,0:0:0
180,84,95500,6,0,B|140:112|80:92,2,90,4|0|0,0:0|0:0|0:0,0:0:0
260,48,96193,2,0,B|308:12|368:16|408:32|432:60,1,180
484,128,96885,1,2,0:0:0
468,220,97116,2,0,B|448:272|380:272,1,90,4|0,0:0|0:0,0:0:0
304,264,97577,1,0,0:0:0
220,220,97808,1,0,0:0:0
184,140,98039,1,2,0:0:0
192,52,98270,2,0,B|256:80,5,60,2|0|0|0|0|0,0:0|0:0|0:0|0:0|0:0|0:0,0:0:0
276,88,99193,6,0,B|228:120|232:168|248:212|304:224,1,180,4|2,0:0|0:0,0:0:0
368,144,99885,1,0,0:0:0
368,144,100116,2,0,B|172:188,1,180,2|4,0:0|0:0,0:0:0
96,204,100808,5,0,0:0:0
124,120,101039,1,2,0:0:0
200,172,101270,1,8,0:0:0
220,84,101500,2,0,B|272:108|316:72,1,90,2|8,0:0|0:0,0:0:0
388,32,101962,1,2,0:0:0
464,96,102193,1,8,0:0:0
464,96,102423,1,2,0:0:0
432,188,102654,1,0,0:0:0
384,276,102885,6,0,B|344:328|284:324|244:308|220:272,1,180,6|0,0:0|0:0,0:0:0
304,192,103577,1,0,0:0:0
224,112,103808,2,0,B|264:60|324:64|364:80|388:116,1,180,0|4,0:0|0:0,0:0:0
304,192,104500,5,0,0:0:0
224,112,104731,1,2,0:0:0
176,200,104962,2,0,B|124:216|80:172,2,90,8|2|8,0:0|0:0|0:0,0:0:0
256,164,105654,2,0,B|300:124|356:148,1,90,2|8,0:0|0:0,0:0:0
424,184,106116,5,2,0:0:0
464,104,106347,1,0,0:0:0
372,108,106577,2,0,B|356:64|304:40|236:68|236:124,1,180,4|2,0:0|0:0,0:0:0
236,114,107270,1,0,0:0:0
308,176,107500,2,0,B|284:232|228:232|180:224|164:164,1,180,2|4,0:0|0:0,0:0:0
236,114,108193,5,0,0:0:0
288,264,108423,1,2,0:0:0
156,176,108654,1,0,0:0:0
320,176,108885,1,2,0:0:0
188,264,109116,1,0,0:0:0
240,340,109347,6,0,B|288:364|340:332,1,90
284,268,109808,2,0,B|328:248|376:268,2,90,2|0|0,0:0|0:0|0:0,0:0:0
324,252,112116,6,0,B|376:232|384:164,1,90,4|0,0:0|0:0,0:0:0
284,172,112577,2,0,B|296:120|252:84,1,90
164,60,113039,1,0,0:0:0
76,104,113270,1,0,0:0:0
76,200,113500,1,0,0:0:0
156,260,113731,6,0,B|260:296,1,90,2|0,0:0|0:0,0:0:0
332,236,114193,2,0,B|224:196,1,90,2|0,0:0|0:0,0:0:0
232,112,114654,2,0,B|332:148,1,90,2|0,0:0|0:0,0:0:0
404,172,115116,1,0,0:0:0
420,260,115347,2,0,B|396:312|420:352,1,90,4|0,0:0|0:0,0:0:0
320,292,115808,6,0,B|332:236|272:212,1,90,6|0,0:0|0:0,0:0:0
172,348,116270,2,0,B|228:340|240:280,1,90,2|0,0:0|0:0,0:0:0
148,260,116731,1,0,0:0:0
88,192,116962,1,0,0:0:0
176,164,117193,1,2,0:0:0
268,140,117423,2,0,B|300:92|388:108,1,90
348,196,117885,6,0,B|408:184|444:236|444:304|372:324,2,180,2|0|2,0:0|0:0|0:0,0:0:0
316,200,118923,1,0,0:0:0
280,204,119039,1,0,0:0:0
196,192,119270,1,2,0:0:0
140,124,119500,6,0,B|228:80,1,90,6|0,0:0|0:0,0:0:0
308,124,119962,2,0,B|212:172,1,90,2|0,0:0|0:0,0:0:0
144,204,120423,1,2,0:0:0
232,248,120654,1,0,0:0:0
152,288,120885,1,0,0:0:0
68,256,121116,6,0,B|92:208|52:156,1,90,2|0,0:0|0:0,0:0:0
164,228,121577,2,0,B|220:196|204:116,1,90,2|0,0:0|0:0,0:0:0
280,216,122039,2,0,B|336:208|356:152,1,90,2|0,0:0|0:0,0:0:0
360,72,122500,1,0,0:0:0
268,120,122731,1,2,0:0:0
384,272,123193,6,0,B|428:356,1,90,6|0,0:0|0:0,0:0:0
284,236,123654,2,0,B|300:332,1,90,2|0,0:0|0:0,0:0:0
188,192,124116,2,0,B|188:292,2,90,2|0|4,0:0|0:0|0:0,0:0:0
188,96,124808,1,0,0:0:0
100,140,125039,2,0,B|72:188|112:244,1,90
188,192,125500,2,0,B|216:252|292:260|328:252|360:220,1,180,2|0,0:0|0:0,0:0:0
416,164,126193,1,0,0:0:0
380,72,126423,1,2,0:0:0
256,192,126654,12,4,128731,0:0:0
360,96,130577,6,0,B|368:168|452:172,1,107.999996704102,6|0,0:0|0:0,0:0:0
320,204,131039,2,0,B|312:264|360:312,1,107.999996704102,2|0,0:0|0:0,0:0:0
408,232,131500,1,0,0:0:0
352,304,131731,1,2,0:3:0
264,276,131962,1,0,0:0:0
172,236,132193,6,0,B|120:208|128:144,1,107.999996704102,2|8,0:0|0:0,0:0:0
212,168,132654,2,0,B|208:104|264:76,1,107.999996704102,2|8,0:0|0:0,0:0:0
296,152,133116,2,0,B|348:108|412:152,1,107.999996704102,2|8,0:0|0:0,0:0:0
464,204,133577,1,0,0:0:0
444,120,133808,2,0,B|380:120|356:64,1,107.999996704102,2|0,0:0|0:0,0:0:0
248,56,134270,6,0,B|144:136,1,107.999996704102,6|8,0:0|0:0,0:0:0
248,164,134731,2,0,B|152:236,1,107.999996704102,2|8,0:0|0:0,0:0:0
164,340,135193,2,0,B|260:260,2,107.999996704102,2|8|0,0:0|0:0|0:0,0:0:0
72,332,135885,1,2,0:0:0
44,248,136116,1,0,0:0:0
92,172,136347,6,0,B|140:120|112:60,1,107.999996704102
160,148,136808,2,0,B|156:212|224:244,1,107.999996704102,2|0,0:0|0:0,0:0:0
320,232,137270,2,0,B|380:192|440:256,1,107.999996704102
420,236,137731,1,2,0:0:0
416,136,137962,6,0,B|456:188|412:248,1,107.999996704102,6|0,0:0|0:0,0:0:0
344,188,138423,2,0,B|300:136|344:80,1,107.999996704102,2|0,0:0|0:0,0:0:0
408,32,138885,2,0,B|448:80|412:140,1,107.999996704102,2|0,0:0|0:0,0:0:0
344,188,139347,1,0,0:0:0
264,256,139577,6,0,B|216:300|144:272,1,107.999996704102
95,205,140039,2,0,B|141:162|200:184,1,107.999996704102
164,279,140500,2,0,B|120:319|56:295,1,107.999996704102
156,336,140962,1,0,0:0:0
240,288,141193,2,0,B|296:248|352:292,1,107.999996704102,4|0,0:0|0:0,0:0:0
416,332,141654,6,0,B|468:236,1,107.999996704102,6|8,0:0|0:0,0:0:0
372,240,142116,2,0,B|400:128,1,107.999996704102,2|8,0:0|0:0,0:0:0
308,156,142577,2,0,B|308:40,2,107.999996704102,2|8|0,0:0|0:0|0:0,0:0:0
240,224,143270,1,2,0:0:0
144,228,143500,1,0,0:0:0
72,156,143731,2,0,B|136:148|140:72,1,107.999996704102
224,128,144193,6,0,B|236:172|272:192|324:188,1,107.999996704102,2|8,0:0|0:0,0:0:0
404,184,144654,1,0,0:0:0
404,184,144885,1,2,0:0:0
256,192,145116,12,4,147193,0:0:0
128,136,155616,6,2,B|92:96,2,33.7500012874604
128,248,156077,2,2,B|92:288,2,33.7500012874604
148,224,156423,6,0,B|204:228|228:184,1,67.5000025749208,4|0,0:0|0:0,0:0:0
280,148,156885,1,2,0:0:0
324,80,157116,2,0,B|344:44|384:24|432:32|464:64,1,135.000005149842,0|2,0:0|0:0,0:0:0
488,116,157808,1,0,0:0:0
444,188,158039,1,2,0:0:0
360,200,158270,6,0,B|280:212|264:296,1,135.000005149842,2|0,0:0|0:0,0:0:0
360,288,158962,1,0,0:0:0
304,224,159193,2,0,B|260:168|288:92,1,135.000005149842,2|0,0:0|0:0,0:0:0
208,140,159885,5,0,0:0:0
184,36,160116,2,0,B|180:104|96:148,1,135.000005149842,2|0,0:0|0:0,0:0:0
104,52,160808,1,0,0:0:0
104,52,161039,2,0,B|212:144,1,135.000005149842,2|0,0:0|0:0,0:0:0
300,112,161731,5,0,0:0:0
260,200,161962,2,0,B|256:256|300:296|356:300,1,135.000005149842,2|0,0:0|0:0,0:0:0
356,200,162654,1,0,0:0:0
456,200,162885,2,0,B|460:144|416:104|360:100,1,135.000005149842,2|0,0:0|0:0,0:0:0
356,200,163577,5,2,0:0:0
336,300,163808,2,0,B|312:336|280:352|240:352|204:344,1,135.000005149842,2|0,0:0|0:0,0:0:0
128,316,164500,1,0,0:0:0
60,248,164731,2,0,B|96:216|104:184|104:148|72:112,1,135.000005149842,2|0,0:0|0:0,0:0:0
32,52,165423,5,0,0:0:0
83,128,165654,2,0,B|127:164|183:164|219:120,1,135.000005149842,2|0,0:0|0:0,0:0:0
276,76,166347,1,2,0:0:0
352,40,166577,2,0,B|388:12|440:36|440:36,1,67.5000025749208,2|0,0:0|0:0,0:0:0
376,192,167270,5,2,0:0:0
312,248,167500,2,0,B|284:268|240:260,1,67.5000025749208,2|0,0:0|0:0,0:0:0
96,152,168193,5,2,0:0:0
164,104,168423,2,0,B|196:76|244:88,1,67.5000025749208,2|0,0:0|0:0,0:0:0
256,192,169116,12,0,170731,0:0:0
136,172,171193,6,0,B|200:184|224:260,1,107.999996704102,6|0,0:0|0:0,0:0:0
252,324,171654,1,2,0:0:0
188,196,171885,2,0,B|164:136|200:72,1,107.999996704102,0|2,0:0|0:0,0:0:0
268,40,172347,1,0,0:0:0
296,152,172577,1,2,0:0:0
268,40,172808,6,0,B|340:48|364:124,1,107.999996704102,6|8,0:0|0:0,0:0:0
264,132,173270,2,0,B|292:184|268:240,1,107.999996704102,2|8,0:0|0:0,0:0:0
188,192,173731,2,0,B|160:244|96:248,1,107.999996704102,2|8,0:0|0:0,0:0:0
96,152,174193,1,0,0:0:0
176,84,174423,6,0,B|200:132|260:148|344:112|312:20,2,215.999993408203,2|6|2,0:0|0:0|0:0,0:0:0
188,192,175577,2,0,B|176:252|256:288,1,107.999996704102,0|10,0:0|0:0,0:0:0
332,276,176039,1,0,0:0:0
420,240,176270,2,0,B|472:208,2,53.9999983520508,0|0|2,0:0|0:0|0:0,0:0:0
332,276,176731,1,0,0:0:0
240,304,176962,6,0,B|176:336|120:288,1,107.999996704102,0|2,0:0|0:0,0:0:0
80,208,177423,2,0,B|144:188|192:224,1,107.999996704102,2|0,0:0|0:0,0:0:0
240,304,177885,2,0,B|292:352|356:312,1,107.999996704102,0|2,0:0|0:0,0:0:0
424,276,178347,1,4,0:0:0
440,176,178577,6,0,B|448:120|448:120|420:40,1,107.999996704102,6|8,0:0|0:0,0:0:0
352,128,179039,2,0,B|332:72|332:72|280:40,1,107.999996704102,2|8,0:0|0:0,0:0:0
260,132,179500,2,0,B|212:104|212:104|128:96,2,107.999996704102,2|8|0,0:0|0:0|0:0,0:0:0
352,128,180193,6,0,B|464:200,1,107.999996704102,2|8,0:0|0:0,0:0:0
428,284,180654,2,0,B|324:216,1,107.999996704102,2|8,0:0|0:0,0:0:0
248,276,181116,2,0,B|352:344,2,107.999996704102,2|8|0,0:0|0:0|0:0,0:0:0
152,240,181808,6,0,B|192:200|184:128|148:120,1,107.999996704102,0|2,0:0|0:0,0:0:0
80,176,182270,1,6,0:0:0
244,248,182731,1,2,0:0:0
360,128,183193,1,2,0:0:0
256,104,183423,1,8,0:0:0
284,200,183654,2,0,B|252:256|184:272,2,107.999996704102,2|0|0,0:0|0:0|0:0,0:0:0
256,104,184347,2,0,B|280:168|344:184|408:176|432:116,1,215.999993408203,0|2,0:0|0:0,0:0:0
416,94,184923,1,0,0:0:0
404,60,185039,6,0,B|344:80|296:36,2,107.999996704102,0|2|4,0:0|0:0|0:0,0:0:0
440,144,185731,1,4,0:0:0
436,240,185962,6,0,B|396:292|304:268,1,107.999996704102,6|8,0:0|0:0,0:0:0
360,192,186423,2,0,B|288:192|264:128,1,107.999996704102,2|8,0:0|0:0,0:0:0
236,52,186885,1,2,0:0:0
176,144,187116,1,8,0:0:0
272,144,187347,1,0,0:0:0
136,64,187577,6,0,B|16:48,1,107.999996704102,2|8,0:0|0:0,0:0:0
200,156,188039,2,0,B|64:164,1,107.999996704102,2|8,0:0|0:0,0:0:0
296,216,188500,2,0,B|188:256,1,107.999996704102,2|8,0:0|0:0,0:0:0
112,284,188962,1,0,0:0:0
192,336,189193,2,0,B|264:356|304:308,1,107.999996704102
392,276,189654,6,0,B|348:232|376:168,1,107.999996704102,6|8,0:0|0:0,0:0:0
224,196,190116,2,0,B|256:128|336:128,1,107.999996704102,2|8,0:0|0:0,0:0:0
232,24,190577,2,0,B|316:20|344:76,1,107.999996704102,2|8,0:0|0:0,0:0:0
376,136,191039,1,0,0:0:0
412,216,191270,2,0,B|428:272|496:284,2,107.999996704102,2|0|0,0:0|0:0|0:0,0:0:0
376,136,191962,5,2,0:0:0
368,120,192077,1,0,0:0:0
360,104,192193,2,0,B|340:40|280:44,1,107.999996704102
280,128,192654,2,0,B|212:176|156:120|140:52|200:20,1,215.999993408203,2|0,0:0|0:0,0:0:0
168,92,193347,6,0,B|124:128|124:128|96:196,1,107.999996704102,6|0,0:0|0:0,0:0:0
200,180,193808,2,0,B|176:232|176:232|184:296,1,107.999996704102,2|0,0:0|0:0,0:0:0
268,240,194270,2,0,B|276:296|276:296|336:340,2,107.999996704102,2|0|0,0:0|0:0|0:0,0:0:0
308,160,194962,6,0,B|404:92,1,107.999996704102,6|8,0:0|0:0,0:0:0
412,196,195423,2,0,B|312:268,1,107.999996704102,2|8,0:0|0:0,0:0:0
220,224,195885,2,0,B|324:148,1,107.999996704102,2|8,0:0|0:0,0:0:0
388,104,196347,1,0,0:0:0
308,48,196577,2,0,B|216:116,1,107.999996704102
140,152,197039,6,0,B|76:184|16:140,1,107.999996704102,6|8,0:0|0:0,0:0:0
224,136,197500,2,0,B|232:196|176:240,1,107.999996704102,2|8,0:0|0:0,0:0:0
268,72,197962,2,0,B|320:104|312:184,1,107.999996704102,2|8,0:0|0:0,0:0:0
296,248,198423,1,0,0:0:0
216,308,198654,6,0,B|176:264|108:280,1,107.999996704102,2|0,0:0|0:0,0:0:0
32,312,199116,1,0,0:0:0
120,276,199347,2,0,B|188:256|204:184,2,107.999996704102,2|0|0,0:0|0:0|0:0,0:0:0
108,192,200039,2,0,B|136:136|120:76,1,107.999996704102,2|8,0:0|0:0,0:0:0
256,192,200500,12,4,202577,0:0:0
256,192,203500,12,0,204423,0:0:0
