osu file format v10

[General]
AudioFilename: I wanna Go.mp3
AudioLeadIn: 1026
PreviewTime: 57654
Countdown: 0
SampleSet: Soft
StackLeniency: 0.5
Mode: 0
LetterboxInBreaks: 1

[Editor]
Bookmarks: 40116,84423,104270,112116,155500
DistanceSpacing: 1
BeatDivisor: 2
GridSize: 4

[Metadata]
Title:I Wanna Go
TitleUnicode:I Wanna Go
Artist:Kanon746
ArtistUnicode:Kanon746
Creator:SC-DrawerX3
Version:Easy
Source:
Tags:Hawkii Append Len Kagamine Vocaloid Britney Spears
BeatmapID:183347
BeatmapSetID:61512

[Difficulty]
HPDrainRate:1
CircleSize:3
OverallDifficulty:1
ApproachRate:3
SliderMultiplier:0.999999999999999
SliderTickRate:1

[Events]
//Background and Video events
0,0,"Len Kagamine - Power.jpg"
//Break Periods
2,77039,88522
2,149039,154983
//Storyboard Layer 0 (Background)
//Storyboard Layer 1 (Fail)
//Storyboard Layer 2 (Pass)
//Storyboard Layer 3 (Foreground)
//Storyboard Sound Samples
//Background Colour Transformations
3,100,163,162,255

[TimingPoints]
1337,461.538461538462,4,2,2,50,1,0
1567,-100,4,2,1,50,0,0
10567,-100,4,2,2,50,0,0
12413,-100,4,2,1,50,0,0
14260,-100,4,2,2,50,0,0
17952,-100,4,2,1,50,0,0
19798,-100,4,2,2,50,0,0
25337,-100,4,2,1,50,0,0
28567,-100,4,2,2,50,0,0
40106,-100,4,2,1,50,0,0
56721,-100,4,2,2,50,0,0
57760,-83.3333333333333,4,1,0,50,0,0
58567,-83.3333333333333,4,1,1,50,0,1
58798,-83.3333333333333,4,1,0,70,0,1
65952,-83.3333333333333,4,1,1,70,0,1
66183,-83.3333333333333,4,1,0,70,0,1
69644,-83.3333333333333,4,2,2,90,0,1
69875,-83.3333333333333,4,1,0,70,0,1
75413,-83.3333333333333,4,2,2,70,0,1
77029,-100,4,2,1,50,0,0
80721,-100,4,2,2,50,0,0
84413,-100,4,2,1,50,0,0
97106,-100,4,2,2,50,0,0
99183,-100,4,2,1,50,0,0
100567,-100,4,2,2,50,0,0
102875,-100,4,2,1,50,0,0
104260,-100,4,2,2,50,0,0
106567,-100,4,2,1,50,0,0
107952,-100,4,2,2,50,0,0
110260,-100,4,2,1,50,0,0
112106,-100,4,2,1,50,0,0
115337,-100,4,2,1,50,0,0
115798,-100,4,2,2,50,0,0
119490,-100,4,2,1,50,0,0
123183,-100,4,2,2,50,0,0
124567,-100,4,2,1,50,0,0
128721,-100,4,2,2,50,0,0
130567,-83.3333333333333,4,1,1,70,0,1
134260,-83.3333333333333,4,2,2,90,0,1
134490,-83.3333333333333,4,1,0,70,0,1
137952,-83.3333333333333,4,1,1,70,0,1
141183,-83.3333333333333,4,2,0,80,0,1
141413,-83.3333333333333,4,1,0,70,0,1
141644,-83.3333333333333,4,2,2,70,0,1
141875,-83.3333333333333,4,1,0,70,0,1
147183,-83.3333333333333,4,2,2,70,0,1
149029,-100,4,2,1,50,0,0
155490,-133.333333333333,4,2,1,50,0,0
156413,-133.333333333333,4,1,1,50,0,0
156644,-133.333333333333,4,2,1,60,0,0
171183,-83.3333333333333,4,1,1,80,0,1
172798,-83.3333333333333,4,1,2,80,0,1
174875,-83.3333333333333,4,2,2,90,0,1
174990,-83.3333333333333,4,1,0,80,0,1
178337,-83.3333333333333,4,2,0,80,0,1
178452,-83.3333333333333,4,1,0,80,0,1
178567,-83.3333333333333,4,1,1,80,0,1
182260,-83.3333333333333,4,2,2,90,0,1
182375,-83.3333333333333,4,1,0,90,0,1
185490,-83.3333333333333,4,1,2,80,0,1
185606,-83.3333333333333,4,1,0,80,0,1
185721,-83.3333333333333,4,2,0,80,0,0
185952,-83.3333333333333,4,1,1,80,0,1
189644,-83.3333333333333,4,2,2,90,0,1
189760,-83.3333333333333,4,1,0,90,0,1
193337,-83.3333333333333,4,1,1,80,0,1
194952,-83.3333333333333,4,1,0,80,0,1
197029,-83.3333333333333,4,2,2,90,0,1
197029,-83.3333333333333,4,1,0,80,0,1
197144,-83.3333333333333,4,1,0,80,0,1
202567,-83.3333333333333,4,2,2,80,0,1
204413,-100,4,1,0,60,0,0

[Colours]
Combo1 : 255,255,255
Combo2 : 255,218,89
Combo3 : 113,255,145
Combo4 : 207,64,255
Combo5 : 253,68,72
Combo6 : 40,255,244

[HitObjects]
168,96,1347,2,0,B|204:148|256:152|304:148|336:96,1,200,4|0,0:0|0:0,0:0:0
408,168,2731,1,2,0:0:0
416,264,3193,2,0,B|376:320|312:320|264:320|216:288,1,200,0|2,0:0|0:0,0:0:0
144,264,4577,2,0,B|96:232|32:264,1,99.9999999999999,2|0,0:0|0:0,0:0:0
48,160,5500,6,0,B|152:136|152:136|208:40,1,200,0|2,0:0|0:0,0:0:0
313,55,6885,2,0,B|360:136|360:136|464:160,1,200,0|2,0:0|0:0,0:0:0
208,104,9193,6,0,B|168:144|96:144,1,99.9999999999999
152,240,10116,2,0,B|176:288|232:304|280:288,2,150,2|0|2,0:0|0:0|0:0,0:0:0
240,192,11962,6,0,B|304:184|336:136,1,99.9999999999999,0|6,0:0|0:0,0:0:0
248,88,12885,1,0,0:0:0
160,128,13347,2,0,B|152:208|64:232|72:304,1,200,2|2,0:0|0:0,0:0:0
160,344,14731,1,0,0:0:0
264,348,15193,2,0,B|360:332|360:332|384:224,1,200,2|2,0:0|0:0,0:0:0
292,168,16577,1,0,0:0:0
204,108,17039,6,0,B|172:156|108:156,1,99.9999999999999,0|2,0:0|0:0,0:0:0
200,232,17962,6,0,B|224:280|288:280,1,99.9999999999999,4|0,0:0|0:0,0:0:0
384,240,18885,1,0,0:0:0
424,144,19347,1,2,0:0:0
360,72,19808,2,0,B|328:104|272:96|272:96|216:136|160:112,1,200,4|0,0:0|0:0,0:0:0
164,256,21654,6,0,B|172:328|268:328,1,99.9999999999999,2|0,0:0|0:0,0:0:0
272,224,22577,2,0,B|344:208|328:120,1,99.9999999999999
236,128,23500,2,0,B|244:72|196:24|116:16|80:72,1,200,2|0,0:0|0:0,0:0:0
140,144,24885,5,0,0:0:0
188,136,25116,1,0,0:0:0
236,128,25347,2,0,B|284:192|260:248|220:280,1,150,4|0,0:0|0:0,0:0:0
272,304,26270,2,0,B|328:336|392:328|432:288|432:224,1,200,0|2,0:0|0:0,0:0:0
320,136,27885,6,0,B|264:160|200:136|184:80,1,150,2|4,0:0|0:0,0:0:0
104,152,29039,1,2,0:0:0
168,228,29500,1,8,0:0:0
268,228,29962,1,2,0:0:0
332,152,30423,1,8,0:0:0
416,204,30885,6,0,B|416:268|344:284,1,99.9999999999999,2|0,0:0|0:0,0:0:0
312,256,31577,2,0,B|280:296|200:296|176:240,1,150,2|4,0:0|0:0,0:0:0
248,176,32731,5,2,0:0:0
160,136,33193,1,8,0:0:0
120,224,33654,1,2,0:0:0
208,264,34116,1,8,0:0:0
248,176,34577,6,0,B|308:148|300:88,1,99.9999999999999,2|0,0:0|0:0,0:0:0
328,72,35270,2,0,B|384:56|440:88|456:144,1,150,2|4,0:0|0:0,0:0:0
424,232,36423,5,2,0:0:0
336,184,36885,2,0,B|240:128,1,99.9999999999999,8|2,0:0|0:0,0:0:0
216,232,37808,2,0,B|320:296,1,99.9999999999999,8|0,0:0|0:0,0:0:0
256,88,39193,1,0,0:0:0
192,280,40116,6,0,B|96:216,2,99.9999999999999,4|0|2,0:0|0:0|0:0,0:0:0
320,280,41731,2,0,B|416:216,2,99.9999999999999,0|2|0,0:0|0:0|0:0,0:0:0
304,184,43116,2,0,B|256:208|256:208|200:176,1,99.9999999999999,2|0,0:0|0:0,0:0:0
200,136,43808,6,0,B|200:72|144:32,2,99.9999999999999,6|0|0,0:0|0:0|0:0,0:0:0
256,224,45193,1,0,0:0:0
312,136,45654,2,0,B|312:72|368:32,2,99.9999999999999,2|0|2,0:0|0:0|0:0,0:0:0
416,240,47270,1,2,0:0:0
384,280,47500,6,0,B|336:312|276:288,1,99.9999999999999,4|0,0:0|0:0,0:0:0
196,252,48423,2,0,B|136:244|112:192,1,99.9999999999999
96,160,49116,6,0,B|144:112|120:48,2,99.9999999999999,2|0|2,0:0|0:0|0:0,0:0:0
160,236,50500,1,0,0:0:0
208,224,50731,2,0,B|272:208|312:256,1,99.9999999999999
236,320,51654,1,0,0:0:0
336,320,52116,1,0,0:0:0
388,236,52577,1,0,0:0:0
364,140,53029,6,0,P|264:108|232:60,2,150
256,192,54654,12,4,56731,0:0:0
260,168,58577,6,0,B|332:180|388:104|376:104,2,119.999996337891,6|2|6,0:0|0:0|0:0,0:0:0
140,148,59962,1,0,0:0:0
120,204,60193,6,0,B|112:276|192:324,2,119.999996337891,2|2|0,0:0|0:0|0:0,0:0:0
228,248,61577,1,0,0:0:0
232,296,61808,2,2,B|280:248|368:264,1,119.999996337891,0|12,0:0|0:0,0:0:0
464,288,62731,1,2,0:0:0
408,184,63193,6,0,B|376:120,1,59.9999981689453,2|0,0:0|0:0,0:0:0
328,104,63654,1,8,0:0:0
272,128,63885,2,0,B|200:144|160:88,2,119.999996337891,2|0|2,0:0|0:0|0:0,0:0:0
184,208,65270,1,0,0:0:0
272,288,65731,1,12,0:0:0
328,304,65962,6,0,B|400:312|448:272,1,119.999996337891,6|2,0:0|0:0,0:0:0
360,184,66885,2,0,B|320:232|248:224,1,119.999996337891
216,240,67577,6,0,B|204:284|164:316|104:312,1,119.999996337891
112,192,68500,2,0,B|36:208|16:140,1,119.999996337891
192,104,69654,6,0,B|332:104,1,119.999996337891,4|0,0:0|0:0,0:0:0
408,176,70577,2,0,B|276:176,1,119.999996337891
264,208,71270,2,0,B|248:280|304:336|376:336,1,179.999994506836,0|8,0:0|0:0,0:0:0
428,208,72654,1,2,0:0:0
256,192,73116,12,4,76116,0:0:0
174,99,89962,6,0,B|229:63|302:90|333:136|320:200,1,200,4|2,0:0|0:0,0:0:0
248,248,91347,1,8,0:0:0
336,296,91808,2,0,B|384:304|448:272|452:208,2,150,2|0|2,0:0|0:0|0:0,0:0:0
336,192,93654,6,0,B|320:120|256:112,1,99.9999999999999,2|2,0:0|0:0,0:0:0
176,104,94577,1,0,0:0:0
104,176,95039,1,2,0:0:0
184,232,95500,2,0,B|232:272|208:344,1,99.9999999999999,0|2,0:0|0:0,0:0:0
312,336,96423,1,2,0:0:0
388,272,96885,1,0,0:0:0
176,312,98270,5,2,0:0:0
164,212,98731,1,0,0:0:0
160,112,99193,2,0,B|232:104|256:184,1,99.9999999999999,4|0,0:0|0:0,0:0:0
240,204,99885,2,0,B|232:276|288:312|332:320,1,150,2|4,0:0|0:0,0:0:0
332,216,101039,5,2,0:0:0
416,268,101500,1,8,0:0:0
424,168,101962,2,0,B|484:140|492:92,1,99.9999999999999
432,20,102875,6,0,P|364:40|312:40,1,99.9999999999999
236,60,103798,2,0,P|184:76|132:80,1,99.9999999999999
180,180,104731,5,2,0:0:0
136,272,105193,1,8,0:0:0
224,312,105654,1,2,0:0:0
272,224,106116,5,8,0:0:0
288,128,106577,2,0,B|272:64|344:40,1,99.9999999999999,6|0,0:0|0:0,0:0:0
376,64,107270,2,0,B|424:112|360:160|416:208,1,150,2|4,0:0|0:0,0:0:0
464,304,108423,5,2,0:0:0
368,336,108885,1,8,0:0:0
336,240,109347,1,2,0:0:0
432,216,109808,1,8,0:0:0
360,152,110270,6,0,B|320:216|256:208|216:208|176:176|144:136|168:64,1,300,4|0,0:0|0:0,0:0:0
64,84,112116,6,0,B|56:136|84:192,1,99.9999999999999,4|0,0:0|0:0,0:0:0
156,252,113039,1,2,0:0:0
208,328,113500,1,0,0:0:0
256,312,113731,6,0,B|296:272|360:296,2,99.9999999999999,2|0|2,0:0|0:0|0:0,0:0:0
280,224,115116,2,0,B|256:232|212:220,1,50,2|4,0:0|0:0,0:0:0
136,168,115808,6,0,B|88:112|128:48,2,99.9999999999999,6|0|0,0:0|0:0|0:0,0:0:0
208,240,117193,2,0,B|264:232|296:280,1,99.9999999999999,2|0,0:0|0:0,0:0:0
388,252,118106,2,0,P|416:160|396:100,1,150
308,72,119270,1,2,0:0:0
256,72,119500,6,0,B|224:112|152:120,1,99.9999999999999,4|0,0:0|0:0,0:0:0
72,112,120423,1,0,0:0:0
80,208,120885,1,2,0:0:0
120,232,121116,6,0,B|168:264|168:336,3,99.9999999999999,2|0|2|0,0:0|0:0|0:0|0:0,0:0:0
320,312,123193,2,0,B|328:256|384:232,2,99.9999999999999,4|0|2,0:0|0:0|0:0,0:0:0
256,240,124577,5,6,0:0:0
256,192,124808,2,0,B|256:64,2,99.9999999999999,0|0|2,0:0|0:0|0:0,0:0:0
256,296,126193,1,2,0:0:0
256,192,126654,12,4,129654,0:0:0
280,276,130577,6,0,B|208:276|168:340,2,119.999996337891,6|8|2,0:0|0:0|0:0,0:0:0
320,260,131731,2,0,B|364:212,1,59.9999981689453
392,184,132193,6,0,B|400:112|320:64,2,119.999996337891
280,144,133577,1,0,0:0:0
280,88,133808,2,2,B|232:136|144:120,1,119.999996337891,0|12,0:0|0:0,0:0:0
48,96,134731,1,2,0:0:0
104,200,135193,6,0,B|136:264,1,59.9999981689453,2|0,0:0|0:0,0:0:0
184,280,135654,1,8,0:0:0
240,256,135885,2,0,B|312:240|352:296,2,119.999996337891,2|0|2,0:0|0:0|0:0,0:0:0
328,176,137270,1,0,0:0:0
240,96,137731,1,12,0:0:0
184,80,137962,6,0,B|112:72|64:112,1,119.999996337891,6|2,0:0|0:0,0:0:0
152,200,138885,1,2,0:0:0
200,168,139116,1,8,0:0:0
256,184,139347,1,8,0:0:0
304,144,139577,6,0,B|352:88|448:112,3,119.999996337891,2|2|2|0,0:0|0:0|0:0|0:0,0:0:0
344,272,141654,2,0,B|272:288|224:224,3,119.999996337891,6|10|2|0,0:0|0:0|0:0|0:0,0:0:0
248,176,143270,2,0,B|264:104|208:48|136:48,1,179.999994506836,0|8,0:0|0:0,0:0:0
80,216,144654,1,2,0:0:0
256,192,145116,12,4,148116,0:0:0
256,80,156423,6,0,B|264:152|344:160,2,112.500004291534,4|0|2,0:0|0:0|0:0,0:0:0
192,128,158270,2,0,B|200:192|152:240,2,112.500004291534,2|0|2,0:0|0:0|0:0,0:0:0
256,96,160116,6,0,B|328:72|328:72|416:104,2,150.000005722046,4|0|2,0:0|0:0|0:0,0:0:0
152,128,162654,1,2,0:0:0
180,156,162885,2,0,B|224:180|220:244,1,75.000002861023,2|4,0:0|0:0,0:0:0
292,208,163798,5,0,0:0:0
296,320,164500,1,2,0:0:0
344,320,164731,2,0,B|400:312|448:264|440:208,1,150.000005722046,2|0,0:0|0:0,0:0:0
332,196,166347,1,2,0:0:0
296,208,166577,2,0,B|256:224|208:200,1,75.000002861023
256,144,167500,2,0,B|216:112|248:56,1,75.000002861023,2|0,0:0|0:0,0:0:0
256,192,168423,12,0,170270,0:0:0
192,80,171193,6,0,B|80:144,2,119.999996337891,6|10|2,0:0|0:0|0:0,0:0:0
256,184,172577,1,2,0:0:0
312,208,172808,2,0,B|368:248|432:224,1,119.999996337891,10|2,0:0|0:0,0:0:0
376,120,173731,2,0,B|448:104|464:40,1,119.999996337891,10|0,0:0|0:0,0:0:0
280,48,174885,6,0,B|160:120,1,119.999996337891,6|2,0:0|0:0,0:0:0
72,168,175808,2,0,B|140:188|176:244,1,119.999996337891
208,264,176500,6,0,B|296:272|336:188,1,119.999996337891,2|2,0:0|0:0,0:0:0
156,48,177875,2,0,P|144:108|88:144,1,119.999996337891
136,184,178577,6,0,B|160:248|136:312,2,119.999996337891,6|2|2,0:0|0:0|0:0,0:0:0
256,200,179962,1,10,0:0:0
256,144,180193,2,0,B|256:24,2,119.999996337891,2|2|2,0:0|0:0|0:0,0:0:0
308,252,181577,1,8,0:0:0
352,212,181808,1,0,0:0:0
324,96,182270,6,0,B|364:152|436:160,2,119.999996337891,6|2|6,0:0|0:0|0:0,0:0:0
256,192,183654,1,0,0:0:0
256,128,183885,1,2,0:0:0
152,72,184347,6,0,B|96:104|104:176,2,119.999996337891,2|2|2,0:0|0:0|0:0,0:0:0
208,56,185500,1,0,0:0:0
264,72,185731,1,10,0:0:0
320,56,185962,6,0,B|344:120|424:128,2,119.999996337891,2|2|2,0:0|0:0|0:0,0:0:0
224,208,187577,2,0,B|216:280|120:296,2,119.999996337891,10|2|2,0:0|0:0|0:0,0:0:0
152,112,188952,2,0,P|200:72,1,59.9999981689453
316,52,189644,6,0,P|316:120|348:172,1,119.999996337891,4|0,0:0|0:0,0:0:0
224,208,190577,2,0,B|272:256|240:328,1,119.999996337891,2|0,0:0|0:0,0:0:0
304,320,191270,6,0,B|352:264|432:296,1,119.999996337891,8|2,0:0|0:0,0:0:0
384,172,192193,1,0,0:0:0
472,88,192654,1,0,0:0:0
360,40,193116,1,10,0:0:0
312,80,193347,6,0,B|216:168,1,119.999996337891,6|2,0:0|0:0,0:0:0
136,72,194270,2,0,B|24:176,2,119.999996337891,2|0|2,0:0|0:0|0:0,0:0:0
192,96,195423,2,0,B|240:144|216:216,1,119.999996337891,10|2,0:0|0:0,0:0:0
104,248,196347,1,2,0:0:0
208,312,196808,1,8,0:0:0
264,320,197039,6,0,B|344:320|384:240,2,119.999996337891,6|2|2,0:0|0:0|0:0,0:0:0
272,200,198423,1,0,0:0:0
312,152,198654,2,0,B|352:96|336:24,1,119.999996337891,8|0,0:0|0:0,0:0:0
224,72,199577,2,0,B|216:128|152:184,1,119.999996337891,2|0,0:0|0:0,0:0:0
256,192,200500,12,4,204423,0:0:0
