osu file format v14

[General]
AudioFilename: Wakeshima Kanon - killy killy JOKER.mp3
AudioLeadIn: 0
PreviewTime: 46224
Countdown: 0
SampleSet: Normal
StackLeniency: 0.7
Mode: 1
LetterboxInBreaks: 0
WidescreenStoryboard: 0

[Editor]
DistanceSpacing: 1.4
BeatDivisor: 4
GridSize: 32
TimelineZoom: 1

[Metadata]
Title:killy killy JOKER
TitleUnicode:killy killy JOKER
Artist:Kanon Wakeshima
ArtistUnicode:分島花音
Creator:DakeDekaane
Version:Kantan
Source:selector infected WIXOSS
Tags:Opening TV Size
BeatmapID:525558
BeatmapSetID:225202

[Difficulty]
HPDrainRate:8
CircleSize:5
OverallDifficulty:4
ApproachRate:5
SliderMultiplier:1.4
SliderTickRate:1

[Events]
//Background and Video events
0,0,"Wakeshima Kanon - killy killy JOKER - Background.jpg",0,0
//Break Periods
//Storyboard Layer 0 (Background)
//Storyboard Layer 1 (Fail)
//Storyboard Layer 2 (Pass)
//Storyboard Layer 3 (Foreground)
//Storyboard Sound Samples

[TimingPoints]
8974.30885012515,333.333333333333,4,1,0,70,1,0
46307,-100,4,1,0,70,0,1
83640,-100,4,1,0,70,0,0

[HitObjects]
256,192,8974,5,0,0:0:0:0:
256,192,10307,1,0,0:0:0:0:
256,192,10974,1,8,0:0:0:0:
256,192,11640,1,0,0:0:0:0:
256,192,12807,12,0,13807,0:0:0:0:
256,192,14307,5,0,0:0:0:0:
256,192,16974,1,0,0:0:0:0:
256,192,19640,1,0,0:0:0:0:
256,192,19974,1,0,0:0:0:0:
256,192,20807,1,0,0:0:0:0:
256,192,21640,1,0,0:0:0:0:
256,192,22307,1,8,0:0:0:0:
256,192,22640,1,8,0:0:0:0:
256,192,23474,1,8,0:0:0:0:
256,192,24306,1,12,0:0:0:0:
256,192,24974,1,0,0:0:0:0:
256,192,26307,1,0,0:0:0:0:
256,192,27640,1,0,0:0:0:0:
256,192,28974,1,8,0:0:0:0:
256,192,30307,1,0,0:0:0:0:
256,192,31640,1,0,0:0:0:0:
256,192,32974,2,0,B|512:192|512:192|512:0|512:0|384:0,1,560
256,192,34974,1,8,0:0:0:0:
256,192,35307,1,8,0:0:0:0:
256,192,35640,1,0,0:0:0:0:
256,192,36307,1,8,0:0:0:0:
256,192,36974,1,0,0:0:0:0:
256,192,38307,1,0,0:0:0:0:
256,192,38974,1,8,0:0:0:0:
256,192,39640,1,0,0:0:0:0:
256,192,40307,1,8,0:0:0:0:
256,192,40974,12,0,42807,0:0:0:0:
256,192,43641,5,12,0:0:0:0:
256,192,44307,1,12,0:0:0:0:
256,192,44974,12,0,45640,0:0:0:0:
256,192,46307,5,0,0:0:0:0:
256,192,46640,1,0,0:0:0:0:
256,192,46974,1,0,0:0:0:0:
256,192,47307,1,0,0:0:0:0:
256,192,47640,1,0,0:0:0:0:
256,192,47973,1,0,0:0:0:0:
256,192,48307,1,0,0:0:0:0:
256,192,48640,1,0,0:0:0:0:
256,192,48974,12,0,50807,0:0:0:0:
256,192,51640,5,0,0:0:0:0:
256,192,51974,1,0,0:0:0:0:
256,192,52307,1,0,0:0:0:0:
256,192,52640,1,0,0:0:0:0:
256,192,52973,1,0,0:0:0:0:
256,192,53306,1,0,0:0:0:0:
256,192,53640,1,0,0:0:0:0:
256,192,53974,1,0,0:0:0:0:
256,192,54307,1,8,0:0:0:0:
256,192,55641,1,8,0:0:0:0:
256,192,56974,1,0,0:0:0:0:
256,192,58140,1,0,0:0:0:0:
256,192,58974,1,0,0:0:0:0:
256,192,59307,1,0,0:0:0:0:
256,192,59640,2,0,B|512:192|512:192|512:160,1,280
256,192,60974,2,4,B|512:192|512:192|512:160,1,280
256,192,62307,1,0,0:0:0:0:
256,192,62640,1,0,0:0:0:0:
256,192,62974,1,0,0:0:0:0:
256,192,63307,1,0,0:0:0:0:
256,192,63640,1,0,0:0:0:0:
256,192,63974,1,0,0:0:0:0:
256,192,64307,1,0,0:0:0:0:
256,192,64640,1,0,0:0:0:0:
256,192,64974,12,0,66807,0:0:0:0:
256,192,67640,5,0,0:0:0:0:
256,192,67974,1,0,0:0:0:0:
256,192,68307,1,0,0:0:0:0:
256,192,68640,1,0,0:0:0:0:
256,192,68973,1,0,0:0:0:0:
256,192,69306,1,0,0:0:0:0:
256,192,69640,1,0,0:0:0:0:
256,192,69974,1,0,0:0:0:0:
256,192,70307,1,8,0:0:0:0:
256,192,71641,1,8,0:0:0:0:
256,192,72974,1,0,0:0:0:0:
256,192,74307,1,0,0:0:0:0:
256,192,74974,1,8,0:0:0:0:
256,192,75307,1,8,0:0:0:0:
256,192,75640,12,0,76807,0:0:0:0:
256,192,77640,5,0,0:0:0:0:
256,192,77974,1,0,0:0:0:0:
256,192,78307,1,0,0:0:0:0:
256,192,79640,1,8,0:0:0:0:
256,192,80307,1,0,0:0:0:0:
256,192,80640,1,0,0:0:0:0:
256,192,80974,1,0,0:0:0:0:
256,192,82307,1,8,0:0:0:0:
256,192,82974,1,12,0:0:0:0:
256,192,83640,1,0,0:0:0:0:
256,192,84974,1,0,0:0:0:0:
256,192,85640,1,8,0:0:0:0:
256,192,86307,1,8,0:0:0:0:
256,192,87474,12,0,88807,0:0:0:0:
