osu file format v14

[General]
AudioFilename: Foul Play ni Kurari ~TV size~.mp3
AudioLeadIn: 0
PreviewTime: 48089
Countdown: 0
SampleSet: Soft
StackLeniency: 0.7
Mode: 3
LetterboxInBreaks: 0
SpecialStyle: 0
WidescreenStoryboard: 0

[Editor]
DistanceSpacing: 2
BeatDivisor: 4
GridSize: 4
TimelineZoom: 1

[Metadata]
Title:Foul Play ni Kurari (TV Size)
TitleUnicode:ファールプレーにくらり (TV Size)
Artist:Kanon Wakeshima
ArtistUnicode:分島花音
Creator:ryandiaz560
Version:MX
Source:To Love-Ru Darkness
Tags:ending lala satalin nana astar momo velia deviluke
BeatmapID:681312
BeatmapSetID:304083

[Difficulty]
HPDrainRate:8
CircleSize:4
OverallDifficulty:8
ApproachRate:5
SliderMultiplier:1.20000000596046
SliderTickRate:1

[Events]
//Background and Video events
0,0,"bmwall.jpg",0,0
//Break Periods
//Storyboard Layer 0 (Background)
//Storyboard Layer 1 (Fail)
//Storyboard Layer 2 (Pass)
//Storyboard Layer 3 (Foreground)
//Storyboard Sound Samples

[TimingPoints]
514,368.098159509202,4,2,1,40,1,0
30053,368.098159509202,4,2,1,40,1,0
30053,-133.333333333333,4,2,1,40,0,0
38887,-100,4,2,1,40,0,0
49194,-100,4,2,1,40,0,1
72752,-100,4,2,1,40,0,0

[HitObjects]
64,192,145,5,0,0:0:0:0:
192,192,237,1,0,0:0:0:0:
320,192,329,1,0,0:0:0:0:
448,192,421,1,0,0:0:0:0:
320,192,514,1,0,0:0:0:0:
64,192,514,128,0,1250:0:0:0:0:
320,192,882,1,4,0:0:0:0:
448,192,882,1,0,0:0:0:0:
192,192,882,1,0,0:0:0:0:
192,192,1250,1,0,0:0:0:0:
448,192,1250,128,0,1986:0:0:0:0:
192,192,1618,1,0,0:0:0:0:
320,192,1618,1,0,0:0:0:0:
64,192,1618,1,4,0:0:0:0:
64,192,1986,1,0,0:0:0:0:
192,192,1986,1,0,0:0:0:0:
320,192,2170,1,0,0:0:0:0:
448,192,2170,1,0,0:0:0:0:
64,192,2354,1,0,0:0:0:0:
448,192,2538,128,0,3090:0:0:0:0:
192,192,2538,1,0,0:0:0:0:
64,192,2722,1,0,0:0:0:0:
320,192,2722,1,0,0:0:0:0:
192,192,2906,1,0,0:0:0:0:
320,192,3090,1,0,0:0:0:0:
64,192,3090,1,0,0:0:0:0:
192,192,3274,128,0,3458:0:0:0:0:
320,192,3458,1,0,0:0:0:0:
64,192,3458,128,0,3642:0:0:0:0:
192,192,3642,128,0,3826:0:0:0:0:
448,192,3642,1,0,0:0:0:0:
320,192,3826,128,0,4010:0:0:0:0:
64,192,3826,1,0,0:0:0:0:
448,192,4010,128,0,4194:0:0:0:0:
192,192,4010,1,0,0:0:0:0:
192,192,4194,128,0,4379:0:0:0:0:
64,192,4194,1,0,0:0:0:0:
320,192,4379,128,0,4563:0:0:0:0:
448,192,4379,1,0,0:0:0:0:
64,192,4563,1,0,0:0:0:0:
192,192,4563,128,0,4747:0:0:0:0:
320,192,4747,1,0,0:0:0:0:
448,192,4747,1,0,0:0:0:0:
64,192,5115,128,0,5299:0:0:0:0:
192,192,5299,128,0,5483:0:0:0:0:
320,192,5483,128,0,5667:0:0:0:0:
448,192,5667,128,0,5851:0:0:0:0:
64,192,5851,1,2,0:0:0:0:
192,192,5851,1,0,0:0:0:0:
448,192,6035,1,2,0:0:0:0:
320,192,6035,1,0,0:0:0:0:
64,192,6403,1,0,0:0:0:0:
448,192,6403,128,0,7139:0:0:0:0:
192,192,6587,1,0,0:0:0:0:
320,192,6771,1,0,0:0:0:0:
64,192,6771,1,0,0:0:0:0:
192,192,6955,1,0,0:0:0:0:
64,192,7139,128,0,7875:0:0:0:0:
320,192,7139,1,0,0:0:0:0:
192,192,7323,1,0,0:0:0:0:
320,192,7507,1,0,0:0:0:0:
448,192,7507,1,0,0:0:0:0:
192,192,7691,1,0,0:0:0:0:
448,192,7875,1,0,0:0:0:0:
320,192,7875,1,0,0:0:0:0:
192,192,8060,1,0,0:0:0:0:
448,192,8244,1,0,0:0:0:0:
64,192,8428,1,0,0:0:0:0:
192,192,8612,1,0,0:0:0:0:
448,192,8796,1,0,0:0:0:0:
64,192,8980,128,0,9348:0:0:0:0:
320,192,8980,1,0,0:0:0:0:
192,192,9164,1,0,0:0:0:0:
320,192,9348,128,0,10084:0:0:0:0:
448,192,9348,1,0,0:0:0:0:
192,192,9532,1,0,0:0:0:0:
64,192,9716,1,0,0:0:0:0:
448,192,9716,1,0,0:0:0:0:
192,192,9900,1,0,0:0:0:0:
64,192,10084,128,0,10820:0:0:0:0:
448,192,10084,1,0,0:0:0:0:
192,192,10268,1,0,0:0:0:0:
320,192,10452,1,0,0:0:0:0:
448,192,10452,1,0,0:0:0:0:
448,192,10636,1,0,0:0:0:0:
320,192,10728,1,0,0:0:0:0:
192,192,10820,1,0,0:0:0:0:
448,192,10820,1,0,0:0:0:0:
320,192,11004,1,0,0:0:0:0:
64,192,11188,1,0,0:0:0:0:
448,192,11188,1,0,0:0:0:0:
192,192,11372,1,0,0:0:0:0:
320,192,11464,1,0,0:0:0:0:
448,192,11556,1,0,0:0:0:0:
192,192,11556,1,0,0:0:0:0:
64,192,11740,1,0,0:0:0:0:
192,192,11833,1,0,0:0:0:0:
320,192,11925,1,0,0:0:0:0:
448,192,11925,1,0,0:0:0:0:
192,192,12109,1,0,0:0:0:0:
64,192,12293,128,0,13029:0:0:0:0:
448,192,12293,1,0,0:0:0:0:
320,192,12477,1,0,0:0:0:0:
320,192,12661,1,0,0:0:0:0:
448,192,12661,1,4,0:0:0:0:
192,192,12661,1,0,0:0:0:0:
320,192,12845,1,0,0:0:0:0:
192,192,13029,1,0,0:0:0:0:
448,192,13029,128,0,13765:0:0:0:0:
320,192,13213,1,0,0:0:0:0:
192,192,13397,1,0,0:0:0:0:
320,192,13397,1,0,0:0:0:0:
64,192,13397,1,4,0:0:0:0:
192,192,13581,1,0,0:0:0:0:
64,192,13765,1,0,0:0:0:0:
320,192,13765,1,0,0:0:0:0:
192,192,13949,1,0,0:0:0:0:
320,192,14133,1,0,0:0:0:0:
448,192,14133,1,0,0:0:0:0:
64,192,14317,1,0,0:0:0:0:
192,192,14501,1,0,0:0:0:0:
448,192,14501,1,0,0:0:0:0:
320,192,14685,1,0,0:0:0:0:
448,192,14869,1,0,0:0:0:0:
64,192,14869,1,0,0:0:0:0:
320,192,15053,1,0,0:0:0:0:
192,192,15237,1,0,0:0:0:0:
64,192,15237,128,0,15974:0:0:0:0:
320,192,15421,1,0,0:0:0:0:
192,192,15606,1,0,0:0:0:0:
448,192,15606,1,0,0:0:0:0:
448,192,15790,1,0,0:0:0:0:
320,192,15974,1,0,0:0:0:0:
192,192,15974,128,0,16710:0:0:0:0:
448,192,16158,1,0,0:0:0:0:
64,192,16342,1,0,0:0:0:0:
320,192,16342,1,0,0:0:0:0:
448,192,16526,1,0,0:0:0:0:
64,192,16710,1,0,0:0:0:0:
320,192,16710,1,0,0:0:0:0:
448,192,16894,5,2,0:0:0:0:
448,192,17078,1,2,0:0:0:0:
448,192,17262,1,2,0:0:0:0:
448,192,17446,1,2,0:0:0:0:
64,192,17630,1,0,0:0:0:0:
320,192,17630,1,0,0:0:0:0:
192,192,17814,1,0,0:0:0:0:
448,192,17814,1,0,0:0:0:0:
64,192,17998,1,0,0:0:0:0:
448,192,18090,1,0,0:0:0:0:
320,192,18182,1,0,0:0:0:0:
64,192,18366,1,0,0:0:0:0:
192,192,18550,128,0,18918:0:0:0:0:
448,192,18550,1,0,0:0:0:0:
320,192,18734,1,0,0:0:0:0:
64,192,18826,1,0,0:0:0:0:
448,192,18918,128,0,19655:0:0:0:0:
320,192,18918,1,0,0:0:0:0:
64,192,19102,1,0,0:0:0:0:
192,192,19287,1,0,0:0:0:0:
320,192,19471,1,0,0:0:0:0:
192,192,19563,1,0,0:0:0:0:
64,192,19655,128,0,21127:0:0:0:0:
320,192,19655,1,0,0:0:0:0:
192,192,19839,1,0,0:0:0:0:
448,192,20023,1,0,0:0:0:0:
320,192,20023,1,0,0:0:0:0:
448,192,20207,1,0,0:0:0:0:
320,192,20391,1,0,0:0:0:0:
192,192,20391,1,0,0:0:0:0:
192,192,20575,1,0,0:0:0:0:
320,192,20759,1,0,0:0:0:0:
448,192,20759,1,0,0:0:0:0:
192,192,20943,1,0,0:0:0:0:
320,192,21035,1,0,0:0:0:0:
192,192,21127,1,0,0:0:0:0:
448,192,21127,1,0,0:0:0:0:
320,192,21311,1,0,0:0:0:0:
192,192,21495,128,0,21863:0:0:0:0:
64,192,21495,1,0,0:0:0:0:
448,192,21679,1,0,0:0:0:0:
320,192,21863,128,0,22231:0:0:0:0:
64,192,21863,1,0,0:0:0:0:
192,192,22047,1,0,0:0:0:0:
448,192,22231,128,0,22599:0:0:0:0:
64,192,22231,1,0,0:0:0:0:
192,192,22415,1,0,0:0:0:0:
320,192,22507,1,0,0:0:0:0:
64,192,22599,128,0,23336:0:0:0:0:
192,192,22599,1,0,0:0:0:0:
320,192,22783,1,0,0:0:0:0:
448,192,22967,1,0,0:0:0:0:
192,192,22967,1,0,0:0:0:0:
320,192,23152,1,0,0:0:0:0:
192,192,23244,1,0,0:0:0:0:
448,192,23336,128,0,23704:0:0:0:0:
320,192,23336,1,0,0:0:0:0:
192,192,23520,1,0,0:0:0:0:
64,192,23520,1,0,0:0:0:0:
320,192,23704,128,0,24072:0:0:0:0:
192,192,23704,1,0,0:0:0:0:
64,192,24072,128,0,24808:0:0:0:0:
192,192,24072,1,0,0:0:0:0:
448,192,24256,1,0,0:0:0:0:
320,192,24256,1,0,0:0:0:0:
192,192,24440,1,0,0:0:0:0:
320,192,24440,1,0,0:0:0:0:
448,192,24440,1,4,0:0:0:0:
192,192,24624,1,0,0:0:0:0:
448,192,24624,1,0,0:0:0:0:
320,192,24808,128,0,25544:0:0:0:0:
448,192,24808,1,0,0:0:0:0:
192,192,24992,1,0,0:0:0:0:
64,192,25176,1,4,0:0:0:0:
192,192,25176,1,0,0:0:0:0:
448,192,25176,1,0,0:0:0:0:
448,192,25360,1,0,0:0:0:0:
192,192,25544,128,0,26280:0:0:0:0:
64,192,25544,1,0,0:0:0:0:
448,192,25728,1,0,0:0:0:0:
320,192,25728,1,0,0:0:0:0:
64,192,25912,1,0,0:0:0:0:
320,192,25912,1,4,0:0:0:0:
448,192,25912,1,0,0:0:0:0:
64,192,26096,1,0,0:0:0:0:
320,192,26096,1,0,0:0:0:0:
448,192,26280,128,0,27017:0:0:0:0:
320,192,26280,1,0,0:0:0:0:
64,192,26464,1,0,0:0:0:0:
64,192,26648,1,0,0:0:0:0:
192,192,26648,1,4,0:0:0:0:
320,192,26648,1,0,0:0:0:0:
320,192,26833,1,0,0:0:0:0:
192,192,27017,128,0,27753:0:0:0:0:
64,192,27017,1,0,0:0:0:0:
320,192,27201,1,0,0:0:0:0:
64,192,27385,1,0,0:0:0:0:
448,192,27385,1,0,0:0:0:0:
320,192,27569,1,0,0:0:0:0:
64,192,27753,128,0,28489:0:0:0:0:
448,192,27753,1,0,0:0:0:0:
320,192,27937,1,0,0:0:0:0:
192,192,28121,1,0,0:0:0:0:
448,192,28121,1,0,0:0:0:0:
320,192,28305,1,0,0:0:0:0:
448,192,28489,1,0,0:0:0:0:
192,192,28489,1,0,0:0:0:0:
320,192,28673,128,0,28857:0:0:0:0:
192,192,28673,1,2,0:0:0:0:
64,192,28857,128,0,29041:0:0:0:0:
448,192,28857,1,2,0:0:0:0:
448,192,29041,128,0,29225:0:0:0:0:
192,192,29041,1,2,0:0:0:0:
192,192,29225,128,0,29593:0:0:0:0:
320,192,29225,1,2,0:0:0:0:
64,192,29593,1,0,0:0:0:0:
448,192,29593,1,0,0:0:0:0:
320,192,29777,1,0,0:0:0:0:
448,192,30053,1,4,0:0:0:0:
64,192,30053,128,0,31157:0:0:0:0:
192,192,30053,1,0,0:0:0:0:
320,192,30421,128,0,30789:0:0:0:0:
192,192,30789,128,0,31157:0:0:0:0:
320,192,31157,128,0,32261:0:0:0:0:
448,192,31157,1,0,0:0:0:0:
192,192,31341,1,0,0:0:0:0:
64,192,31525,128,0,31893:0:0:0:0:
448,192,31709,1,0,0:0:0:0:
448,192,31893,128,0,32261:0:0:0:0:
192,192,32077,1,0,0:0:0:0:
192,192,32261,128,0,33365:0:0:0:0:
64,192,32261,1,0,0:0:0:0:
448,192,32445,1,0,0:0:0:0:
64,192,32629,128,0,32997:0:0:0:0:
320,192,32813,1,0,0:0:0:0:
448,192,32997,128,0,33365:0:0:0:0:
320,192,33181,1,0,0:0:0:0:
320,192,33365,128,0,34470:0:0:0:0:
64,192,33365,1,0,0:0:0:0:
192,192,33549,1,0,0:0:0:0:
64,192,33733,1,0,0:0:0:0:
192,192,33918,1,0,0:0:0:0:
448,192,34102,1,0,0:0:0:0:
64,192,34286,1,0,0:0:0:0:
448,192,34470,128,0,35574:0:0:0:0:
192,192,34470,1,2,0:0:0:0:
64,192,34654,1,0,0:0:0:0:
192,192,34838,128,0,35206:0:0:0:0:
320,192,35022,1,0,0:0:0:0:
64,192,35206,128,0,35574:0:0:0:0:
320,192,35390,1,0,0:0:0:0:
192,192,35574,1,0,0:0:0:0:
320,192,35574,128,0,36310:0:0:0:0:
64,192,35758,1,0,0:0:0:0:
192,192,35942,128,0,36310:0:0:0:0:
448,192,36126,1,0,0:0:0:0:
448,192,36310,128,0,36678:0:0:0:0:
64,192,36310,1,0,0:0:0:0:
64,192,36678,128,0,37783:0:0:0:0:
320,192,36678,1,0,0:0:0:0:
448,192,37046,128,0,37414:0:0:0:0:
192,192,37414,128,0,37783:0:0:0:0:
320,192,37783,128,0,38887:0:0:0:0:
448,192,37783,1,0,0:0:0:0:
192,192,38151,128,0,38887:0:0:0:0:
64,192,38887,5,0,0:0:0:0:
448,192,38887,1,0,0:0:0:0:
320,192,39071,1,0,0:0:0:0:
64,192,39255,1,0,0:0:0:0:
192,192,39255,1,0,0:0:0:0:
320,192,39439,1,0,0:0:0:0:
448,192,39623,128,0,40175:0:0:0:0:
64,192,39623,1,0,0:0:0:0:
192,192,39807,1,0,0:0:0:0:
64,192,39991,1,0,0:0:0:0:
320,192,39991,1,0,0:0:0:0:
192,192,40175,1,0,0:0:0:0:
64,192,40359,1,0,0:0:0:0:
320,192,40359,1,0,0:0:0:0:
448,192,40543,1,0,0:0:0:0:
320,192,40635,1,0,0:0:0:0:
192,192,40727,1,0,0:0:0:0:
64,192,40727,1,0,0:0:0:0:
320,192,40911,1,0,0:0:0:0:
192,192,41095,1,0,0:0:0:0:
448,192,41095,1,0,0:0:0:0:
320,192,41279,1,0,0:0:0:0:
448,192,41464,1,0,0:0:0:0:
64,192,41464,128,0,41832:0:0:0:0:
192,192,41648,1,0,0:0:0:0:
320,192,41832,1,0,0:0:0:0:
448,192,41832,1,0,0:0:0:0:
192,192,42016,1,0,0:0:0:0:
64,192,42200,1,0,0:0:0:0:
448,192,42200,1,0,0:0:0:0:
320,192,42384,1,0,0:0:0:0:
192,192,42568,1,0,0:0:0:0:
64,192,42568,1,0,0:0:0:0:
320,192,42752,1,0,0:0:0:0:
192,192,42936,1,0,0:0:0:0:
448,192,42936,1,0,0:0:0:0:
320,192,43120,1,0,0:0:0:0:
448,192,43304,128,0,47721:0:0:0:0:
64,192,43304,1,0,0:0:0:0:
192,192,43304,1,0,0:0:0:0:
320,192,43488,1,0,0:0:0:0:
64,192,43672,1,4,0:0:0:0:
192,192,43672,1,0,0:0:0:0:
320,192,43672,1,0,0:0:0:0:
192,192,43856,1,0,0:0:0:0:
64,192,44040,128,0,44776:0:0:0:0:
320,192,44040,1,0,0:0:0:0:
192,192,44224,1,0,0:0:0:0:
320,192,44408,1,0,0:0:0:0:
192,192,44592,1,0,0:0:0:0:
192,192,44776,128,0,45513:0:0:0:0:
320,192,44776,1,0,0:0:0:0:
64,192,44960,1,0,0:0:0:0:
64,192,45145,1,0,0:0:0:0:
320,192,45145,1,4,0:0:0:0:
320,192,45329,1,0,0:0:0:0:
320,192,45513,128,0,47721:0:0:0:0:
64,192,45513,1,0,0:0:0:0:
192,192,45697,1,0,0:0:0:0:
64,192,45881,1,0,0:0:0:0:
192,192,46065,1,0,0:0:0:0:
64,192,46249,1,0,0:0:0:0:
192,192,46433,1,0,0:0:0:0:
192,192,46617,1,0,0:0:0:0:
64,192,46617,1,4,0:0:0:0:
64,192,46801,1,0,0:0:0:0:
192,192,46985,1,0,0:0:0:0:
64,192,47169,1,0,0:0:0:0:
64,192,47353,1,0,0:0:0:0:
192,192,47353,1,4,0:0:0:0:
192,192,47537,1,0,0:0:0:0:
192,192,47721,5,0,0:0:0:0:
64,192,47721,1,0,0:0:0:0:
64,192,48089,5,0,0:0:0:0:
320,192,48457,1,0,0:0:0:0:
192,192,48549,1,0,0:0:0:0:
64,192,48641,1,0,0:0:0:0:
448,192,48733,1,0,0:0:0:0:
320,192,48826,1,0,0:0:0:0:
192,192,48918,1,0,0:0:0:0:
64,192,49010,1,0,0:0:0:0:
448,192,49102,1,0,0:0:0:0:
192,192,49194,1,0,0:0:0:0:
64,192,49194,1,0,0:0:0:0:
320,192,49194,1,0,0:0:0:0:
192,192,49378,1,0,0:0:0:0:
448,192,49378,1,0,0:0:0:0:
320,192,49562,1,0,0:0:0:0:
64,192,49562,1,0,0:0:0:0:
192,192,49746,1,0,0:0:0:0:
64,192,49930,1,0,0:0:0:0:
448,192,49930,128,0,50298:0:0:0:0:
192,192,50114,1,0,0:0:0:0:
320,192,50298,1,0,0:0:0:0:
64,192,50298,1,0,0:0:0:0:
192,192,50482,1,0,0:0:0:0:
448,192,50482,1,0,0:0:0:0:
320,192,50666,1,0,0:0:0:0:
448,192,50666,1,0,0:0:0:0:
64,192,50850,1,0,0:0:0:0:
320,192,50850,1,0,0:0:0:0:
192,192,51034,1,0,0:0:0:0:
448,192,51034,1,0,0:0:0:0:
320,192,51218,1,0,0:0:0:0:
64,192,51402,128,0,51770:0:0:0:0:
448,192,51402,1,0,0:0:0:0:
320,192,51586,1,0,0:0:0:0:
192,192,51770,1,0,0:0:0:0:
448,192,51770,1,0,0:0:0:0:
448,192,51954,1,0,0:0:0:0:
320,192,51954,1,0,0:0:0:0:
64,192,52138,1,0,0:0:0:0:
192,192,52138,1,0,0:0:0:0:
192,192,52322,1,0,0:0:0:0:
448,192,52322,1,0,0:0:0:0:
64,192,52506,1,0,0:0:0:0:
320,192,52506,1,0,0:0:0:0:
192,192,52691,1,0,0:0:0:0:
64,192,52875,1,0,0:0:0:0:
320,192,52875,1,0,0:0:0:0:
192,192,53059,1,0,0:0:0:0:
448,192,53059,1,0,0:0:0:0:
320,192,53243,1,0,0:0:0:0:
448,192,53243,1,0,0:0:0:0:
64,192,53427,1,0,0:0:0:0:
448,192,53611,128,2,53979:0:0:0:0:
320,192,53611,1,0,0:0:0:0:
192,192,53795,1,0,0:0:0:0:
192,192,53979,1,0,0:0:0:0:
64,192,53979,1,4,0:0:0:0:
320,192,53979,128,2,54347:0:0:0:0:
64,192,54163,1,0,0:0:0:0:
448,192,54347,1,0,0:0:0:0:
192,192,54347,128,2,54715:0:0:0:0:
64,192,54347,1,4,0:0:0:0:
448,192,54531,1,0,0:0:0:0:
320,192,54715,1,4,0:0:0:0:
448,192,54715,1,0,0:0:0:0:
64,192,54715,128,2,55083:0:0:0:0:
320,192,54899,1,0,0:0:0:0:
448,192,55083,1,0,0:0:0:0:
320,192,55083,128,0,55819:0:0:0:0:
192,192,55083,1,4,0:0:0:0:
64,192,55267,1,0,0:0:0:0:
192,192,55267,1,0,0:0:0:0:
64,192,55451,1,0,0:0:0:0:
448,192,55451,1,0,0:0:0:0:
192,192,55635,1,0,0:0:0:0:
448,192,55819,128,0,56556:0:0:0:0:
64,192,55819,1,0,0:0:0:0:
320,192,56003,1,0,0:0:0:0:
192,192,56003,1,0,0:0:0:0:
64,192,56187,1,0,0:0:0:0:
320,192,56187,1,0,0:0:0:0:
192,192,56372,1,0,0:0:0:0:
64,192,56556,128,0,57292:0:0:0:0:
320,192,56556,1,0,0:0:0:0:
192,192,56740,1,0,0:0:0:0:
448,192,56740,1,0,0:0:0:0:
320,192,56924,1,0,0:0:0:0:
448,192,56924,1,0,0:0:0:0:
320,192,57108,1,0,0:0:0:0:
192,192,57292,128,0,58028:0:0:0:0:
448,192,57292,1,0,0:0:0:0:
320,192,57476,1,0,0:0:0:0:
448,192,57476,1,0,0:0:0:0:
64,192,57660,1,0,0:0:0:0:
320,192,57660,1,0,0:0:0:0:
448,192,57844,1,0,0:0:0:0:
320,192,58028,128,0,58764:0:0:0:0:
64,192,58028,1,0,0:0:0:0:
192,192,58212,1,0,0:0:0:0:
448,192,58212,1,0,0:0:0:0:
64,192,58396,1,0,0:0:0:0:
448,192,58396,1,0,0:0:0:0:
192,192,58580,1,0,0:0:0:0:
64,192,58672,1,0,0:0:0:0:
192,192,58764,1,0,0:0:0:0:
448,192,58764,128,0,59132:0:0:0:0:
64,192,58948,1,0,0:0:0:0:
320,192,58948,1,0,0:0:0:0:
64,192,59132,128,0,59500:0:0:0:0:
192,192,59132,1,0,0:0:0:0:
192,192,59316,1,0,0:0:0:0:
320,192,59316,1,0,0:0:0:0:
320,192,59500,1,0,0:0:0:0:
448,192,59500,1,0,0:0:0:0:
192,192,59684,1,0,0:0:0:0:
320,192,59684,1,0,0:0:0:0:
64,192,59868,128,0,60052:0:0:0:0:
448,192,59868,1,0,0:0:0:0:
192,192,60052,128,0,60237:0:0:0:0:
320,192,60052,1,0,0:0:0:0:
448,192,60237,128,0,60973:0:0:0:0:
64,192,60237,1,0,0:0:0:0:
320,192,60421,1,0,0:0:0:0:
192,192,60605,1,0,0:0:0:0:
64,192,60789,1,0,0:0:0:0:
192,192,60973,1,0,0:0:0:0:
64,192,60973,1,4,0:0:0:0:
320,192,60973,1,0,0:0:0:0:
64,192,61157,1,0,0:0:0:0:
320,192,61157,1,0,0:0:0:0:
192,192,61341,1,0,0:0:0:0:
448,192,61341,1,4,0:0:0:0:
64,192,61341,1,0,0:0:0:0:
320,192,61525,1,0,0:0:0:0:
448,192,61525,1,0,0:0:0:0:
64,192,61709,1,0,0:0:0:0:
320,192,61709,1,0,0:0:0:0:
192,192,61893,1,0,0:0:0:0:
320,192,61893,1,0,0:0:0:0:
64,192,62077,1,0,0:0:0:0:
192,192,62077,1,0,0:0:0:0:
320,192,62261,1,0,0:0:0:0:
192,192,62261,1,0,0:0:0:0:
320,192,62445,1,0,0:0:0:0:
448,192,62445,1,0,0:0:0:0:
64,192,62629,1,0,0:0:0:0:
192,192,62813,1,4,0:0:0:0:
320,192,62813,128,0,63181:0:0:0:0:
448,192,62813,1,0,0:0:0:0:
64,192,62997,1,0,0:0:0:0:
192,192,62997,1,0,0:0:0:0:
64,192,63181,1,0,0:0:0:0:
448,192,63181,128,0,63549:0:0:0:0:
64,192,63365,1,0,0:0:0:0:
192,192,63365,1,0,0:0:0:0:
64,192,63549,1,0,0:0:0:0:
320,192,63549,1,0,0:0:0:0:
320,192,63733,1,0,0:0:0:0:
192,192,63733,1,0,0:0:0:0:
320,192,63918,1,0,0:0:0:0:
448,192,63918,1,0,0:0:0:0:
192,192,64102,1,0,0:0:0:0:
320,192,64286,1,4,0:0:0:0:
64,192,64286,1,0,0:0:0:0:
448,192,64286,1,0,0:0:0:0:
64,192,64470,1,0,0:0:0:0:
192,192,64470,1,0,0:0:0:0:
192,192,64654,1,0,0:0:0:0:
448,192,64654,1,0,0:0:0:0:
320,192,64838,1,0,0:0:0:0:
64,192,65022,1,0,0:0:0:0:
448,192,65022,1,0,0:0:0:0:
192,192,65022,1,4,0:0:0:0:
192,192,65206,1,0,0:0:0:0:
320,192,65206,1,0,0:0:0:0:
64,192,65390,128,2,65758:0:0:0:0:
448,192,65390,1,0,0:0:0:0:
192,192,65574,1,0,0:0:0:0:
320,192,65758,128,2,66126:0:0:0:0:
448,192,65758,1,0,0:0:0:0:
64,192,65942,1,0,0:0:0:0:
192,192,66126,128,2,66494:0:0:0:0:
448,192,66126,1,0,0:0:0:0:
64,192,66310,1,0,0:0:0:0:
448,192,66494,128,2,66862:0:0:0:0:
320,192,66494,1,0,0:0:0:0:
64,192,66678,1,0,0:0:0:0:
64,192,66862,1,0,0:0:0:0:
320,192,66862,1,4,0:0:0:0:
192,192,66862,128,0,67599:0:0:0:0:
320,192,67046,1,0,0:0:0:0:
64,192,67230,1,0,0:0:0:0:
448,192,67230,1,0,0:0:0:0:
320,192,67414,1,0,0:0:0:0:
448,192,67599,128,0,68335:0:0:0:0:
64,192,67599,1,0,0:0:0:0:
192,192,67783,1,0,0:0:0:0:
320,192,67967,1,0,0:0:0:0:
64,192,67967,1,0,0:0:0:0:
192,192,68151,1,0,0:0:0:0:
320,192,68335,128,0,69071:0:0:0:0:
64,192,68335,1,0,0:0:0:0:
192,192,68519,1,0,0:0:0:0:
64,192,68703,1,0,0:0:0:0:
448,192,68703,1,0,0:0:0:0:
192,192,68887,1,0,0:0:0:0:
64,192,69071,128,0,69807:0:0:0:0:
448,192,69071,1,0,0:0:0:0:
192,192,69255,1,0,0:0:0:0:
320,192,69439,1,0,0:0:0:0:
448,192,69439,1,0,0:0:0:0:
192,192,69623,1,0,0:0:0:0:
448,192,69807,1,0,0:0:0:0:
320,192,69807,1,0,0:0:0:0:
192,192,69991,1,0,0:0:0:0:
320,192,70175,1,0,0:0:0:0:
448,192,70359,1,0,0:0:0:0:
64,192,70543,1,0,0:0:0:0:
192,192,70543,1,4,0:0:0:0:
320,192,70543,1,0,0:0:0:0:
448,192,70727,1,0,0:0:0:0:
64,192,70911,1,0,0:0:0:0:
192,192,71095,1,0,0:0:0:0:
64,192,71279,1,0,0:0:0:0:
320,192,71279,1,0,0:0:0:0:
448,192,71464,1,0,0:0:0:0:
192,192,71648,1,0,0:0:0:0:
320,192,71832,1,0,0:0:0:0:
192,192,72016,1,4,0:0:0:0:
448,192,72016,1,0,0:0:0:0:
64,192,72016,1,0,0:0:0:0:
320,192,72108,1,0,0:0:0:0:
192,192,72200,1,0,0:0:0:0:
64,192,72292,1,0,0:0:0:0:
192,192,72384,1,0,0:0:0:0:
320,192,72476,1,0,0:0:0:0:
448,192,72568,1,0,0:0:0:0:
320,192,72660,1,0,0:0:0:0:
64,192,72752,128,0,73120:0:0:0:0:
192,192,72752,1,0,0:0:0:0:
320,192,72936,1,0,0:0:0:0:
192,192,73120,1,0,0:0:0:0:
320,192,73120,1,4,0:0:0:0:
448,192,73120,1,0,0:0:0:0:
192,192,73304,1,0,0:0:0:0:
448,192,73488,128,0,73856:0:0:0:0:
320,192,73488,1,0,0:0:0:0:
192,192,73672,1,0,0:0:0:0:
320,192,73856,1,0,0:0:0:0:
192,192,73856,1,4,0:0:0:0:
64,192,73856,1,0,0:0:0:0:
320,192,74040,1,0,0:0:0:0:
64,192,74224,128,0,74408:0:0:0:0:
192,192,74224,1,0,0:0:0:0:
320,192,74408,128,0,74776:0:0:0:0:
448,192,74408,1,0,0:0:0:0:
192,192,74592,1,0,0:0:0:0:
64,192,74776,1,0,0:0:0:0:
448,192,74776,128,0,75329:0:0:0:0:
192,192,74960,1,0,0:0:0:0:
64,192,75145,1,0,0:0:0:0:
320,192,75145,1,0,0:0:0:0:
192,192,75329,1,0,0:0:0:0:
64,192,75513,128,0,75697:0:0:0:0:
320,192,75513,1,0,0:0:0:0:
320,192,75697,128,0,75881:0:0:0:0:
448,192,75697,1,0,0:0:0:0:
192,192,75881,128,0,76065:0:0:0:0:
64,192,75881,1,0,0:0:0:0:
320,192,76065,128,0,76249:0:0:0:0:
448,192,76065,1,0,0:0:0:0:
448,192,76249,128,0,76617:0:0:0:0:
64,192,76249,1,0,0:0:0:0:
192,192,76433,1,0,0:0:0:0:
320,192,76617,1,0,0:0:0:0:
64,192,76617,1,0,0:0:0:0:
192,192,76801,1,0,0:0:0:0:
64,192,76893,1,0,0:0:0:0:
192,192,76985,1,0,0:0:0:0:
320,192,77077,1,0,0:0:0:0:
64,192,77169,1,0,0:0:0:0:
448,192,77169,128,0,77353:0:0:0:0:
64,192,77353,128,0,77537:0:0:0:0:
320,192,77353,1,0,0:0:0:0:
192,192,77537,128,0,77721:0:0:0:0:
320,192,77537,1,0,0:0:0:0:
320,192,77721,128,0,77905:0:0:0:0:
64,192,77721,1,0,0:0:0:0:
448,192,77905,128,0,78089:0:0:0:0:
192,192,77905,1,0,0:0:0:0:
64,192,78089,128,0,78273:0:0:0:0:
320,192,78089,1,0,0:0:0:0:
320,192,78273,128,0,78457:0:0:0:0:
192,192,78273,1,0,0:0:0:0:
448,192,78457,128,0,78641:0:0:0:0:
64,192,78457,1,0,0:0:0:0:
192,192,78641,128,0,79010:0:0:0:0:
320,192,78641,1,0,0:0:0:0:
64,192,79010,1,0,0:0:0:0:
320,192,79010,1,4,0:0:0:0:
448,192,79010,128,0,79378:0:0:0:0:
64,192,79378,128,0,79746:0:0:0:0:
192,192,79378,1,0,0:0:0:0:
192,192,79746,1,4,0:0:0:0:
448,192,79746,1,0,0:0:0:0:
320,192,79746,128,0,80114:0:0:0:0:
448,192,80114,1,0,0:0:0:0:
64,192,80114,128,0,80298:0:0:0:0:
192,192,80298,128,0,80482:0:0:0:0:
448,192,80298,1,0,0:0:0:0:
320,192,80482,1,0,0:0:0:0:
448,192,80666,128,0,81218:0:0:0:0:
64,192,80666,1,0,0:0:0:0:
192,192,80850,1,0,0:0:0:0:
64,192,81034,1,0,0:0:0:0:
320,192,81034,1,0,0:0:0:0:
192,192,81218,1,0,0:0:0:0:
320,192,81402,1,0,0:0:0:0:
448,192,81586,1,0,0:0:0:0:
320,192,81617,1,0,0:0:0:0:
192,192,81648,1,0,0:0:0:0:
64,192,81678,1,0,0:0:0:0:
192,192,81770,1,0,0:0:0:0:
320,192,81954,1,0,0:0:0:0:
64,192,82138,1,0,0:0:0:0:
448,192,82138,1,0,0:0:0:0:
192,192,82138,1,4,0:0:0:0:
320,192,82322,1,0,0:0:0:0:
192,192,82506,1,0,0:0:0:0:
320,192,82691,1,0,0:0:0:0:
448,192,82783,1,0,0:0:0:0:
320,192,82875,1,0,0:0:0:0:
192,192,82967,1,0,0:0:0:0:
64,192,83059,1,0,0:0:0:0:
448,192,83059,1,0,0:0:0:0:
192,192,83243,1,0,0:0:0:0:
320,192,83427,1,0,0:0:0:0:
64,192,83611,1,4,0:0:0:0:
192,192,83611,1,0,0:0:0:0:
448,192,83611,1,0,0:0:0:0:
320,192,83795,1,0,0:0:0:0:
64,192,83979,1,0,0:0:0:0:
192,192,84163,1,0,0:0:0:0:
64,192,84255,1,0,0:0:0:0:
192,192,84347,1,0,0:0:0:0:
320,192,84439,1,0,0:0:0:0:
448,192,84531,1,0,0:0:0:0:
64,192,84531,1,0,0:0:0:0:
320,192,84715,1,0,0:0:0:0:
192,192,84899,1,0,0:0:0:0:
320,192,85083,1,4,0:0:0:0:
64,192,85083,1,0,0:0:0:0:
448,192,85083,1,0,0:0:0:0:
192,192,85267,1,0,0:0:0:0:
320,192,85267,1,0,0:0:0:0:
320,192,85451,1,0,0:0:0:0:
64,192,85451,1,0,0:0:0:0:
192,192,85635,1,0,0:0:0:0:
448,192,85635,1,0,0:0:0:0:
448,192,85819,1,4,0:0:0:0:
320,192,85819,1,4,0:0:0:0:
64,192,85819,1,0,0:0:0:0:
64,192,86187,1,0,0:0:0:0:
320,192,86372,1,0,0:0:0:0:
192,192,86556,1,0,0:0:0:0:
448,192,86740,1,0,0:0:0:0:
320,192,86924,1,0,0:0:0:0:
64,192,87108,1,0,0:0:0:0:
192,192,87292,1,0,0:0:0:0:
64,192,87660,1,0,0:0:0:0:
320,192,87844,1,0,0:0:0:0:
192,192,87936,1,0,0:0:0:0:
320,192,88028,1,0,0:0:0:0:
192,192,88120,1,0,0:0:0:0:
64,192,88212,1,0,0:0:0:0:
448,192,88212,1,4,0:0:0:0:
320,192,88212,1,0,0:0:0:0:
192,192,88212,1,0,0:0:0:0:
