osu file format v13

[General]
AudioFilename: Tokyo Retro.mp3
AudioLeadIn: 0
PreviewTime: 69141
Countdown: 0
SampleSet: None
StackLeniency: 0.7
Mode: 0
LetterboxInBreaks: 0
WidescreenStoryboard: 0

[Editor]
DistanceSpacing: 1
BeatDivisor: 4
GridSize: 4
TimelineZoom: 2.8

[Metadata]
Title:Tokyo Retro
TitleUnicode:東京レトロ
Artist:Kano
ArtistUnicode:鹿乃
Creator:Oracle
Version:Insane
Source:
Tags:vocaloid Hatsune Miku scop すこっぷ iamkwan happy623 fycho
BeatmapID:430528
BeatmapSetID:179036

[Difficulty]
HPDrainRate:6
CircleSize:4
OverallDifficulty:7.5
ApproachRate:8
SliderMultiplier:1.6
SliderTickRate:1

[Events]
//Background and Video events
Video,0,"video.avi"
0,0,"BG.jpg",0,0
//Break Periods
//Storyboard Layer 0 (Background)
//Storyboard Layer 1 (Fail)
//Storyboard Layer 2 (Pass)
//Storyboard Layer 3 (Foreground)
//Storyboard Sound Samples
//Background Colour Transformations
3,100,163,162,255

[TimingPoints]
7713,476.190476190476,4,2,1,50,1,0
19617,-100,4,2,1,30,0,0
19855,-100,4,2,1,50,0,0
36284,-100,4,2,0,35,0,0
37236,-100,4,1,0,40,0,0
38189,-100,4,2,1,50,0,0
41046,-100,4,1,1,50,0,0
41998,-100,4,2,1,50,0,0
48665,-100,4,1,1,50,0,0
51522,-100,4,2,0,35,0,0
52474,-100,4,1,0,40,0,0
53427,-100,4,2,1,50,0,0
60093,-100,4,1,1,50,0,0
61046,-100,4,2,1,50,0,0
67951,-66.6666666666667,4,2,1,50,0,0
68189,-66.6666666666667,4,2,0,25,0,0
68427,-66.6666666666667,4,2,1,50,0,0
68665,-100,4,2,0,50,0,1
69141,-100,4,2,1,50,0,1
81998,-100,4,2,0,50,0,0
82236,-100,4,2,0,25,0,0
83903,-100,4,2,1,50,0,0
97236,-100,4,2,0,35,0,0
98189,-100,4,1,0,40,0,0
99141,-100,4,2,1,50,0,0
101998,-100,4,1,1,50,0,0
102951,-100,4,2,1,50,0,0
109617,-100,4,1,1,50,0,0
112474,-100,4,2,1,50,0,0
113427,-100,4,1,0,50,0,0
114379,-100,4,2,1,50,0,0
121046,-100,4,1,1,50,0,0
121998,-100,4,2,1,50,0,0
127712,-133.333333333333,4,2,1,50,0,0
129617,-100,4,2,0,50,0,1
130093,-100,4,2,1,50,0,1
142951,-100,4,2,0,50,0,0
143189,-100,4,1,0,25,0,0
144855,-200,4,1,0,45,0,0
145212,-200,4,1,0,20,0,0
145332,-200,4,1,0,45,0,0
146879,-200,4,1,0,20,0,0
146998,-200,4,1,0,50,0,0
147832,-200,4,1,0,20,0,0
147951,-200,4,1,0,55,0,0
148784,-200,4,1,0,20,0,0
148903,-200,4,1,0,60,0,0
149736,-200,4,1,0,20,0,0
149855,-200,4,1,0,65,0,0
150689,-200,4,1,0,20,0,0
150808,-200,4,1,0,70,0,0
151522,-200,4,1,0,20,0,0
151760,-200,4,2,1,65,0,0
152712,-200,4,1,1,40,0,0
153427,476.190476190476,4,2,1,50,1,1
153546,-100,4,2,1,50,0,0
175331,-100,4,1,1,50,0,0
176284,-100,4,2,1,50,0,0
181998,-133.333333333333,4,2,0,50,0,0
191522,-100,4,2,0,50,0,0
191998,-100,4,2,1,50,0,0
198426,-100,4,2,0,15,0,0
199141,-100,4,2,0,50,0,1
199617,-100,4,2,1,50,0,1
212474,-100,4,2,0,50,0,0
212712,-100,4,2,0,25,0,0
214379,-100,4,2,1,50,0,0
227712,-100,4,2,0,35,0,0
228665,-100,4,1,0,35,0,0
229617,-100,4,2,0,35,0,0

[Colours]
Combo1 : 236,141,0
Combo2 : 5,228,5
Combo3 : 22,22,250
Combo4 : 213,4,4

[HitObjects]
372,140,7712,5,4,0:0:0:0:
412,52,7951,1,2,0:0:0:0:
372,140,8189,2,0,L|284:156,1,80,0|2,0:0|0:0,0:0:0:0:
220,212,8665,2,0,P|216:252|236:292,1,80,0|2,0:0|0:0,0:0:0:0:
308,232,9141,2,0,L|440:208,1,120
460,176,9617,5,0,0:0:0:0:
420,320,9855,1,2,0:0:0:0:
308,232,10093,2,0,P|272:212|224:208,1,80,0|2,0:0|0:0,0:0:0:0:
172,132,10570,1,0,0:0:0:0:
124,260,10808,1,2,0:0:0:0:
172,132,11046,2,0,P|232:112|296:132,1,120
308,168,11522,6,0,L|296:252,1,80,0|2,0:0|0:0,0:0:0:0:
428,296,11998,2,0,L|416:216,1,80,0|2,0:0|0:0,0:0:0:0:
332,84,12474,2,0,B|276:84|276:84|244:112|244:112|164:112,1,160
96,28,13189,1,2,0:0:0:0:
100,168,13427,6,0,P|92:212|68:248,1,80,0|2,0:0|0:0,0:0:0:0:
132,320,13903,2,0,P|174:304|217:307,1,80,0|2,0:0|0:0,0:0:0:0:
247,215,14379,2,0,P|216:191|196:157,1,80,0|2,0:0|0:0,0:0:0:0:
197,157,14736,1,2,0:0:0:0:
197,157,14855,1,0,0:0:0:0:
336,96,15332,6,0,L|420:84,1,80,0|2,0:0|0:0,0:0:0:0:
504,184,15808,2,0,L|420:196,1,80,0|2,0:0|0:0,0:0:0:0:
336,260,16284,1,0,0:0:0:0:
196,160,16522,1,2,0:0:0:0:
156,316,16760,1,0,0:0:0:0:
156,316,17236,6,0,P|184:342|223:345,1,80,0|2,0:0|0:0,0:0:0:0:
196,160,17712,2,0,P|167:133|128:130,1,80,0|2,0:0|0:0,0:0:0:0:
132,228,18189,1,0,0:0:0:0:
284,152,18427,1,2,0:0:0:0:
88,44,18665,1,0,0:0:0:0:
88,44,19141,6,0,L|80:136,1,80,0|2,0:0|0:0,0:0:0:0:
124,308,19617,2,0,L|132:216,1,80,8|2,0:1|0:0,0:0:0:0:
228,104,20093,1,0,0:0:0:0:
256,264,20332,1,2,0:0:0:0:
328,120,20570,1,0,0:0:0:0:
184,192,20808,1,2,0:0:0:0:
328,120,21046,6,0,L|336:32,1,80,0|2,0:0|0:0,0:0:0:0:
344,236,21522,1,2,0:0:0:0:
340,260,21641,1,0,0:0:0:0:
336,284,21760,1,2,0:0:0:0:
332,308,21879,1,2,0:0:0:0:
328,332,21998,1,2,0:0:0:0:
456,40,22951,6,0,L|468:136,1,80,6|0,0:0|0:0,0:0:0:0:
376,120,23427,2,0,L|388:216,1,80,2|2,0:0|0:0,0:0:0:0:
368,312,23903,1,2,0:0:0:0:
348,308,24022,1,2,0:0:0:0:
328,300,24141,1,2,0:0:0:0:
312,288,24260,1,0,0:0:0:0:
300,272,24379,1,2,0:0:0:0:
292,256,24498,1,2,0:0:0:0:
288,236,24617,1,0,0:0:0:0:
284,88,24855,5,0,0:0:0:0:
160,156,25093,1,2,0:0:0:0:
288,236,25332,1,0,0:0:0:0:
284,88,25570,1,2,0:0:0:0:
127,72,25808,1,2,0:0:0:0:
99,87,25927,1,2,0:0:0:0:
81,113,26046,1,2,0:0:0:0:
71,143,26165,1,0,0:0:0:0:
73,174,26284,1,2,0:0:0:0:
86,202,26403,1,2,0:0:0:0:
105,227,26522,1,2,0:0:0:0:
226,286,26760,6,0,P|289:240|368:240,1,160,0|0,0:0|0:0,0:0:0:0:
412,340,27474,1,0,0:0:0:0:
368,240,27712,2,0,P|304:193|225:193,1,160,0|0,0:0|0:0,0:0:0:0:
92,289,28427,1,0,0:0:0:0:
152,162,28665,5,2,0:0:0:0:
164,136,28784,1,2,0:0:0:0:
169,108,28903,1,2,0:0:0:0:
164,80,29022,1,0,0:0:0:0:
149,55,29141,1,2,0:0:0:0:
129,34,29260,1,2,0:0:0:0:
102,26,29379,1,0,0:0:0:0:
74,24,29498,1,0,0:0:0:0:
39,55,29617,5,2,0:0:0:0:
66,89,29736,1,2,0:0:0:0:
107,102,29855,1,2,0:0:0:0:
149,89,29974,1,0,0:0:0:0:
190,73,30093,1,2,0:0:0:0:
229,53,30212,1,2,0:0:0:0:
272,63,30332,1,0,0:0:0:0:
301,95,30451,1,0,0:0:0:0:
312,136,30570,6,0,L|308:224,1,80,4|0,0:0|0:0,0:0:0:0:
180,220,31046,2,0,L|192:304,1,80,0|2,0:0|0:0,0:0:0:0:
348,304,31522,1,2,0:0:0:0:
348,304,31641,1,2,0:0:0:0:
348,304,31760,2,0,L|400:280,1,40,2|0,0:0|0:0,0:0:0:0:
388,204,31998,2,0,L|432:224,1,40,2|2,0:0|0:0,0:0:0:0:
452,148,32236,2,0,L|446:108,1,40,0|0,0:0|0:0,0:0:0:0:
383,63,32474,6,0,P|347:48|307:46,1,80,0|2,0:0|0:0,0:0:0:0:
199,120,32951,2,0,P|162:132|122:128,1,80,0|2,0:0|0:0,0:0:0:0:
40,76,33427,1,2,0:0:0:0:
28,56,33546,1,2,0:0:0:0:
16,36,33665,1,0,0:0:0:0:
64,180,33903,1,2,0:0:0:0:
44,168,34022,1,2,0:0:0:0:
24,156,34141,1,0,0:0:0:0:
104,252,34379,6,0,L|24:304,1,80,0|2,0:0|0:0,0:0:0:0:
188,276,34855,2,0,P|189:236|174:199,1,80,0|2,0:0|0:0,0:0:0:0:
64,180,35332,1,0,0:0:0:0:
190,104,35570,1,2,0:0:0:0:
104,252,35808,1,0,0:0:0:0:
102,96,36046,1,2,0:0:0:0:
244,200,36284,6,0,L|264:212,9,13.3333333333333,2|2|2|2|2|2|2|2|0|0,0:0|0:0|0:0|0:0|0:0|0:0|0:0|0:0|0:0|0:0,0:0:0:0:
316,156,36760,2,0,P|303:140|280:124,1,40,2|2,0:0|0:0,0:0:0:0:
268,288,36998,2,0,P|288:284|308:276,1,40,2|2,0:0|0:0,0:0:0:0:
404,220,37236,5,0,0:0:0:0:
416,108,37474,1,0,0:0:0:0:
416,108,37593,1,0,0:0:0:0:
416,108,37712,1,0,0:0:0:0:
320,52,37951,1,0,0:0:0:0:
320,52,38070,1,0,0:0:0:0:
320,52,38189,6,0,L|236:76,1,80,6|0,0:0|0:0,0:0:0:0:
88,100,38665,2,0,L|88:192,1,80,2|0,0:0|0:0,0:0:0:0:
80,200,39022,1,0,0:0:0:0:
68,220,39141,2,0,L|68:308,1,80,2|0,0:0|0:0,0:0:0:0:
208,360,39617,2,0,P|233:330|238:290,1,80,2|0,0:0|0:0,0:0:0:0:
236,264,39974,1,0,0:0:0:0:
228,236,40093,6,0,L|144:232,1,80,2|0,0:0|0:0,0:0:0:0:
312,188,40570,2,0,L|396:192,1,80,2|0,0:0|0:0,0:0:0:0:
332,268,41046,1,2,0:0:0:0:
348,112,41284,1,0,0:0:0:0:
216,156,41522,1,2,0:0:0:0:
392,192,41760,1,0,0:0:0:0:
392,192,41998,6,0,P|424:164|436:128,1,80,2|0,0:0|0:0,0:0:0:0:
300,40,42474,1,2,0:0:0:0:
231,235,42712,1,0,0:0:0:0:
231,235,42832,1,0,0:0:0:0:
231,235,42951,2,0,L|217:157,1,80,2|0,0:0|0:0,0:0:0:0:
304,276,43427,1,2,0:0:0:0:
152,256,43665,1,0,0:0:0:0:
120,136,43903,5,2,0:0:0:0:
216,64,44141,1,0,0:0:0:0:
120,36,44379,1,2,0:0:0:0:
218,156,44617,2,0,P|228:195|231:235,1,80,0|2,0:0|0:0,0:0:0:0:
68,120,45093,1,10,0:0:0:0:
68,120,45212,1,2,0:0:0:0:
68,120,45332,1,2,0:0:0:0:
140,216,45570,1,0,0:0:0:0:
253,68,45808,6,0,P|214:64|174:75,1,80,6|0,0:0|0:0,0:0:0:0:
68,120,46284,1,2,0:0:0:0:
140,216,46522,1,0,0:0:0:0:
140,216,46641,1,0,0:0:0:0:
140,216,46760,2,0,B|148:256|148:256|108:296,1,80,2|0,0:0|0:0,0:0:0:0:
220,144,47236,1,2,0:0:0:0:
332,112,47474,1,0,0:0:0:0:
332,112,47593,1,0,0:0:0:0:
332,112,47712,6,0,L|428:112,1,80,2|0,0:0|0:0,0:0:0:0:
468,232,48189,2,0,L|372:232,1,80,2|0,0:0|0:0,0:0:0:0:
300,192,48665,1,2,0:0:0:0:
188,296,48903,1,0,0:0:0:0:
48,158,49141,2,0,B|84:112|84:112|151:105,1,120,2|0,0:0|0:0,0:0:0:0:
184,104,49617,5,2,0:0:0:0:
188,296,49855,1,0,0:0:0:0:
104,256,50093,1,2,0:0:0:0:
300,192,50332,1,0,0:0:0:0:
271,273,50570,5,2,0:0:0:0:
128,168,50808,1,0,0:0:0:0:
268,112,51046,1,2,0:0:0:0:
188,296,51284,1,0,0:0:0:0:
104,256,51522,6,0,L|74:259,5,26.6666666666667,2|2|2|2|2|2,0:0|0:0|0:0|0:0|0:0|0:0,0:0:0:0:
48,188,51998,2,0,L|19:174,5,26.6666666666667,2|2|2|2|2|2,0:0|0:0|0:0|0:0|0:0|0:0,0:0:0:0:
60,112,52474,1,0,0:0:0:0:
228,64,52712,1,0,0:0:0:0:
228,64,52832,1,0,0:0:0:0:
228,64,52951,1,0,0:0:0:0:
285,165,53189,1,0,0:0:0:0:
124,272,53427,6,0,L|96:356,1,80,6|2,0:0|0:0,0:0:0:0:
180,348,53903,1,2,0:0:0:0:
204,272,54141,1,2,0:0:0:0:
272,232,54379,1,2,0:0:0:0:
300,308,54617,1,2,0:0:0:0:
364,256,54855,2,0,L|388:172,1,80,2|2,0:0|0:0,0:0:0:0:
372,100,55332,5,2,0:0:0:0:
324,36,55570,1,0,0:0:0:0:
248,60,55808,1,0,0:0:0:0:
244,140,56046,1,2,0:0:0:0:
320,164,56284,1,2,0:0:0:0:
128,260,56522,5,2,0:0:0:0:
156,140,56760,1,2,0:0:0:0:
128,260,56998,2,0,L|108:348,1,80,2|0,0:0|0:0,0:0:0:0:
276,180,57474,5,2,0:0:0:0:
248,60,57712,1,2,0:0:0:0:
276,180,57950,2,0,L|296:268,1,80,2|0,0:0|0:0,0:0:0:0:
396,272,58427,6,0,L|436:296,2,40,2|2|0,0:0|0:0|0:0,0:0:0:0:
200,236,58903,1,2,0:0:0:0:
200,236,59141,2,0,P|160:252|128:280,1,80,0|2,0:0|0:0,0:0:0:0:
312,148,59617,2,0,P|352:132|384:104,1,80,0|2,0:0|0:0,0:0:0:0:
200,136,60093,5,2,0:0:0:0:
312,248,60332,1,0,0:0:0:0:
256,80,60570,1,2,0:0:0:0:
256,296,60808,1,2,0:0:0:0:
404,116,61046,6,0,L|408:32,1,80,4|2,0:0|0:0,0:0:0:0:
296,60,61522,1,2,0:0:0:0:
316,152,61760,1,2,0:0:0:0:
224,128,61998,1,2,0:0:0:0:
244,220,62236,1,2,0:0:0:0:
128,116,62474,2,0,L|32:116,1,80,0|2,0:0|0:0,0:0:0:0:
32,196,62951,5,2,0:0:0:0:
72,316,63189,1,0,0:0:0:0:
112,196,63427,1,0,0:0:0:0:
8,272,63665,1,2,0:0:0:0:
136,272,63903,1,0,0:0:0:0:
232,180,64141,6,0,L|212:132,1,40,2|0,0:0|0:0,0:0:0:0:
184,72,64379,2,0,L|324:88,1,120,2|0,0:0|0:0,0:0:0:0:
344,92,64855,5,4,0:0:0:0:
260,260,65093,1,2,0:0:0:0:
260,260,65332,1,2,0:0:0:0:
392,224,65570,5,0,0:0:0:0:
232,180,65808,1,2,0:0:0:0:
232,180,66046,1,2,0:0:0:0:
296,336,66284,5,0,0:0:0:0:
196,104,66522,1,0,0:0:0:0:
196,104,66641,1,0,0:0:0:0:
196,104,66760,5,0,0:0:0:0:
392,224,66998,1,0,0:0:0:0:
256,284,67236,1,0,0:0:0:0:
256,296,67355,1,0,0:0:0:0:
256,308,67474,2,0,L|256:332,4,20,0|0|0|0|0,0:0|0:0|0:0|0:0|0:0,0:0:0:0:
308,192,67951,6,0,B|276:184|256:163|256:163|236:184|204:192,2,120.000004577637,0|8|0,0:0|0:1|0:0,0:0:0:0:
419,30,68665,5,4,0:0:0:0:
212,92,69141,2,0,P|172:105|122:93,1,80,0|2,0:0|0:0,0:0:0:0:
40,16,69617,1,0,0:0:0:0:
56,172,69855,1,2,0:0:0:0:
56,172,69974,1,2,0:0:0:0:
56,172,70093,2,0,L|44:260,1,80,2|2,0:0|0:0,0:0:0:0:
188,208,70570,5,0,0:0:0:0:
296,276,70808,1,2,0:0:0:0:
240,132,71046,1,0,0:0:0:0:
184,300,71284,1,2,0:0:0:0:
383,319,71522,1,2,0:0:0:0:
420,306,71641,1,2,0:0:0:0:
450,280,71760,1,0,0:0:0:0:
468,244,71879,1,0,0:0:0:0:
471,205,71998,1,2,0:0:0:0:
458,167,72117,1,2,0:0:0:0:
433,137,72236,1,0,0:0:0:0:
324,56,72474,6,0,P|280:44|244:48,1,80,0|2,0:0|0:0,0:0:0:0:
204,180,72951,2,0,L|176:264,1,80,0|2,0:0|0:0,0:0:0:0:
92,212,73427,1,0,0:0:0:0:
300,228,73665,1,2,0:0:0:0:
300,228,73784,1,0,0:0:0:0:
300,228,73903,2,0,P|296:184|316:136,1,80,0|2,0:0|0:0,0:0:0:0:
484,232,74379,5,2,0:0:0:0:
376,104,74617,1,0,0:0:0:0:
392,272,74855,1,2,0:0:0:0:
472,132,75093,1,0,0:0:0:0:
324,192,75332,5,2,0:0:0:0:
304,196,75451,1,2,0:0:0:0:
284,200,75570,1,2,0:0:0:0:
264,204,75689,1,0,0:0:0:0:
244,208,75808,6,0,L|240:244,1,20,2|2,0:0|0:0,0:0:0:0:
224,212,75927,2,0,L|220:240,1,20,2|2,0:0|0:0,0:0:0:0:
204,216,76046,2,0,L|200:248,1,20,2|2,0:0|0:0,0:0:0:0:
184,220,76165,2,0,L|180:256,1,20,2|0,0:0|0:0,0:0:0:0:
164,224,76284,5,4,0:0:0:0:
320,72,76760,2,0,L|412:56,2,80,0|2|0,0:0|0:0|0:0,0:0:0:0:
200,148,77474,1,2,0:0:0:0:
192,164,77593,1,2,0:0:0:0:
184,180,77712,1,2,0:0:0:0:
176,196,77832,1,0,0:0:0:0:
168,212,77951,1,0,0:0:0:0:
236,320,78189,5,0,0:0:0:0:
80,180,78427,1,2,0:0:0:0:
272,208,78665,1,0,0:0:0:0:
208,56,78903,1,2,0:0:0:0:
420,124,79141,6,0,L|460:148,1,40,0|2,0:0|0:0,0:0:0:0:
428,220,79379,2,0,L|452:260,1,40,0|2,0:0|0:0,0:0:0:0:
384,304,79617,1,0,0:0:0:0:
384,304,79736,1,2,0:0:0:0:
384,304,79855,1,2,0:0:0:0:
324,160,80093,6,0,L|256:208,1,80,2|0,0:0|0:0,0:0:0:0:
420,124,80570,2,0,P|402:90|364:68,1,80,0|2,0:0|0:0,0:0:0:0:
216,88,81046,1,0,0:0:0:0:
80,200,81284,1,2,0:0:0:0:
216,88,81522,6,0,P|216:64|212:36,1,40,2|0,0:0|0:0,0:0:0:0:
80,200,81760,2,0,P|80:224|84:248,1,40,2|0,0:0|0:0,0:0:0:0:
236,252,81998,1,2,0:0:0:0:
256,192,82236,12,8,83427,0:1:0:0:
317,145,83903,5,6,0:0:0:0:
420,296,84141,1,0,0:0:0:0:
265,258,84379,2,0,L|177:278,1,80,2|2,0:0|0:0,0:0:0:0:
56,314,84855,1,2,0:0:0:0:
79,295,84974,1,2,0:0:0:0:
94,270,85093,1,2,0:0:0:0:
100,240,85212,1,0,0:0:0:0:
94,211,85331,1,2,0:0:0:0:
78,186,85450,1,2,0:0:0:0:
54,168,85569,1,0,0:0:0:0:
211,127,85808,5,0,0:0:0:0:
63,36,86046,1,2,0:0:0:0:
54,169,86284,1,0,0:0:0:0:
212,27,86522,1,2,0:0:0:0:
192,220,86760,1,2,0:0:0:0:
204,248,86879,1,2,0:0:0:0:
224,272,86998,1,0,0:0:0:0:
248,292,87117,1,0,0:0:0:0:
276,304,87236,1,2,0:0:0:0:
308,312,87355,1,2,0:0:0:0:
340,312,87474,1,0,0:0:0:0:
460,208,87712,5,2,0:0:0:0:
400,40,87951,1,2,0:0:0:0:
316,144,88189,2,0,L|292:232,1,80,2|0,0:0|0:0,0:0:0:0:
224,160,88665,5,2,0:0:0:0:
400,40,88903,1,2,0:0:0:0:
204,56,89141,2,0,L|116:48,1,80,2|0,0:0|0:0,0:0:0:0:
34,163,89617,5,2,0:0:0:0:
45,194,89736,1,2,0:0:0:0:
65,222,89855,1,2,0:0:0:0:
91,244,89974,1,0,0:0:0:0:
121,258,90093,1,2,0:0:0:0:
155,264,90212,1,2,0:0:0:0:
188,261,90331,1,0,0:0:0:0:
220,249,90450,1,0,0:0:0:0:
253,220,90570,5,2,0:0:0:0:
277,180,90689,1,2,0:0:0:0:
313,151,90808,1,2,0:0:0:0:
357,137,90927,1,0,0:0:0:0:
403,140,91046,1,2,0:0:0:0:
445,159,91165,1,2,0:0:0:0:
478,192,91284,1,0,0:0:0:0:
491,237,91403,1,0,0:0:0:0:
488,280,91522,6,0,L|480:362,1,80,6|0,0:0|0:0,0:0:0:0:
308,360,91998,1,2,0:0:0:0:
391,233,92236,1,2,0:0:0:0:
265,288,92474,1,2,0:0:0:0:
232,304,92593,1,2,0:0:0:0:
196,312,92712,1,2,0:0:0:0:
160,317,92832,1,0,0:0:0:0:
124,314,92951,1,2,0:0:0:0:
89,303,93070,1,2,0:0:0:0:
57,285,93189,1,0,0:0:0:0:
19,119,93427,5,0,0:0:0:0:
145,221,93665,1,2,0:0:0:0:
119,101,93903,1,0,0:0:0:0:
57,285,94141,1,2,0:0:0:0:
19,119,94379,1,2,0:0:0:0:
12,96,94498,1,2,0:0:0:0:
4,72,94617,1,0,0:0:0:0:
211,129,94855,1,2,0:0:0:0:
224,112,94974,1,2,0:0:0:0:
240,92,95093,1,0,0:0:0:0:
88,196,95332,6,0,L|9:211,1,80,0|2,0:0|0:0,0:0:0:0:
220,236,95808,2,0,L|298:220,1,80,0|2,0:0|0:0,0:0:0:0:
340,336,96284,1,0,0:0:0:0:
404,148,96522,1,2,0:0:0:0:
404,148,96641,1,0,0:0:0:0:
404,148,96760,2,0,P|376:116|336:104,1,80,0|2,0:0|0:0,0:0:0:0:
172,136,97236,6,0,L|152:148,9,13.3333333333333,6|2|2|2|2|2|2|2|0|0,0:2|0:0|0:0|0:0|0:0|0:0|0:0|0:0|0:0|0:0,0:0:0:0:
144,220,97712,2,0,P|163:220|183:217,1,40,2|2,0:0|0:0,0:0:0:0:
231,83,97951,2,0,P|218:68|201:58,1,40,2|2,0:0|0:0,0:0:0:0:
84,56,98189,5,0,0:0:0:0:
8,188,98427,1,0,0:0:0:0:
8,188,98546,1,0,0:0:0:0:
8,188,98665,1,0,0:0:0:0:
108,304,98903,1,0,0:0:0:0:
108,304,99022,1,0,0:0:0:0:
108,304,99141,6,0,L|200:308,1,80,6|0,0:0|0:0,0:0:0:0:
452,232,99617,1,2,0:0:0:0:
332,240,99855,1,0,0:0:0:0:
332,240,99974,1,0,0:0:0:0:
332,240,100093,2,0,P|300:272|296:308,1,80,2|0,0:0|0:0,0:0:0:0:
408,320,100570,1,2,0:0:0:0:
412,148,100808,1,0,0:0:0:0:
412,148,100927,1,0,0:0:0:0:
412,148,101046,6,0,L|412:48,1,80,2|0,0:0|0:0,0:0:0:0:
300,152,101522,2,0,P|264:172|248:208,1,80,2|0,0:0|0:0,0:0:0:0:
272,328,101998,1,2,0:0:0:0:
192,120,102236,1,0,0:0:0:0:
168,268,102474,1,2,0:0:0:0:
300,152,102712,1,0,0:0:0:0:
300,152,102832,1,0,0:0:0:0:
300,152,102951,6,0,L|332:68,1,80,2|0,0:0|0:0,0:0:0:0:
260,244,103427,1,2,0:0:0:0:
192,120,103665,1,0,0:0:0:0:
192,120,103784,1,0,0:0:0:0:
192,120,103903,2,0,P|161:101|113:101,1,80,2|0,0:0|0:0,0:0:0:0:
48,184,104379,1,2,0:0:0:0:
188,208,104617,1,0,0:0:0:0:
188,208,104736,1,0,0:0:0:0:
188,208,104855,5,2,0:0:0:0:
272,164,105093,1,0,0:0:0:0:
192,120,105332,1,2,0:0:0:0:
272,252,105570,2,0,P|320:240|340:216,1,80,0|2,0:0|0:0,0:0:0:0:
360,52,106046,1,10,0:0:0:0:
360,52,106165,1,2,0:0:0:0:
360,52,106284,1,2,0:0:0:0:
192,120,106522,1,0,0:0:0:0:
176,124,106641,1,0,0:0:0:0:
160,128,106760,6,0,L|64:136,1,80,6|0,0:0|0:0,0:0:0:0:
12,64,107236,1,2,0:0:0:0:
144,212,107474,1,0,0:0:0:0:
160,216,107593,1,0,0:0:0:0:
176,220,107712,2,0,L|272:228,1,80,2|0,0:0|0:0,0:0:0:0:
404,252,108189,1,2,0:0:0:0:
480,156,108427,1,0,0:0:0:0:
404,252,108665,6,0,L|396:336,1,80,2|0,0:0|0:0,0:0:0:0:
312,160,109141,2,0,L|320:76,1,80,2|0,0:0|0:0,0:0:0:0:
300,260,109617,5,2,0:0:0:0:
216,128,109855,1,0,0:0:0:0:
152,240,110093,2,0,L|140:364,1,120,2|0,0:0|0:0,0:0:0:0:
116,372,110570,5,2,0:0:0:0:
236,268,110808,1,0,0:0:0:0:
84,216,111046,1,2,0:0:0:0:
204,352,111284,1,0,0:0:0:0:
176,196,111522,5,2,0:0:0:0:
56,300,111760,1,0,0:0:0:0:
16,144,111998,2,0,L|16:60,1,80,2|0,0:0|0:0,0:0:0:0:
168,56,112474,6,0,L|188:16,1,40,2|0,0:0|0:0,0:0:0:0:
240,76,112712,2,0,L|260:36,1,40,2|0,0:0|0:0,0:0:0:0:
288,164,112951,6,0,L|288:204,1,40,2|0,0:0|0:0,0:0:0:0:
360,180,113189,2,0,L|360:232,1,40,2|0,0:0|0:0,0:0:0:0:
404,104,113427,6,0,L|456:40,1,80
454,41,113784,1,0,0:0:0:0:
454,41,113903,1,0,0:0:0:0:
512,256,114141,1,0,0:0:0:0:
360,180,114379,6,0,P|320:168|280:180,1,80,6|2,0:0|0:0,0:0:0:0:
232,248,114855,1,2,0:0:0:0:
308,296,115093,1,2,0:0:0:0:
150,324,115332,2,0,L|58:356,2,80,2|2|2,0:0|0:0|0:0,0:0:0:0:
232,248,116046,1,2,0:0:0:0:
280,140,116284,6,0,L|264:56,1,80,2|0,0:0|0:0,0:0:0:0:
188,32,116760,1,0,0:0:0:0:
436,192,116998,1,2,0:0:0:0:
436,192,117236,5,2,0:0:0:0:
272,272,117474,2,0,L|188:312,2,80,2|2|2,0:0|0:0|0:0,0:0:0:0:
436,192,118189,5,2,0:0:0:0:
216,108,118427,2,0,L|136:76,2,80,2|2|2,0:0|0:0|0:0,0:0:0:0:
436,192,119141,5,2,0:0:0:0:
280,192,119379,1,2,0:0:0:0:
252,192,119498,1,2,0:0:0:0:
224,192,119617,2,0,L|132:192,1,80,2|2,0:0|0:0,0:0:0:0:
76,128,120093,5,2,0:0:0:0:
184,276,120332,1,0,0:0:0:0:
288,112,120570,2,0,P|336:100|392:116,1,80,0|2,0:0|0:0,0:0:0:0:
404,184,121046,5,2,0:0:0:0:
332,256,121284,1,0,0:0:0:0:
420,292,121522,1,2,0:0:0:0:
325,116,121760,1,2,0:0:0:0:
332,256,121998,6,0,L|336:336,1,80,6|2,0:0|0:0,0:0:0:0:
228,200,122474,2,0,L|236:120,1,80,2|2,0:0|0:0,0:0:0:0:
160,300,122951,2,0,P|88:319|21:270,1,160,2|0,0:0|0:0,0:0:0:0:
104,223,123665,1,2,0:0:0:0:
204,144,123903,6,0,P|240:128|281:134,1,80,2|0,0:0|0:0,0:0:0:0:
228,40,124379,1,2,0:0:0:0:
252,224,124617,1,2,0:0:0:0:
252,224,124855,2,0,L|260:312,1,80,0|2,0:0|0:0,0:0:0:0:
376,268,125332,2,0,P|423:248|427:180,1,120,2|0,0:0|0:0,0:0:0:0:
412,152,125808,5,0,0:0:0:0:
268,100,126046,2,0,L|256:16,1,80,4|0,0:0|0:0,0:0:0:0:
180,224,126522,2,0,L|168:308,1,80,4|0,0:0|0:0,0:0:0:0:
392,196,126998,5,4,0:0:0:0:
268,100,127236,2,0,L|200:44,1,80,4|4,0:0|0:0,0:0:0:0:
392,196,127712,6,0,L|468:188,1,60.0000022888184
416,292,128189,2,0,L|400:332,1,30.0000011444092
428,340,128427,2,0,L|420:356,4,15.0000005722046,0|0|0|0|0,0:0|0:0|0:0|0:0|0:0,0:0:0:0:
284,303,128903,5,0,0:0:0:0:
284,303,129022,1,0,0:0:0:0:
284,303,129141,2,0,P|256:297|226:303,1,60.0000022888184,4|0,0:0|0:0,0:0:0:0:
28,356,129617,5,4,0:0:0:0:
130,228,130093,2,0,L|122:136,1,80,0|2,0:0|0:0,0:0:0:0:
132,32,130570,1,2,0:0:0:0:
232,96,130808,1,2,0:0:0:0:
259,112,130927,1,2,0:0:0:0:
290,114,131046,1,2,0:0:0:0:
321,106,131165,1,0,0:0:0:0:
348,89,131284,1,2,0:0:0:0:
348,89,131522,6,0,L|351:180,1,80,0|2,0:0|0:0,0:0:0:0:
480,264,131998,2,0,L|477:173,1,80,0|2,0:0|0:0,0:0:0:0:
372,260,132474,1,2,0:0:0:0:
344,272,132593,1,2,0:0:0:0:
312,280,132712,1,2,0:0:0:0:
280,280,132832,1,0,0:0:0:0:
248,272,132951,2,0,P|229:261|208:240,2,40,2|2|0,0:0|0:0|0:0,0:0:0:0:
304,184,133427,5,0,0:0:0:0:
368,348,133665,1,2,0:0:0:0:
248,272,133903,2,0,L|160:276,1,80,2|0,0:0|0:0,0:0:0:0:
28,328,134379,1,2,0:0:0:0:
120,188,134617,1,2,0:0:0:0:
132,172,134736,1,2,0:0:0:0:
140,156,134855,2,0,L|148:76,1,80,2|0,0:0|0:0,0:0:0:0:
276,144,135332,5,0,0:0:0:0:
368,164,135570,1,2,0:0:0:0:
216,216,135808,1,0,0:0:0:0:
248,56,136046,1,2,0:0:0:0:
308,232,136284,1,2,0:0:0:0:
336,248,136403,1,2,0:0:0:0:
368,252,136522,1,2,0:0:0:0:
400,248,136641,1,0,0:0:0:0:
428,236,136760,2,0,L|456:216,7,20,2|0|2|0|2|0|2|0,0:0|0:0|0:0|0:0|0:0|0:0|0:0|0:0,0:0:0:0:
456,208,137236,5,4,0:0:0:0:
308,232,137712,2,0,L|320:324,1,80,0|2,0:0|0:0,0:0:0:0:
368,164,138189,1,2,0:0:0:0:
376,144,138308,1,2,0:0:0:0:
384,124,138427,1,2,0:0:0:0:
392,104,138546,1,0,0:0:0:0:
400,84,138665,1,2,0:0:0:0:
408,64,138784,1,2,0:0:0:0:
416,44,138903,1,0,0:0:0:0:
288,88,139141,6,0,L|192:100,1,80,0|2,0:0|0:0,0:0:0:0:
156,248,139617,2,0,P|144:208|148:168,1,80,0|2,0:0|0:0,0:0:0:0:
264,188,140093,1,0,0:0:0:0:
293,190,140212,1,2,0:0:0:0:
321,202,140331,1,0,0:0:0:0:
344,221,140450,1,2,0:0:0:0:
359,246,140569,1,2,0:0:0:0:
367,275,140688,1,0,0:0:0:0:
365,305,140807,1,0,0:0:0:0:
365,305,141046,6,0,L|464:316,2,80,0|2|0,0:0|0:0|0:0,0:0:0:0:
232,348,141760,1,2,0:0:0:0:
284,216,141998,2,0,L|296:120,1,80,0|2,0:0|0:0,0:0:0:0:
372,196,142474,6,0,P|380:220|372:240,1,40,2|0,0:0|0:0,0:0:0:0:
200,244,142712,2,0,P|192:220|200:200,1,40,2|0,0:0|0:0,0:0:0:0:
308,44,142951,1,2,0:0:0:0:
256,192,143189,12,8,144379,0:1:0:0:
376,24,144855,6,0,L|361:90,1,60,4|0,0:2|0:0,0:0:0:0:
353,122,145332,5,0,0:0:0:0:
440,360,145570,1,0,0:0:0:0:
216,220,145808,2,0,P|197:213|176:216,1,40,4|0,0:2|0:0,0:0:0:0:
132,364,146284,5,0,0:0:0:0:
144,80,146522,2,0,P|152:53|188:24,1,60,4|0,0:2|0:0,0:0:0:0:
212,24,146998,5,0,0:0:0:0:
0,172,147236,1,0,0:0:0:0:
216,220,147474,2,0,P|252:220|280:204,1,60,4|0,0:2|0:0,0:0:0:0:
292,176,147951,5,0,0:0:0:0:
388,360,148189,1,0,0:0:0:0:
432,112,148427,2,0,L|444:48,1,60,4|0,0:2|0:0,0:0:0:0:
450,15,148903,5,0,0:0:0:0:
504,204,149141,1,0,0:0:0:0:
276,120,149379,2,0,P|244:112|208:120,1,60,4|0,0:2|0:0,0:0:0:0:
184,136,149855,5,0,0:0:0:0:
484,28,150093,1,0,0:0:0:0:
312,272,150332,2,0,P|296:304|288:336,1,60,4|0,0:2|0:0,0:0:0:0:
292,368,150808,5,0,0:0:0:0:
32,72,151046,1,0,0:0:0:0:
352,180,151284,2,0,P|376:180|408:160,1,60,4|0,0:2|0:0,0:0:0:0:
388,256,151760,6,0,L|396:296,1,40,2|0,0:0|0:0,0:0:0:0:
116,296,152236,2,0,L|124:256,1,40,2|0,0:1|0:0,0:0:0:0:
256,76,152712,5,2,0:0:0:0:
256,76,152951,2,0,L|256:116,1,40,2|0,0:0|0:0,0:0:0:0:
208,268,153427,6,0,L|220:348,1,80,4|2,0:0|0:0,0:0:0:0:
388,288,153903,2,0,L|376:208,1,80,0|2,0:0|0:0,0:0:0:0:
296,276,154379,2,0,L|304:324,2,40,2|2|0,0:0|0:0|0:0,0:0:0:0:
468,228,154855,2,0,L|460:180,2,40,2|2|0,0:0|0:0|0:0,0:0:0:0:
444,312,155331,6,0,P|469:342|507:352,1,80,0|2,0:0|0:0,0:0:0:0:
368,192,155807,2,0,L|272:196,1,80,0|2,0:0|0:0,0:0:0:0:
196,264,156284,2,0,L|180:304,2,40,2|2|0,0:0|0:0|0:0,0:0:0:0:
116,172,156760,2,0,L|108:120,2,40,2|2|0,0:0|0:0|0:0,0:0:0:0:
84,268,157236,6,0,L|4:292,1,80,0|2,0:0|0:0,0:0:0:0:
208,176,157712,2,0,P|245:186|272:216,1,80,0|2,0:0|0:0,0:0:0:0:
140,340,158188,1,0,0:0:0:0:
196,264,158427,1,2,0:0:0:0:
196,264,158546,1,2,0:0:0:0:
196,264,158665,1,0,0:0:0:0:
208,176,158903,1,0,0:0:0:0:
196,88,159141,5,2,0:0:0:0:
180,76,159260,1,2,0:0:0:0:
164,64,159379,1,2,0:0:0:0:
148,52,159498,1,0,0:0:0:0:
132,44,159617,2,0,L|84:36,3,40,2|2|0|0,0:0|0:0|0:0|0:0,0:0:0:0:
64,60,160093,5,2,0:0:0:0:
60,96,160212,1,2,0:0:0:0:
56,132,160331,1,2,0:0:0:0:
52,168,160450,1,2,0:0:0:0:
48,204,160569,2,0,L|20:236,1,40,2|0,0:0|0:0,0:0:0:0:
64,308,160807,2,0,L|91:278,1,40,2|0,0:0|0:0,0:0:0:0:
132,204,161046,5,4,0:0:0:0:
392,108,161522,2,0,L|408:24,1,80,0|2,0:0|0:0,0:0:0:0:
304,120,161998,2,0,L|244:112,2,40,2|2|0,0:0|0:0|0:0,0:0:0:0:
452,176,162474,2,0,L|512:184,2,40,2|2|0,0:0|0:0|0:0,0:0:0:0:
340,200,162950,5,0,0:0:0:0:
512,328,163188,1,2,0:0:0:0:
364,352,163427,1,0,0:0:0:0:
504,208,163665,1,2,0:0:0:0:
400,268,163903,1,2,0:0:0:0:
400,268,164022,1,2,0:0:0:0:
400,268,164141,2,0,L|312:280,1,80,0|2,0:0|0:0,0:0:0:0:
240,288,164617,1,0,0:0:0:0:
240,288,164736,1,2,0:0:0:0:
240,288,164855,5,0,0:0:0:0:
112,328,165093,1,2,0:0:0:0:
124,192,165331,2,0,P|144:156|184:136,1,80,0|2,0:0|0:0,0:0:0:0:
200,212,165807,5,0,0:0:0:0:
192,348,166046,1,2,0:0:0:0:
80,256,166284,2,0,L|2:277,1,80,0|2,0:0|0:0,0:0:0:0:
52,164,166760,5,2,0:0:0:0:
64,152,166879,1,2,0:0:0:0:
76,136,166998,1,2,0:0:0:0:
84,120,167117,1,0,0:0:0:0:
92,104,167236,1,2,0:0:0:0:
96,84,167355,1,2,0:0:0:0:
100,64,167474,1,0,0:0:0:0:
100,44,167593,1,0,0:0:0:0:
96,24,167712,5,2,0:0:0:0:
120,36,167831,1,2,0:0:0:0:
148,44,167950,1,2,0:0:0:0:
176,48,168069,1,2,0:0:0:0:
204,48,168188,1,2,0:0:0:0:
232,48,168307,1,2,0:0:0:0:
260,44,168427,1,2,0:0:0:0:
288,36,168546,1,2,0:0:0:0:
312,24,168665,6,0,L|324:112,1,80,4|0,0:0|0:0,0:0:0:0:
412,68,169141,1,2,0:0:0:0:
232,136,169379,1,2,0:0:0:0:
368,256,169617,2,0,L|476:264,1,80,2|2,0:0|0:0,0:0:0:0:
312,180,170093,2,0,P|284:208|276:256,1,80,2|2,0:0|0:0,0:0:0:0:
384,352,170569,5,2,0:0:0:0:
188,212,170807,1,0,0:0:0:0:
368,256,171046,1,2,0:0:0:0:
148,312,171284,2,0,L|60:340,1,80,2|0,0:0|0:0,0:0:0:0:
88,224,171760,5,2,0:0:0:0:
200,92,171998,1,2,0:0:0:0:
188,212,172236,2,0,P|204:252|236:280,1,80,2|0,0:0|0:0,0:0:0:0:
424,160,172712,5,2,0:0:0:0:
312,292,172950,1,2,0:0:0:0:
323,171,173188,2,0,P|308:132|276:104,1,80,2|0,0:0|0:0,0:0:0:0:
188,212,173665,5,2,0:0:0:0:
188,212,173784,1,2,0:0:0:0:
188,212,173903,2,0,L|96:248,1,80,2|0,0:0|0:0,0:0:0:0:
368,144,174379,5,0,0:0:0:0:
256,128,174617,1,2,0:0:0:0:
368,144,174855,1,0,0:0:0:0:
296,228,175093,1,2,0:0:0:0:
404,244,175331,5,2,0:0:0:0:
228,304,175569,1,0,0:0:0:0:
404,244,175807,1,2,0:0:0:0:
350,70,176046,1,2,0:0:0:0:
295,228,176284,6,0,P|294:267|313:302,1,80,4|2,0:0|0:0,0:0:0:0:
368,143,176760,2,0,P|369:104|350:69,1,80,2|2,0:0|0:0,0:0:0:0:
256,128,177236,2,0,L|84:152,1,160,2|2,0:0|0:0,0:0:0:0:
0,168,177950,1,2,0:0:0:0:
180,224,178188,6,0,P|205:254|209:293,1,80,2|0,0:0|0:0,0:0:0:0:
104,300,178665,1,2,0:0:0:0:
256,128,178903,1,2,0:0:0:0:
80,156,179141,2,0,L|0:167,1,80,2|2,0:0|0:0,0:0:0:0:
180,223,179617,2,0,P|213:175|201:118,1,120,2|0,0:0|0:0,0:0:0:0:
180,104,180093,5,0,0:0:0:0:
352,156,180331,2,0,P|367:192|366:232,1,80,4|0,0:0|0:0,0:0:0:0:
216,300,180807,2,0,L|308:300,1,80,4|0,0:0|0:0,0:0:0:0:
108,248,181284,5,4,0:0:0:0:
180,104,181522,2,0,L|168:24,1,80,4|4,0:0|0:0,0:0:0:0:
256,312,181998,6,0,L|256:372,1,60.0000022888184,2|0,0:0|0:0,0:0:0:0:
256,188,182474,1,2,0:0:0:0:
256,168,182593,1,2,0:0:0:0:
256,148,182712,1,2,0:0:0:0:
256,40,182950,1,2,0:0:0:0:
164,168,183188,1,2,0:0:0:0:
360,113,183427,2,0,P|406:118|368:144,1,120.000004577637,2|4,0:0|0:0,0:0:0:0:
316,272,184379,6,0,L|292:336,1,60.0000022888184,0|0,0:0|0:0,0:0:0:0:
212,280,184855,2,0,L|188:344,1,60.0000022888184,0|0,0:0|0:0,0:0:0:0:
190,336,185212,1,0,0:0:0:0:
190,336,185331,1,0,0:0:0:0:
96,252,185569,1,0,0:0:0:0:
56,144,185807,6,0,L|34:87,1,60.0000022888184
156,148,186283,2,0,L|134:91,1,60.0000022888184,0|0,0:0|0:0,0:0:0:0:
232,92,186760,2,0,L|210:35,1,60.0000022888184,0|0,0:0|0:0,0:0:0:0:
210,35,187117,1,0,0:0:0:0:
210,35,187236,1,0,0:0:0:0:
268,184,187474,1,0,0:0:0:0:
400,232,187712,6,0,P|436:240|472:224,1,60.0000022888184
348,168,188188,1,0,0:0:0:0:
348,168,188427,2,0,P|323:195|318:234,1,60.0000022888184
316,240,188784,1,0,0:0:0:0:
321,263,188903,1,0,0:0:0:0:
333,283,189022,1,0,0:0:0:0:
350,299,189141,1,0,0:0:0:0:
132,344,189379,1,0,0:0:0:0:
60,188,189617,6,0,L|56:120,1,60.0000022888184,2|0,0:0|0:0,0:0:0:0:
228,140,190093,2,0,L|224:72,1,60.0000022888184,2|0,0:0|0:0,0:0:0:0:
376,160,190569,2,0,L|376:88,1,60.0000022888184
376,100,190927,1,0,0:0:0:0:
376,100,191046,1,0,0:0:0:0:
460,68,191284,1,0,0:0:0:0:
376,244,191522,5,4,0:0:0:0:
124,296,191998,2,0,L|32:320,1,80,0|2,0:0|0:0,0:0:0:0:
84,216,192474,1,2,0:0:0:0:
100,192,192593,1,2,0:0:0:0:
108,164,192712,1,2,0:0:0:0:
112,136,192831,1,2,0:0:0:0:
112,108,192950,2,0,L|80:20,1,80,2|0,0:0|0:0,0:0:0:0:
220,92,193427,5,0,0:0:0:0:
376,188,193665,1,2,0:0:0:0:
216,280,193903,1,0,0:0:0:0:
376,188,194141,1,2,0:0:0:0:
228,180,194379,5,2,0:0:0:0:
200,180,194498,1,2,0:0:0:0:
172,184,194617,1,2,0:0:0:0:
148,200,194736,1,2,0:0:0:0:
132,224,194855,2,0,L|112:308,1,80,2|0,0:0|0:0,0:0:0:0:
256,188,195331,6,0,L|240:104,1,80,2|0,0:0|0:0,0:0:0:0:
376,228,195807,2,0,L|360:144,1,80,2|0,0:0|0:0,0:0:0:0:
256,188,196284,1,0,0:0:0:0:
104,280,196522,1,0,0:0:0:0:
120,136,196760,1,0,0:0:0:0:
124,116,196879,1,0,0:0:0:0:
128,96,196998,2,0,L|132:76,4,20,0|0|0|0|0,0:0|0:0|0:0|0:0|0:0,0:0:0:0:
304,16,197474,5,0,0:0:0:0:
232,176,197712,1,0,0:0:0:0:
228,196,197831,1,0,0:0:0:0:
224,216,197950,2,0,L|220:236,4,20,0|0|0|0|0,0:0|0:0|0:0|0:0|0:0,0:0:0:0:
104,280,198426,5,2,0:1:0:0:
324,224,198665,2,2,B|340:172|340:172|316:112,1,120,2|0,0:1|0:0,0:1:0:0:
300,88,199141,5,4,0:0:0:0:
60,176,199617,2,0,L|60:272,1,80,0|2,0:0|0:0,0:0:0:0:
204,328,200093,1,2,0:0:0:0:
224,316,200212,1,0,0:0:0:0:
240,296,200331,1,2,0:0:0:0:
252,276,200450,1,2,0:0:0:0:
256,252,200569,1,2,0:0:0:0:
256,228,200688,1,0,0:0:0:0:
248,204,200807,1,2,0:0:0:0:
148,152,201046,5,0,0:0:0:0:
168,40,201284,1,2,0:0:0:0:
276,20,201522,1,0,0:0:0:0:
328,120,201760,1,2,0:0:0:0:
248,204,201998,1,2,0:0:0:0:
224,205,202117,1,2,0:0:0:0:
201,213,202236,1,2,0:0:0:0:
181,226,202355,1,0,0:0:0:0:
165,244,202474,1,2,0:0:0:0:
152,264,202593,1,2,0:0:0:0:
144,286,202712,1,0,0:0:0:0:
244,308,202950,5,0,0:0:0:0:
68,216,203188,1,2,0:0:0:0:
236,108,203426,2,0,P|252:68|252:24,1,80,2|0,0:0|0:0,0:0:0:0:
120,112,203903,5,2,0:0:0:0:
212,224,204141,1,2,0:0:0:0:
236,232,204260,1,2,0:0:0:0:
260,236,204379,2,0,L|348:220,1,80,2|0,0:0|0:0,0:0:0:0:
392,96,204855,5,0,0:0:0:0:
316,312,205093,1,2,0:0:0:0:
256,96,205331,1,0,0:0:0:0:
424,228,205569,1,2,0:0:0:0:
212,224,205807,1,2,0:0:0:0:
196,240,205926,1,2,0:0:0:0:
180,256,206046,1,2,0:0:0:0:
164,272,206165,1,0,0:0:0:0:
148,288,206284,2,0,L|120:296,7,20,2|0|2|0|2|0|2|0,0:0|0:0|0:0|0:0|0:0|0:0|0:0|0:0,0:0:0:0:
128,294,206760,5,4,0:0:0:0:
48,104,207236,2,0,L|32:16,1,80,0|2,0:0|0:0,0:0:0:0:
208,72,207712,1,2,0:0:0:0:
228,80,207831,1,2,0:0:0:0:
252,84,207950,1,2,0:0:0:0:
276,80,208069,1,0,0:0:0:0:
300,72,208188,2,0,L|396:32,1,80,2|0,0:0|0:0,0:0:0:0:
460,124,208665,5,0,0:0:0:0:
428,264,208903,1,2,0:0:0:0:
324,164,209141,1,0,0:0:0:0:
472,200,209379,1,2,0:0:0:0:
384,112,209617,1,2,0:0:0:0:
376,92,209736,1,2,0:0:0:0:
368,72,209855,1,0,0:0:0:0:
352,240,210093,1,2,0:0:0:0:
344,260,210212,1,2,0:0:0:0:
336,280,210331,1,0,0:0:0:0:
248,148,210569,5,0,0:0:0:0:
398,184,210807,1,2,0:0:0:0:
248,148,211046,2,0,L|152:148,1,80,2|0,0:0|0:0,0:0:0:0:
188,320,211522,2,0,L|248:240,1,80,0|2,0:0|0:0,0:0:0:0:
316,256,211998,6,0,L|348:284,1,40,2|0,0:0|0:0,0:0:0:0:
184,196,212236,2,0,L|132:196,1,40,2|0,0:0|0:0,0:0:0:0:
300,120,212474,1,2,0:0:0:0:
256,192,212712,12,8,213903,0:1:0:0:
152,232,214379,6,0,L|164:328,1,80,6|0,0:0|0:0,0:0:0:0:
48,196,214855,2,0,L|38:116,1,80,2|2,0:0|0:0,0:0:0:0:
164,116,215331,6,0,L|139:78,1,40,2|2,0:0|0:0,0:0:0:0:
171,196,215569,2,0,L|151:236,1,40,2|0,0:0|0:0,0:0:0:0:
236,152,215807,2,0,L|280:149,1,40,2|2,0:0|0:0,0:0:0:0:
412,232,216046,1,2,0:0:0:0:
412,232,216284,6,0,P|432:268|432:308,1,80,0|2,0:0|0:0,0:0:0:0:
316,296,216760,2,0,L|204:296,1,80,0|2,0:0|0:0,0:0:0:0:
142,82,217236,6,0,L|164:116,1,40,2|2,0:0|0:0,0:0:0:0:
153,231,217474,2,0,L|171:196,1,40,2|0,0:0|0:0,0:0:0:0:
275,149,217712,2,0,L|236:152,1,40,2|2,0:0|0:0,0:0:0:0:
56,172,217950,1,2,0:0:0:0:
56,172,218188,6,0,B|40:212|40:212|44:248,1,80,0|2,0:0|0:0,0:0:0:0:
204,272,218665,2,0,L|108:264,1,80,0|2,0:0|0:0,0:0:0:0:
300,188,219141,2,0,B|304:224|304:224|288:264,1,80,0|2,0:0|0:0,0:0:0:0:
140,164,219617,2,0,L|236:172,1,80,0|2,0:0|0:0,0:0:0:0:
392,172,220093,5,2,0:0:0:0:
404,148,220212,1,2,0:0:0:0:
416,124,220331,1,2,0:0:0:0:
428,100,220450,1,0,0:0:0:0:
440,76,220569,2,0,L|448:28,1,40,2|0,0:0|0:0,0:0:0:0:
348,52,220807,2,0,L|348:8,1,40,2|0,0:0|0:0,0:0:0:0:
244,48,221046,5,2,0:0:0:0:
232,72,221165,1,2,0:0:0:0:
220,96,221284,1,2,0:0:0:0:
208,120,221403,1,0,0:0:0:0:
196,144,221522,2,0,L|180:188,1,40,2|0,0:0|0:0,0:0:0:0:
288,168,221760,2,0,L|300:216,1,40,2|0,0:0|0:0,0:0:0:0:
352,332,221998,6,0,P|389:344|427:331,1,80,6|0,0:0|0:0,0:0:0:0:
472,244,222474,2,0,L|476:144,1,80,2|2,0:0|0:0,0:0:0:0:
400,52,222950,1,2,0:0:0:0:
368,32,223069,1,2,0:0:0:0:
332,32,223188,1,2,0:0:0:0:
300,48,223307,1,0,0:0:0:0:
276,76,223426,5,2,0:0:0:0:
256,48,223545,1,2,0:0:0:0:
236,20,223664,1,0,0:0:0:0:
95,19,223903,6,0,P|56:19|24:42,1,80,0|2,0:0|0:0,0:0:0:0:
112,180,224379,2,0,L|85:104,1,80,0|2,0:0|0:0,0:0:0:0:
56,264,224855,1,2,0:0:0:0:
84,284,224974,1,2,0:0:0:0:
120,288,225093,1,2,0:0:0:0:
152,276,225212,1,0,0:0:0:0:
180,248,225331,5,2,0:0:0:0:
204,272,225450,1,2,0:0:0:0:
232,296,225569,1,0,0:0:0:0:
408,344,225807,6,0,P|447:344|480:322,1,80,0|2,0:0|0:0,0:0:0:0:
412,228,226283,2,0,L|466:169,1,80,0|2,0:0|0:0,0:0:0:0:
364,104,226760,1,0,0:0:0:0:
184,192,226998,1,2,0:0:0:0:
328,192,227236,1,2,0:0:0:0:
148,104,227474,1,2,0:0:0:0:
256,48,227712,6,0,L|256:24,9,13.3333333333333,6|2|2|2|2|2|2|0|0|0,0:0|0:0|0:0|0:0|0:0|0:0|0:0|0:0|0:0|0:0,0:0:0:0:
168,136,228188,2,0,L|168:176,1,40,2|2,0:0|0:0,0:0:0:0:
344,176,228426,2,0,L|344:136,1,40,2|2,0:0|0:0,0:0:0:0:
256,280,228664,5,0,0:0:0:0:
256,108,228903,1,0,0:0:0:0:
256,88,229022,1,0,0:0:0:0:
256,68,229141,1,0,0:0:0:0:
256,192,229379,1,0,0:0:0:0:
364,272,229617,6,0,L|400:320,1,40,2|2,0:0|0:0,0:0:0:0:
148,272,229855,2,0,L|112:320,1,40,2|2,0:0|0:0,0:0:0:0:
256,312,230093,2,0,L|256:352,2,40,2|2|2,0:0|0:0|0:0,0:0:0:0:
256,68,230569,5,6,0:0:0:0:
