osu file format v14

[General]
AudioFilename: Stella-rium.mp3
AudioLeadIn: 0
PreviewTime: 206207
Countdown: 0
SampleSet: Soft
StackLeniency: 0.7
Mode: 0
LetterboxInBreaks: 1
WidescreenStoryboard: 1

[Editor]
Bookmarks: 73580,151376,160360,163071,228156
DistanceSpacing: 2
BeatDivisor: 4
GridSize: 4
TimelineZoom: 1.9

[Metadata]
Title:Stella-rium
TitleUnicode:Stella-rium
Artist:Kano
ArtistUnicode:鹿乃
Creator:eLy
Version:ELY
Source:放課後のプレアデス
Tags:houkago no pleiades opening full
BeatmapID:709505
BeatmapSetID:317143

[Difficulty]
HPDrainRate:5
CircleSize:4
OverallDifficulty:8
ApproachRate:9.3
SliderMultiplier:1.8
SliderTickRate:2

[Events]
//Background and Video events
0,0,"bgste.jpg",0,0
//Break Periods
2,141576,150822
//Storyboard Layer 0 (Background)
//Storyboard Layer 1 (Fail)
//Storyboard Layer 2 (Pass)
//Storyboard Layer 3 (Foreground)
//Storyboard Sound Samples

[TimingPoints]
360,338.983050847458,4,2,1,40,1,0
5275,-133.333333333333,4,2,1,40,0,0
5783,-100,4,2,1,40,0,0
16631,-133.333333333333,4,2,1,40,0,0
27478,-100,4,2,1,40,0,0
38326,-111.111111111111,4,2,1,40,0,0
43749,-100,4,2,1,40,0,0
49173,-200,4,2,1,40,0,0
50529,-100,4,2,1,40,0,0
51715,-83.3333333333333,4,2,1,40,0,1
51800,-83.3333333333333,4,2,1,40,0,0
51885,-83.3333333333333,4,2,1,40,0,1
73580,-100,4,2,1,40,0,0
84427,-133.333333333333,4,2,1,40,0,0
95275,-100,4,2,1,40,0,0
106122,-133.333333333333,4,2,1,40,0,0
111122,-100,4,2,1,40,0,0
116970,-200,4,2,1,40,0,0
118326,-100,4,2,1,40,0,0
119343,-200,4,2,1,40,0,0
119682,-83.3333333333333,4,2,1,40,0,1
134936,-66.6666666666667,4,2,1,40,0,1
135275,-100,4,2,1,40,0,1
141376,-83.3333333333333,4,2,1,40,0,0
151376,-133.333333333333,4,2,1,40,0,0
157309,-100,4,2,1,40,0,0
162393,-83.3333333333333,4,2,1,40,0,0
163071,-100,4,2,1,40,0,0
184766,-133.333333333333,4,2,1,40,0,0
189851,-83.3333333333333,4,2,1,40,0,0
190190,-133.333333333333,4,2,1,40,0,0
205105,-100,4,2,1,40,0,0
206461,-83.3333333333333,4,2,1,40,0,1
221207,-66.6666666666667,4,2,1,40,0,1
221715,-100,4,2,1,40,0,1
228156,-100,4,2,1,40,0,0

[HitObjects]
256,192,360,5,0,0:0:0:0:
180,92,529,1,0,0:0:0:0:
104,264,698,1,0,0:0:0:0:
104,264,1037,6,0,L|207:256,1,90
312,76,1376,2,0,L|208:83,1,90
104,44,1631,1,0,0:0:0:0:
104,44,1715,2,0,P|107:90|116:134,1,90
258,320,2054,1,0,0:0:0:0:
365,253,2224,2,0,B|404:228|404:228|356:176|280:168,1,180
104,44,2732,2,0,P|148:32|208:28,1,90
177,153,3071,5,0,0:0:0:0:
177,153,3241,1,0,0:0:0:0:
360,23,3410,2,0,P|384:64|400:112,1,90
328,224,3665,1,0,0:0:0:0:
328,224,3749,2,0,L|384:312,1,90
398,103,4088,2,0,P|331:94|264:102,1,135
224,124,4427,1,0,0:0:0:0:
256,16,4597,1,0,0:0:0:0:
420,360,4936,1,0,0:0:0:0:
92,360,5275,2,0,B|128:332|128:332|176:324|192:336|192:336|264:304,1,168.750006437302
127,224,5783,6,0,B|83:240|83:240|35:268,1,90
256,192,6122,1,0,0:0:0:0:
164,96,6292,1,0,0:0:0:0:
93,346,6461,1,0,0:0:0:0:
306,308,6631,1,0,0:0:0:0:
127,224,6800,1,0,0:0:0:0:
268,92,6970,1,0,0:0:0:0:
127,224,7139,6,0,P|122:183|128:124,1,90
352,52,7478,2,0,L|344:148,1,90
127,224,7817,2,0,P|80:228|32:224,2,90
83,38,8326,1,0,0:0:0:0:
208,224,8495,6,0,L|264:308,1,90
140,132,8834,1,0,0:0:0:0:
40,280,9004,1,0,0:0:0:0:
251,204,9173,1,0,0:0:0:0:
304,328,9343,1,0,0:0:0:0:
236,92,9512,1,0,0:0:0:0:
148,256,9682,1,0,0:0:0:0:
336,240,9851,6,0,L|432:232,1,90
236,92,10190,2,0,L|132:103,1,90
39,117,10529,1,0,0:0:0:0:
236,192,10698,1,0,0:0:0:0:
148,307,10868,1,0,0:0:0:0:
236,92,11037,1,0,0:0:0:0:
76,36,11207,6,0,P|52:76|36:128,1,90
321,237,11546,2,0,P|345:197|361:145,1,90
197,139,11885,1,0,0:0:0:0:
197,139,12054,1,0,0:0:0:0:
344,312,12224,1,0,0:0:0:0:
344,312,12563,5,0,0:0:0:0:
110,136,12732,1,0,0:0:0:0:
402,140,12902,1,0,0:0:0:0:
164,308,13071,1,0,0:0:0:0:
258,32,13241,1,0,0:0:0:0:
260,364,13410,1,0,0:0:0:0:
64,248,13580,1,0,0:0:0:0:
64,248,13919,6,0,L|160:208,1,90
258,32,14258,2,0,P|248:80|248:132,1,90
144,312,14597,1,0,0:0:0:0:
76,148,14766,1,0,0:0:0:0:
332,88,14936,1,0,0:0:0:0:
256,196,15105,1,0,0:0:0:0:
180,88,15275,1,0,0:0:0:0:
144,276,15444,5,0,0:0:0:0:
144,276,15614,1,0,0:0:0:0:
256,40,15783,1,0,0:0:0:0:
256,40,15868,1,0,0:0:0:0:
256,40,15953,1,0,0:0:0:0:
368,276,16122,1,0,0:0:0:0:
112,160,16292,1,0,0:0:0:0:
400,160,16461,1,0,0:0:0:0:
76,44,16631,6,0,P|142:48|216:80,1,135.000005149842
144,276,17139,2,0,P|78:272|4:240,1,135.000005149842
112,160,17648,2,0,P|116:121|112:80,1,67.5000025749208
176,276,17987,6,0,L|248:152,1,135.000005149842
33,127,18495,1,0,0:0:0:0:
340,20,18665,2,0,P|356:83|352:160,1,135.000005149842
112,160,19173,1,0,0:0:0:0:
208,260,19343,6,0,P|204:297|208:340,1,67.5000025749208
306,368,19682,1,0,0:0:0:0:
76,280,19851,2,0,P|136:256|212:240,1,135.000005149842
400,61,20360,1,0,0:0:0:0:
372,156,20529,2,0,L|212:120,1,135.000005149842
172,344,21037,5,0,0:0:0:0:
272,232,21207,1,0,0:0:0:0:
72,92,21376,2,0,L|72:168,1,67.5000025749208
72,159,21715,1,0,0:0:0:0:
187,70,21885,1,0,0:0:0:0:
65,279,22054,6,0,P|130:282|214:278,1,135.000005149842
272,232,22563,2,0,P|284:192|328:244,1,135.000005149842
196,360,23071,2,0,P|160:324|144:300,1,67.5000025749208
334,234,23410,2,0,P|384:220|416:144,1,135.000005149842
456,276,23919,1,0,0:0:0:0:
328,148,24088,2,0,L|268:88,1,67.5000025749208
100,80,24427,2,0,P|96:44|100:4,1,67.5000025749208
240,180,24766,6,0,P|176:196|100:208,1,135.000005149842
256,344,25275,2,0,P|324:348|404:344,1,135.000005149842
144,80,25783,1,0,0:0:0:0:
324,260,25953,1,0,0:0:0:0:
153,340,26122,1,0,0:0:0:0:
256,148,26292,1,0,0:0:0:0:
256,380,26631,5,0,0:0:0:0:
256,12,26970,5,0,0:0:0:0:
184,92,27139,1,0,0:0:0:0:
252,176,27309,1,0,0:0:0:0:
112,208,27478,2,0,L|16:196,1,90
251,175,27817,2,0,P|255:220|253:265,1,90
130,371,28156,1,0,0:0:0:0:
344,220,28326,1,0,0:0:0:0:
168,216,28495,2,0,P|136:180|112:136,1,90
284,0,28834,6,0,P|338:70|371:154,1,180
256,272,29343,1,0,0:0:0:0:
371,154,29512,2,0,P|420:148|467:154,1,90
196,332,29851,2,0,L|100:308,1,90
28,184,30190,6,0,L|212:228,1,180
24,292,30698,1,0,0:0:0:0:
192,96,30868,2,0,P|200:141|203:194,1,90
320,288,31207,2,0,L|348:200,1,90
112,160,31546,1,0,0:0:0:0:
192,280,31715,1,0,0:0:0:0:
324,97,31885,2,0,L|420:92,1,90
152,28,32224,2,0,P|107:24|62:28,1,90
112,200,32563,2,0,L|212:196,1,90
324,96,32902,6,0,P|340:180|340:288,1,180
134,378,33410,2,0,L|110:190,1,180
404,12,33919,2,0,P|391:54|364:112,1,90
111,199,34258,6,0,L|311:171,1,180
54,142,34766,2,0,P|7:211|67:269,1,180
289,174,35275,2,0,P|293:126|289:74,1,90
160,36,35614,1,0,0:0:0:0:
245,175,35783,1,0,0:0:0:0:
12,228,35953,1,0,0:0:0:0:
156,128,36122,1,0,0:0:0:0:
220,280,36292,2,0,L|264:372,1,90
184,204,36631,5,0,0:0:0:0:
152,364,36800,1,0,0:0:0:0:
400,256,36970,1,0,0:0:0:0:
248,280,37139,1,0,0:0:0:0:
296,132,37309,1,0,0:0:0:0:
480,244,37478,1,0,0:0:0:0:
480,244,37563,1,0,0:0:0:0:
480,244,37648,1,0,0:0:0:0:
320,48,37817,5,0,0:0:0:0:
360,244,37987,1,0,0:0:0:0:
160,184,38156,1,0,0:0:0:0:
89,352,38326,2,0,L|253:308,1,161.999995056153
66,210,38834,1,0,0:0:0:0:
160,184,39004,2,0,P|156:140|160:100,1,80.9999975280763
360,244,39343,2,0,L|268:216,1,80.9999975280763
159,103,39682,6,0,L|327:155,1,161.999995056153
80,76,40190,1,0,0:0:0:0:
392,184,40360,2,0,P|376:224|353:264,1,80.9999975280763
200,376,40698,2,0,L|168:296,1,80.9999975280763
240,146,41037,6,0,P|304:198|364:266,1,161.999995056153
200,376,41546,1,0,0:0:0:0:
88,308,41715,2,0,P|61:273|40:232,1,80.9999975280763
239,146,42054,2,0,L|212:312,1,161.999995056153
112,124,42563,1,0,0:0:0:0:
304,300,42732,2,0,P|344:304|384:301,1,80.9999975280763
347,207,43071,2,0,P|296:177|273:122,1,121.499996292114
332,52,43410,5,0,0:0:0:0:
304,128,43495,1,0,0:0:0:0:
228,156,43580,1,0,0:0:0:0:
152,128,43665,1,0,0:0:0:0:
124,52,43749,2,0,P|88:82|72:132,1,90
295,276,44088,2,0,P|331:246|347:196,1,90
72,164,44427,1,0,0:0:0:0:
243,82,44597,1,0,0:0:0:0:
68,264,44766,1,0,0:0:0:0:
146,91,44936,1,0,0:0:0:0:
295,275,45105,6,0,L|332:192,1,90
484,152,45444,2,0,P|488:200|484:248,1,90
312,336,45783,1,0,0:0:0:0:
230,165,45953,1,0,0:0:0:0:
412,340,46122,1,0,0:0:0:0:
239,262,46292,1,0,0:0:0:0:
386,104,46461,6,0,P|389:61|386:14,1,90
126,280,46800,2,0,P|123:323|126:370,1,90
256,60,47139,1,0,0:0:0:0:
300,184,47309,1,0,0:0:0:0:
160,100,47478,2,0,P|144:148|136:204,1,90
252,352,47817,6,0,L|344:344,1,90
432,336,48156,1,0,0:0:0:0:
216,244,48326,2,0,L|124:236,1,90
304,252,48665,1,0,0:0:0:0:
32,184,48834,2,0,P|28:228|32:280,1,90
232,120,49173,2,0,B|248:72|224:24|176:8|124:24|100:72|116:128|116:128|152:140|176:172|176:172|160:172,1,337.5
96,220,50529,5,0,0:0:0:0:
56,300,50614,1,0,0:0:0:0:
112,372,50698,1,0,0:0:0:0:
200,348,50783,1,0,0:0:0:0:
268,288,50868,1,0,0:0:0:0:
356,272,50953,1,0,0:0:0:0:
444,292,51037,1,0,0:0:0:0:
444,292,51715,5,0,0:0:0:0:
257,154,51885,1,0,0:0:0:0:
384,48,52054,2,0,P|390:100|384:164,1,107.999996704102
203,106,52393,1,0,0:0:0:0:
299,263,52563,2,0,P|293:319|299:375,1,107.999996704102
402,323,52902,1,0,0:0:0:0:
192,272,53071,6,0,L|84:244,1,107.999996704102
176,360,53410,1,0,0:0:0:0:
300,184,53580,2,0,P|304:128|300:72,1,107.999996704102
200,128,53919,1,0,0:0:0:0:
392,244,54088,1,0,0:0:0:0:
392,244,54173,1,0,0:0:0:0:
392,244,54258,2,0,L|344:360,1,107.999996704102
132,184,54597,6,0,P|76:180|20:184,1,107.999996704102
76,288,54936,1,0,0:0:0:0:
268,188,55105,2,0,P|272:128|268:76,1,107.999996704102
160,20,55444,1,0,0:0:0:0:
312,188,55614,2,0,L|424:180,1,107.999996704102
252,348,55953,2,0,L|140:356,2,107.999996704102
372,272,56461,1,0,0:0:0:0:
208,132,56631,2,0,P|204:188|208:244,1,107.999996704102
72,136,56970,2,0,L|40:12,1,107.999996704102
300,184,57309,6,0,B|244:168|244:168|180:184|156:236|156:236|118:256,1,215.999993408203
256,376,57817,1,0,0:0:0:0:
24,252,57987,2,0,B|8:200|8:200|12:148|32:116|32:116|40:80|32:40,1,215.999993408203
136,184,58495,1,0,0:0:0:0:
256,375,58665,2,0,P|202:380|148:376,1,107.999996704102
368,192,59004,2,0,P|421:187|475:191,1,107.999996704102
424,280,59343,1,0,0:0:0:0:
424,100,59512,1,0,0:0:0:0:
332,304,59682,1,0,0:0:0:0:
193,138,59851,1,0,0:0:0:0:
296,36,60021,6,0,P|318:86|329:144,1,107.999996704102
216,376,60360,2,0,P|194:326|183:268,1,107.999996704102
292,292,60698,1,0,0:0:0:0:
100,348,60868,1,0,0:0:0:0:
248,212,61037,1,0,0:0:0:0:
14,154,61207,1,0,0:0:0:0:
260,120,61376,6,0,P|278:66|312:24,1,107.999996704102
363,120,61715,1,0,0:0:0:0:
192,40,61885,1,0,0:0:0:0:
28,268,62054,1,0,0:0:0:0:
64,320,62139,1,0,0:0:0:0:
128,332,62224,1,0,0:0:0:0:
188,308,62309,1,0,0:0:0:0:
252,292,62393,1,0,0:0:0:0:
292,364,62478,5,0,0:0:0:0:
212,364,62563,1,0,0:0:0:0:
160,300,62648,1,0,0:0:0:0:
164,220,62732,2,0,P|180:168|180:108,1,107.999996704102
20,16,63071,2,0,L|48:140,1,107.999996704102
148,40,63410,1,0,0:0:0:0:
284,128,63580,1,0,0:0:0:0:
60,220,63749,1,0,0:0:0:0:
324,220,63919,6,0,P|361:180|388:120,1,107.999996704102
256,20,64258,1,0,0:0:0:0:
164,220,64427,2,0,L|212:336,1,107.999996704102
128,144,64766,1,0,0:0:0:0:
100,356,64936,2,0,P|48:342|-4:304,1,107.999996704102
256,196,65275,5,0,0:0:0:0:
360,344,65444,2,0,L|248:320,1,107.999996704102
340,196,65783,1,0,0:0:0:0:
176,192,65953,1,0,0:0:0:0:
176,192,66037,1,0,0:0:0:0:
176,192,66122,2,0,P|172:136|176:80,1,107.999996704102
52,136,66461,1,0,0:0:0:0:
256,236,66631,6,0,L|224:360,1,107.999996704102
272,140,66970,1,0,0:0:0:0:
121,339,67139,2,0,P|177:343|233:339,1,107.999996704102
476,112,67478,1,0,0:0:0:0:
376,28,67648,1,0,0:0:0:0:
272,108,67817,1,0,0:0:0:0:
476,152,67987,1,0,0:0:0:0:
332,308,68156,6,0,L|216:300,1,107.999996704102
24,176,68495,2,0,L|136:160,1,107.999996704102
64,80,68834,1,0,0:0:0:0:
96,264,69004,1,0,0:0:0:0:
280,228,69173,1,0,0:0:0:0:
264,384,69343,1,0,0:0:0:0:
176,192,69512,6,0,P|208:148|252:112,1,107.999996704102
200,296,69851,2,0,L|84:284,1,107.999996704102
256,20,70190,1,0,0:0:0:0:
308,172,70360,1,0,0:0:0:0:
420,56,70529,1,0,0:0:0:0:
420,56,70868,6,0,L|309:82,1,107.999996704102
180,240,71207,2,0,L|348:197,1,161.999995056153
368,188,71546,1,0,0:0:0:0:
298,322,71715,1,0,0:0:0:0:
128,125,71885,1,0,0:0:0:0:
268,208,72054,1,0,0:0:0:0:
72,344,72224,5,0,0:0:0:0:
28,296,72309,1,0,0:0:0:0:
24,232,72393,1,0,0:0:0:0:
44,172,72478,1,0,0:0:0:0:
76,116,72563,1,0,0:0:0:0:
84,52,72648,1,0,0:0:0:0:
32,16,72732,5,0,0:0:0:0:
40,80,72817,1,0,0:0:0:0:
84,128,72902,1,0,0:0:0:0:
144,152,72987,1,0,0:0:0:0:
208,136,73071,1,0,0:0:0:0:
252,92,73156,1,0,0:0:0:0:
180,56,73241,5,0,0:0:0:0:
132,120,73326,1,0,0:0:0:0:
144,200,73410,1,0,0:0:0:0:
212,248,73495,1,0,0:0:0:0:
296,232,73580,2,0,L|392:208,1,90
160,364,73919,6,0,P|114:360|60:348,1,90
320,144,74258,1,0,0:0:0:0:
364,300,74427,1,0,0:0:0:0:
312,112,74597,2,0,L|216:100,1,90
32,232,74936,5,0,0:0:0:0:
80,77,75105,1,0,0:0:0:0:
21,263,75275,2,0,L|117:275,1,90
332,180,75614,2,0,L|436:196,1,90
160,376,75953,2,0,P|156:332|156:276,1,90
273,127,76292,6,0,B|284:96|312:72|312:72|340:124|332:180,1,180
64,328,76800,1,0,0:0:0:0:
240,324,76970,2,0,L|336:320,1,90
112,192,77309,2,0,L|16:188,1,90
280,240,77648,5,0,0:0:0:0:
112,112,77817,1,0,0:0:0:0:
112,276,77987,2,0,P|108:324|112:368,1,90
320,240,78326,2,0,P|324:192|320:148,1,90
220,191,78665,1,0,0:0:0:0:
220,191,78834,1,0,0:0:0:0:
432,116,79004,6,0,L|364:36,1,90
80,116,79343,2,0,L|148:36,1,90
344,252,79682,6,0,L|312:160,1,90
168,252,80021,2,0,L|200:160,1,90
80,116,80360,5,0,0:0:0:0:
432,116,80529,1,0,0:0:0:0:
168,252,80698,5,0,0:0:0:0:
344,252,80868,1,0,0:0:0:0:
208,32,81037,5,0,0:0:0:0:
168,252,81207,1,0,0:0:0:0:
304,32,81376,5,0,0:0:0:0:
344,252,81546,1,0,0:0:0:0:
104,353,81715,6,0,P|76:320|56:268,1,90
454,277,82054,2,0,P|436:318|408:353,1,90
296,352,82309,1,0,0:0:0:0:
256,328,82393,2,0,L|256:232,1,90
152,56,82732,5,0,0:0:0:0:
76,28,82817,1,0,0:0:0:0:
24,92,82902,1,0,0:0:0:0:
68,160,82987,1,0,0:0:0:0:
148,140,83071,2,0,P|186:154|220:188,1,90
96,284,83410,5,0,0:0:0:0:
244,92,83580,1,0,0:0:0:0:
384,352,83749,2,0,L|288:336,1,90
192,200,84004,1,0,0:0:0:0:
192,236,84088,2,0,L|292:216,1,90
403,136,84427,6,0,P|391:71|340:30,1,135.000005149842
108,247,84936,2,0,P|120:312|171:353,1,135.000005149842
404,136,85444,2,0,L|320:124,1,67.5000025749208
108,248,85783,6,0,L|256:264,1,135.000005149842
404,136,86292,1,0,0:0:0:0:
312,24,86461,2,0,P|306:59|304:96,1,67.5000025749208
456,220,86800,2,0,P|462:255|464:292,1,67.5000025749208
256,376,87139,6,0,L|284:232,1,135.000005149842
212,144,87648,2,0,L|192:228,1,67.5000025749208
172,294,87987,1,0,0:0:0:0:
376,300,88156,1,0,0:0:0:0:
236,228,88326,1,0,0:0:0:0:
376,300,88495,6,0,P|380:264|377:231,1,67.5000025749208
232,144,88834,1,0,0:0:0:0:
268,260,89004,1,0,0:0:0:0:
440,144,89173,2,0,L|424:76,1,67.5000025749208
220,104,89512,2,0,L|200:28,1,67.5000025749208
60,20,89851,6,0,P|56:84|60:164,1,135.000005149842
268,260,90360,2,0,L|420:244,1,135.000005149842
184,232,90868,2,0,P|184:268|192:308,1,67.5000025749208
116,368,91207,6,0,P|99:302|96:236,1,135.000005149842
260,140,91715,1,0,0:0:0:0:
268,260,91885,2,0,L|276:336,1,67.5000025749208
344,136,92224,2,0,L|336:56,1,67.5000025749208
96,235,92563,6,0,P|164:243|248:231,1,135.000005149842
344,136,93071,2,0,L|260:136,1,67.5000025749208
424,140,93410,1,0,0:0:0:0:
208,20,93580,2,0,P|205:55|208:100,1,67.5000025749208
384,236,93919,1,0,0:0:0:0:
344,136,94088,1,0,0:0:0:0:
256,380,94427,5,0,0:0:0:0:
256,380,94766,5,0,0:0:0:0:
188,280,94936,1,0,0:0:0:0:
384,236,95105,1,0,0:0:0:0:
244,96,95275,6,0,L|268:188,1,90
88,260,95614,2,0,L|-8:244,1,90
188,280,95953,1,0,0:0:0:0:
88,260,96122,2,0,P|110:218|148:182,1,90
320,144,96461,2,0,L|500:184,1,180
436,274,96970,5,0,0:0:0:0:
396,52,97139,1,0,0:0:0:0:
320,144,97309,1,0,0:0:0:0:
444,164,97478,1,0,0:0:0:0:
280,137,97648,1,0,0:0:0:0:
280,137,97987,6,0,L|252:236,1,90
96,252,98326,2,0,L|64:344,1,90
192,156,98665,1,0,0:0:0:0:
348,200,98834,1,0,0:0:0:0:
8,272,99004,1,0,0:0:0:0:
164,316,99173,1,0,0:0:0:0:
192,156,99343,6,0,P|196:108|192:64,1,90
8,272,99682,2,0,L|104:296,1,90
106,114,100021,1,0,0:0:0:0:
106,114,100190,1,0,0:0:0:0:
216,256,100360,2,0,P|248:220|268:184,1,90
461,338,100698,6,0,L|276:320,1,180
112,188,101207,2,0,P|100:138|175:175,1,180
48,288,101715,2,0,P|25:249|5:199,1,90
224,20,102054,6,0,P|260:84|276:200,1,180
192,188,102563,1,0,0:0:0:0:
392,192,102732,2,0,P|384:240|360:288,1,90
232,368,103071,2,0,L|128:364,1,90
366,277,103410,6,0,L|470:281,2,90
232,268,103919,1,0,0:0:0:0:
392,192,104088,2,0,P|396:136|390:98,1,90
156,24,104427,2,0,L|204:104,1,90
231,268,104766,2,0,P|187:271|142:269,1,90
316,372,105105,2,0,L|416:364,1,90
184,176,105444,5,0,0:0:0:0:
184,176,105557,2,0,L|168:104,1,60
332,212,105783,5,0,0:0:0:0:
332,212,105896,2,0,L|352:292,1,60
228,356,106122,6,0,B|171:372|128:344|128:344|84:356,1,135.000005149842
184,232,106631,1,0,0:0:0:0:
32,180,106800,2,0,P|30:146|32:108,1,67.5000025749208
184,232,107139,2,0,L|214:322,1,67.5000025749208
32,180,107478,6,0,B|88:164|88:164|120:128|160:124,1,135.000005149842
184,232,107987,1,0,0:0:0:0:
32,179,108156,2,0,P|28:146|32:108,1,67.5000025749208
240,12,108495,2,0,L|220:96,1,67.5000025749208
328,176,108834,6,0,L|296:316,1,135.000005149842
380,104,109343,2,0,P|344:92|308:88,1,67.5000025749208
196,228,109682,1,0,0:0:0:0:
328,220,109851,2,0,L|408:212,1,67.5000025749208
496,296,110190,1,0,0:0:0:0:
312,352,110360,2,0,L|232:328,1,67.5000025749208
328,220,110698,1,0,0:0:0:0:
196,188,110868,2,0,L|128:168,1,67.5000025749208
256,96,111122,5,0,0:0:0:0:
300,140,111207,1,0,0:0:0:0:
304,204,111292,1,0,0:0:0:0:
280,260,111376,1,0,0:0:0:0:
256,320,111461,1,0,0:0:0:0:
284,376,111546,2,0,L|376:368,1,90
196,188,111885,2,0,L|100:196,1,90
300,180,112224,1,0,0:0:0:0:
300,180,112393,1,0,0:0:0:0:
114,285,112563,2,0,P|109:242|106:181,1,90
184,22,112902,5,0,0:0:0:0:
256,124,113071,1,0,0:0:0:0:
114,284,113241,2,0,L|12:272,1,90
256,124,113580,2,0,L|352:140,1,90
177,103,113919,1,0,0:0:0:0:
274,23,114088,1,0,0:0:0:0:
366,239,114258,6,0,L|176:204,1,180
446,258,114766,1,0,0:0:0:0:
274,23,114936,2,0,P|272:76|276:120,1,90
392,68,115275,1,0,0:0:0:0:
420,192,115444,1,0,0:0:0:0:
274,112,115614,6,0,L|172:60,1,90
344,152,115953,1,0,0:0:0:0:
120,272,116122,2,0,P|160:296|204:316,1,90
212,208,116461,1,0,0:0:0:0:
120,360,116631,2,0,L|32:344,1,90
100,136,116970,6,0,B|152:112|152:112|144:148|144:180|152:208|176:228|212:236|244:236|272:220|292:200|292:200|273:159,1,337.5
292,84,118326,5,0,0:0:0:0:
376,60,118410,1,0,0:0:0:0:
444,120,118495,1,0,0:0:0:0:
448,212,118580,1,0,0:0:0:0:
376,268,118665,1,0,0:0:0:0:
288,248,118749,1,0,0:0:0:0:
200,264,118834,1,0,0:0:0:0:
200,264,119173,5,0,0:0:0:0:
200,264,119343,2,0,L|116:248,1,67.5
176,304,119682,6,0,L|292:328,1,107.999996704102
448,168,120021,2,0,P|392:176|332:200,1,107.999996704102
244,120,120360,1,0,0:0:0:0:
420,256,120529,2,0,P|427:318|421:367,1,107.999996704102
268,209,120868,6,0,B|308:145|392:133|392:133|464:177,1,215.999993408203
272,320,121376,2,0,L|160:304,1,107.999996704102
88,220,121715,1,0,0:0:0:0:
165,304,121885,1,0,0:0:0:0:
268,116,122054,1,0,0:0:0:0:
88,220,122224,6,0,L|29:214,1,53.9999983520508
108,180,122393,2,0,L|235:194,1,107.999996704102
40,72,122732,1,0,0:0:0:0:
215,191,122902,2,0,P|219:255|211:307,1,107.999996704102
180,92,123241,1,0,0:0:0:0:
268,368,123410,2,0,P|328:372|384:368,1,107.999996704102
140,244,123749,5,0,0:0:0:0:
228,92,123919,1,0,0:0:0:0:
331,317,124088,1,0,0:0:0:0:
102,232,124258,1,0,0:0:0:0:
312,180,124427,1,0,0:0:0:0:
156,28,124597,1,0,0:0:0:0:
116,184,124766,1,0,0:0:0:0:
287,52,124936,1,0,0:0:0:0:
252,264,125105,6,0,L|370:237,1,107.999996704102
156,28,125444,2,0,L|44:60,1,107.999996704102
360,260,125783,2,0,P|368:204|360:148,1,107.999996704102
48,40,126122,2,0,P|40:96|48:152,1,107.999996704102
252,192,126461,5,0,0:0:0:0:
200,344,126631,1,0,0:0:0:0:
312,344,126800,1,0,0:0:0:0:
120,192,126970,5,0,0:0:0:0:
392,192,127139,1,0,0:0:0:0:
200,40,127309,5,0,0:0:0:0:
312,40,127478,1,0,0:0:0:0:
88,192,127648,5,0,0:0:0:0:
424,193,127817,2,0,B|440:232|440:232|408:344|288:300,1,215.999993408203
484,112,128326,1,0,0:0:0:0:
304,288,128495,2,0,P|283:240|243:201,1,107.999996704102
88,84,128834,2,0,P|84:144|88:196,1,107.999996704102
304,328,129173,2,0,L|420:312,1,107.999996704102
144,184,129512,2,0,L|28:200,1,107.999996704102
176,24,129851,5,0,0:0:0:0:
240,20,129936,1,0,0:0:0:0:
300,44,130021,1,0,0:0:0:0:
328,104,130105,5,0,0:0:0:0:
252,100,130190,1,0,0:0:0:0:
192,148,130275,1,0,0:0:0:0:
184,224,130360,1,0,0:0:0:0:
220,288,130444,1,0,0:0:0:0:
292,308,130529,6,0,L|400:288,1,107.999996704102
85,167,130868,2,0,L|213:143,1,107.999996704102
398,288,131207,2,0,L|326:372,1,107.999996704102
454,221,131546,1,0,0:0:0:0:
312,124,131715,6,0,P|313:181|337:241,1,107.999996704102
454,221,132054,1,0,0:0:0:0:
200,96,132224,2,0,L|284:16,1,107.999996704102
138,157,132563,1,0,0:0:0:0:
40,40,132732,1,0,0:0:0:0:
40,40,132817,1,0,0:0:0:0:
40,40,132902,1,0,0:0:0:0:
232,104,133071,5,0,0:0:0:0:
40,310,133241,1,0,0:0:0:0:
120,184,133410,1,0,0:0:0:0:
224,376,133580,1,0,0:0:0:0:
96,144,133749,1,0,0:0:0:0:
280,104,133919,1,0,0:0:0:0:
128,292,134088,1,0,0:0:0:0:
128,290,134427,6,0,B|148:256|148:256|94:173|151:86,1,215.999993408203
306,193,134936,2,0,P|282:143|257:192,1,135.000005149842
348,284,135275,2,0,L|448:272,1,90
372,108,135614,1,0,0:0:0:0:
264,296,135783,1,0,0:0:0:0:
200,176,135953,6,0,L|88:152,1,90
372,108,136292,2,0,L|472:88,1,90
144,16,136631,5,0,0:0:0:0:
76,120,136800,1,0,0:0:0:0:
216,72,136970,5,0,0:0:0:0:
194,219,137139,1,0,0:0:0:0:
300,56,137309,6,0,L|328:160,1,90
300,56,137648,5,0,0:0:0:0:
350,227,137817,1,0,0:0:0:0:
268,336,137987,1,0,0:0:0:0:
168,220,138156,1,0,0:0:0:0:
424,104,138326,1,0,0:0:0:0:
352,272,138495,1,0,0:0:0:0:
168,144,138665,6,0,P|101:135|34:145,1,135
36,184,139004,1,0,0:0:0:0:
104,28,139173,1,0,0:0:0:0:
220,248,139343,1,0,0:0:0:0:
280,88,139512,1,0,0:0:0:0:
136,152,139682,1,0,0:0:0:0:
350,284,139851,1,0,0:0:0:0:
132,372,140021,5,0,0:0:0:0:
132,372,140134,2,0,L|120:296,1,60
290,128,140360,5,0,0:0:0:0:
338,164,140472,1,0,0:0:0:0:
350,224,140585,2,0,L|350:296,1,60
88,208,140811,5,0,0:0:0:0:
65,120,140924,5,0,0:0:0:0:
139,72,141037,5,0,0:0:0:0:
210,128,141150,5,0,0:0:0:0:
177,211,141263,5,0,0:0:0:0:
256,276,141376,5,0,0:0:0:0:
256,192,151376,5,0,0:0:0:0:
256,192,151715,1,0,0:0:0:0:
160,143,151885,2,0,P|155:194|161:244,1,101.250003862381
120,332,152224,2,0,L|72:280,1,67.5000025749208
256,192,152563,1,0,0:0:0:0:
232,304,152732,1,0,0:0:0:0:
348,268,152902,1,0,0:0:0:0:
256,192,153071,2,0,L|196:144,1,67.5000025749208
348,268,153410,6,0,P|364:200|360:132,1,135.000005149842
252,24,153919,2,0,L|228:92,1,67.5000025749208
76,144,154258,2,0,L|48:212,1,67.5000025749208
172,212,154597,1,0,0:0:0:0:
76,144,154766,1,0,0:0:0:0:
22,287,154936,6,0,L|94:287,1,67.5000025749208
196,376,155275,2,0,L|268:376,1,67.5000025749208
292,376,155529,1,0,0:0:0:0:
292,376,155614,1,0,0:0:0:0:
364,320,155727,5,0,0:0:0:0:
324,240,155840,5,0,0:0:0:0:
236,256,155953,5,0,0:0:0:0:
164,204,156066,5,0,0:0:0:0:
172,116,156179,5,0,0:0:0:0:
252,80,156292,6,0,L|244:168,1,67.5000025749208
376,80,156631,2,0,L|380:8,1,67.5000025749208
239,176,156970,2,0,P|213:145|177:184,1,101.250003862381
168,177,157309,6,0,P|208:132|245:187,1,135
128,256,157648,6,0,P|94:209|98:134,1,135
116,104,157987,1,0,0:0:0:0:
40,264,158156,1,0,0:0:0:0:
220,248,158326,1,0,0:0:0:0:
20,156,158495,1,0,0:0:0:0:
200,28,158665,1,0,0:0:0:0:
126,287,158834,1,0,0:0:0:0:
390,227,159004,1,0,0:0:0:0:
224,159,159173,5,0,0:0:0:0:
304,245,159343,1,0,0:0:0:0:
408,72,159512,1,0,0:0:0:0:
224,116,159682,1,0,0:0:0:0:
376,188,159851,1,0,0:0:0:0:
224,72,160021,1,0,0:0:0:0:
144,296,160190,1,0,0:0:0:0:
34,129,160360,6,0,P|79:137|121:152,1,90
212,264,160614,1,0,0:0:0:0:
244,316,160698,1,0,0:0:0:0:
304,336,160783,1,0,0:0:0:0:
368,328,160868,2,0,L|420:296,1,45
252,128,161037,5,0,0:0:0:0:
252,128,161122,1,0,0:0:0:0:
252,128,161207,2,0,L|200:160,1,45
72,264,161376,5,0,0:0:0:0:
40,208,161461,1,0,0:0:0:0:
40,144,161546,2,0,L|56:92,1,45
216,16,161715,5,0,0:0:0:0:
280,20,161800,1,0,0:0:0:0:
332,60,161885,1,0,0:0:0:0:
348,120,161970,1,0,0:0:0:0:
376,44,162054,5,0,0:0:0:0:
296,48,162139,1,0,0:0:0:0:
236,104,162224,1,0,0:0:0:0:
224,184,162309,1,0,0:0:0:0:
256,260,162393,6,0,L|328:280,1,53.9999983520508
144,324,162563,2,0,L|80:304,1,53.9999983520508
284,172,162732,2,0,L|348:156,1,53.9999983520508
88,84,162902,2,0,L|28:104,1,53.9999983520508
256,260,163071,6,0,L|352:232,1,90
376,224,163326,1,0,0:0:0:0:
376,224,163410,1,0,0:0:0:0:
276,132,163580,1,0,0:0:0:0:
184,352,163749,1,0,0:0:0:0:
292,212,163919,1,0,0:0:0:0:
76,148,164088,2,0,P|72:192|76:244,1,90
232,132,164427,6,0,L|252:40,1,90
259,10,164682,1,0,0:0:0:0:
259,10,164766,1,0,0:0:0:0:
132,60,164936,1,0,0:0:0:0:
328,212,165105,1,0,0:0:0:0:
268,44,165275,1,0,0:0:0:0:
140,240,165444,2,0,L|48:224,1,90
51,224,165783,5,0,0:0:0:0:
132,60,165953,1,0,0:0:0:0:
283,162,166122,1,0,0:0:0:0:
200,217,166292,1,0,0:0:0:0:
224,75,166461,1,0,0:0:0:0:
384,176,166631,1,0,0:0:0:0:
320,252,166800,1,0,0:0:0:0:
424,272,166970,1,0,0:0:0:0:
228,332,167139,6,0,P|211:290|200:245,1,90
324,24,167478,2,0,L|392:196,1,180
320,252,167987,1,0,0:0:0:0:
464,137,168156,1,0,0:0:0:0:
240,66,168326,1,0,0:0:0:0:
300,252,168495,6,0,L|392:248,1,90
476,244,168749,1,0,0:0:0:0:
476,244,168834,2,0,P|475:196|469:150,1,90
240,66,169173,2,0,L|136:60,2,90
40,192,169682,2,0,L|144:184,1,90
219,176,170021,1,0,0:0:0:0:
132,276,170190,1,0,0:0:0:0:
336,356,170360,2,0,B|359:302|338:243|338:243|357:209|349:171,1,180
204,88,170868,2,0,P|192:136|196:180,1,90
350,181,171207,6,0,L|450:165,1,90
228,56,171546,1,0,0:0:0:0:
332,264,171715,2,0,L|232:256,1,90
131,241,172054,1,0,0:0:0:0:
313,374,172224,1,0,0:0:0:0:
52,368,172393,2,0,B|39:341|39:341|47:289|47:289|23:245|51:189,1,180
220,248,172902,1,0,0:0:0:0:
220,248,173071,1,0,0:0:0:0:
48,168,173241,2,0,L|28:116,1,45
109,12,173410,5,0,0:0:0:0:
169,28,173495,1,0,0:0:0:0:
201,84,173580,1,0,0:0:0:0:
209,148,173665,1,0,0:0:0:0:
185,204,173749,1,0,0:0:0:0:
197,264,173834,1,0,0:0:0:0:
249,296,173919,6,0,L|353:280,2,90
336,184,174427,2,0,P|344:136|340:88,1,90
233,128,174766,1,0,0:0:0:0:
408,12,174936,2,0,L|440:108,1,90
168,228,175275,2,0,L|72:216,1,90
144,108,175614,1,0,0:0:0:0:
264,240,175783,2,0,B|248:312|196:332|196:332|116:320,1,180
316,152,176292,2,0,L|416:164,1,90
183,110,176631,6,0,P|179:158|183:206,1,90
195,232,176885,1,0,0:0:0:0:
195,232,176970,1,0,0:0:0:0:
76,160,177139,1,0,0:0:0:0:
235,19,177309,1,0,0:0:0:0:
300,124,177478,1,0,0:0:0:0:
76,100,177648,1,0,0:0:0:0:
300,156,177817,1,0,0:0:0:0:
196,276,177987,2,0,L|96:264,1,90
300,96,178326,2,0,L|400:108,1,90
244,372,178665,5,0,0:0:0:0:
208,300,178749,1,0,0:0:0:0:
172,228,178834,1,0,0:0:0:0:
132,156,178919,1,0,0:0:0:0:
84,88,179004,2,0,P|61:124|51:178,1,90
172,228,179258,1,0,0:0:0:0:
172,228,179343,2,0,L|272:228,1,90
84,88,179682,2,0,L|-8:88,1,90
292,248,180021,2,0,P|296:200|292:152,1,90
447,277,180360,2,0,P|443:325|447:373,1,90
255,192,180698,5,0,0:0:0:0:
176,276,180868,5,0,0:0:0:0:
336,108,181037,1,0,0:0:0:0:
256,348,181207,5,0,0:0:0:0:
256,36,181376,1,0,0:0:0:0:
366,302,181546,5,0,0:0:0:0:
145,81,181715,1,0,0:0:0:0:
412,192,181885,5,0,0:0:0:0:
100,192,182054,1,0,0:0:0:0:
220,104,182224,1,0,0:0:0:0:
297,286,182393,1,0,0:0:0:0:
412,192,182563,5,0,0:0:0:0:
292,104,182733,1,0,0:0:0:0:
215,286,182902,1,0,0:0:0:0:
252,19,183071,5,0,0:0:0:0:
100,192,183241,1,0,0:0:0:0:
260,365,183410,1,0,0:0:0:0:
316,328,183495,1,0,0:0:0:0:
304,260,183580,1,0,0:0:0:0:
240,236,183665,1,0,0:0:0:0:
192,280,183749,2,0,L|148:328,1,45
40,272,183919,5,0,0:0:0:0:
8,212,184004,1,0,0:0:0:0:
12,144,184088,1,0,0:0:0:0:
56,92,184173,1,0,0:0:0:0:
120,76,184258,1,0,0:0:0:0:
184,100,184343,1,0,0:0:0:0:
116,24,184427,5,0,0:0:0:0:
124,112,184512,1,0,0:0:0:0:
132,200,184597,1,0,0:0:0:0:
144,288,184682,1,0,0:0:0:0:
152,376,184766,2,0,L|240:364,1,67.5000025749208
328,264,185105,6,0,L|420:252,2,67.5000025749208
499,242,185614,1,0,0:0:0:0:
400,152,185783,1,0,0:0:0:0:
280,272,185953,2,0,P|276:320|284:360,1,67.5000025749208
128,188,186292,2,0,P|132:140|128:100,1,67.5000025749208
280,272,186631,2,0,L|432:256,1,135.000005149842
128,98,187139,6,0,P|85:115|44:140,1,67.5000025749208
220,204,187478,1,0,0:0:0:0:
104,80,187648,2,0,P|92:168|104:224,1,135.000005149842
284,372,188156,2,0,P|296:328|304:288,1,67.5000025749208
220,204,188495,1,0,0:0:0:0:
172,336,188665,2,0,P|132:356|84:368,1,67.5000025749208
220,204,189004,2,0,P|260:184|312:168,1,67.5000025749208
434,90,189343,2,0,L|288:40,1,135.000005149842
75,150,189851,6,0,P|109:209|132:148,1,161.999995056153
168,56,190190,2,0,P|198:86|216:120,1,67.5000025749208
236,260,190529,2,0,P|232:296|236:340,1,67.5000025749208
334,300,190868,1,0,0:0:0:0:
334,300,191037,1,0,0:0:0:0:
152,360,191207,2,0,L|68:328,1,67.5000025749208
320,220,191546,6,0,L|400:184,1,67.5000025749208
184,52,191885,2,0,P|182:89|185:133,1,67.5000025749208
272,92,192224,1,0,0:0:0:0:
272,92,192393,1,0,0:0:0:0:
129,225,192563,2,0,L|48:196,1,67.5000025749208
214,183,192902,5,0,0:0:0:0:
214,183,193071,2,0,B|264:204|264:204|313:200|346:237,1,135.000005149842
271,302,193580,1,0,0:0:0:0:
271,302,193749,1,0,0:0:0:0:
128,376,193919,2,0,P|126:338|129:291,1,67.5000025749208
268,224,194258,2,0,L|280:72,1,135.000005149842
148,108,194766,1,0,0:0:0:0:
268,224,194936,6,0,L|324:212,1,33.7500012874604
384,324,195105,1,0,0:0:0:0:
344,360,195190,1,0,0:0:0:0:
292,372,195275,1,0,0:0:0:0:
240,356,195360,1,0,0:0:0:0:
200,320,195444,1,0,0:0:0:0:
152,300,195529,1,0,0:0:0:0:
100,316,195614,6,0,L|32:364,1,67.5000025749208
156,180,195953,2,0,L|88:228,1,67.5000025749208
268,224,196292,2,0,L|328:176,1,67.5000025749208
80,125,196631,1,0,0:0:0:0:
200,320,196800,2,0,P|236:324|280:320,1,67.5000025749208
456,184,197139,1,0,0:0:0:0:
456,184,197309,2,0,P|420:180|376:184,1,67.5000025749208
232,224,197648,2,0,L|168:204,1,67.5000025749208
80,168,197987,1,0,0:0:0:0:
210,84,198156,1,0,0:0:0:0:
232,224,198326,6,0,L|232:304,1,67.5000025749208
368,140,198665,2,0,L|368:212,1,67.5000025749208
128,20,199004,2,0,L|128:96,1,67.5000025749208
324,288,199343,2,0,L|324:360,1,67.5000025749208
156,272,199682,6,0,L|136:200,1,67.5000025749208
356,272,200021,2,0,L|376:200,1,67.5000025749208
72,100,200360,2,0,L|116:40,1,67.5000025749208
440,100,200698,2,0,L|396:40,1,67.5000025749208
176,240,201037,6,0,L|216:304,1,67.5000025749208
336,240,201376,2,0,L|296:304,1,67.5000025749208
192,104,201715,5,0,0:0:0:0:
320,104,201885,1,0,0:0:0:0:
258,310,202054,5,0,0:0:0:0:
256,48,202224,1,0,0:0:0:0:
96,308,202393,5,0,0:0:0:0:
416,308,202563,1,0,0:0:0:0:
152,184,202732,5,0,0:0:0:0:
360,184,202902,1,0,0:0:0:0:
258,377,203071,2,0,L|258:297,1,67.5000025749208
256,48,203410,1,0,0:0:0:0:
256,48,203495,1,0,0:0:0:0:
256,48,203580,1,0,0:0:0:0:
256,48,203665,1,0,0:0:0:0:
256,48,203749,1,0,0:0:0:0:
256,192,203834,12,0,204936,0:0:0:0:
256,48,205105,6,0,L|196:88,1,45
120,192,205275,1,0,0:0:0:0:
120,192,205360,1,0,0:0:0:0:
120,192,205444,2,0,L|180:192,1,45
424,296,205614,1,0,0:0:0:0:
412,320,205699,1,0,0:0:0:0:
400,344,205783,2,0,L|340:344,1,45
144,144,205953,6,0,L|172:100,1,45
208,252,206122,2,0,L|177:309,1,45
368,128,206292,2,0,L|348:172,1,45
424,296,206461,2,0,L|468:192,1,107.999996704102
144,144,206800,2,0,P|84:152|28:144,1,107.999996704102
88,56,207139,1,0,0:0:0:0:
228,136,207309,1,0,0:0:0:0:
36,264,207478,1,0,0:0:0:0:
37,146,207648,6,0,B|112:220|112:220|120:284|180:304,1,215.999993408203
308,228,208156,2,0,L|196:216,1,107.999996704102
320,124,208495,1,0,0:0:0:0:
200,216,208665,1,0,0:0:0:0:
104,12,208834,2,0,P|160:24|208:52,1,107.999996704102
392,184,209173,6,0,L|500:160,1,107.999996704102
384,328,209512,2,0,L|276:352,1,107.999996704102
428,96,209851,1,0,0:0:0:0:
468,256,210021,1,0,0:0:0:0:
232,228,210190,2,0,L|104:212,1,107.999996704102
256,16,210529,2,0,P|272:68|276:124,1,107.999996704102
68,364,210868,2,0,P|52:312|48:256,1,107.999996704102
188,92,211207,1,0,0:0:0:0:
136,288,211376,1,0,0:0:0:0:
375,172,211546,1,0,0:0:0:0:
168,272,211715,1,0,0:0:0:0:
375,172,211885,6,0,L|348:288,1,107.999996704102
168,196,212224,2,0,P|108:180|52:180,1,107.999996704102
96,308,212563,1,0,0:0:0:0:
96,308,212732,1,0,0:0:0:0:
192,164,212902,2,0,L|252:64,1,107.999996704102
96,44,213241,5,0,0:0:0:0:
44,188,213410,1,0,0:0:0:0:
192,164,213580,1,0,0:0:0:0:
410,349,213749,5,0,0:0:0:0:
232,320,213919,1,0,0:0:0:0:
348,176,214088,1,0,0:0:0:0:
96,44,214258,2,0,L|116:152,1,107.999996704102
232,320,214597,6,0,P|292:316|347:321,1,107.999996704102
115,150,214936,2,0,P|55:154|0:149,1,107.999996704102
178,80,215275,1,0,0:0:0:0:
60,244,215444,1,0,0:0:0:0:
324,192,215614,2,0,P|328:136|324:80,1,107.999996704102
212,140,215953,1,0,0:0:0:0:
212,140,216122,1,0,0:0:0:0:
360,208,216292,1,0,0:0:0:0:
216,12,216461,1,0,0:0:0:0:
60,268,216631,5,0,0:0:0:0:
88,324,216715,1,0,0:0:0:0:
144,356,216800,1,0,0:0:0:0:
208,356,216885,1,0,0:0:0:0:
264,320,216970,1,0,0:0:0:0:
328,304,217054,1,0,0:0:0:0:
348,380,217139,5,0,0:0:0:0:
296,324,217224,1,0,0:0:0:0:
284,248,217309,2,0,P|277:194|283:139,1,107.999996704102
112,16,217648,2,0,P|119:70|113:125,1,107.999996704102
356,196,217987,1,0,0:0:0:0:
40,76,218156,1,0,0:0:0:0:
120,180,218326,1,0,0:0:0:0:
224,104,218495,1,0,0:0:0:0:
296,324,218665,1,0,0:0:0:0:
401,41,218834,1,0,0:0:0:0:
228,224,219004,6,0,P|172:228|108:224,1,107.999996704102
176,100,219343,1,0,0:0:0:0:
48,288,219512,1,0,0:0:0:0:
272,248,219682,2,0,L|384:228,1,107.999996704102
272,124,220021,5,0,0:0:0:0:
200,280,220190,1,0,0:0:0:0:
64,52,220360,1,0,0:0:0:0:
188,172,220529,1,0,0:0:0:0:
272,124,220698,1,0,0:0:0:0:
60,172,220868,2,0,L|100:340,1,161.999995056153
64,360,221207,6,0,B|20:344|16:296|64:296|64:296|104:344|152:364|224:336,1,270.000010299683
332,264,221715,2,0,P|301:239|248:208,1,90
244,304,222054,1,0,0:0:0:0:
124,208,222224,1,0,0:0:0:0:
308,88,222393,1,0,0:0:0:0:
244,304,222563,1,0,0:0:0:0:
52,272,222732,6,0,P|34:228|28:184,1,90
256,12,223071,2,0,P|273:55|280:100,1,90
168,84,223410,1,0,0:0:0:0:
168,84,223580,1,0,0:0:0:0:
300,208,223749,2,0,L|452:180,1,135
464,178,224088,5,0,0:0:0:0:
356,72,224258,1,0,0:0:0:0:
264,304,224427,1,0,0:0:0:0:
348,208,224597,1,0,0:0:0:0:
180,204,224766,2,0,P|176:156|184:56,1,135
200,40,225105,5,0,0:0:0:0:
58,136,225275,1,0,0:0:0:0:
308,208,225444,1,0,0:0:0:0:
180,164,225614,1,0,0:0:0:0:
204,304,225783,1,0,0:0:0:0:
332,232,225953,1,0,0:0:0:0:
105,204,226122,1,0,0:0:0:0:
255,29,226292,1,0,0:0:0:0:
332,232,226461,1,0,0:0:0:0:
168,304,226631,1,0,0:0:0:0:
324,107,226800,5,0,0:0:0:0:
392,112,226885,1,0,0:0:0:0:
448,148,226970,1,0,0:0:0:0:
464,212,227054,1,0,0:0:0:0:
448,276,227139,1,0,0:0:0:0:
512,252,227224,5,0,0:0:0:0:
444,192,227309,1,0,0:0:0:0:
356,188,227393,1,0,0:0:0:0:
276,228,227478,1,0,0:0:0:0:
240,312,227563,1,0,0:0:0:0:
160,352,227648,1,0,0:0:0:0:
72,332,227732,1,0,0:0:0:0:
16,264,227817,2,0,L|0:204,1,45
109,96,227987,2,0,L|120:140,1,45
184,232,228156,6,0,P|232:224|284:208,1,90
453,331,228495,2,0,P|408:328|364:320,1,90
204,144,228834,1,0,0:0:0:0:
356,188,229004,2,0,P|361:138|356:96,1,90
116,16,229343,2,0,L|180:188,1,180
100,276,229851,2,0,L|4:264,1,90
178,184,230190,2,0,L|274:196,1,90
324,300,230529,1,0,0:0:0:0:
188,328,230698,1,0,0:0:0:0:
272,116,230868,6,0,L|376:156,1,90
198,82,231207,1,0,0:0:0:0:
384,160,231376,2,0,P|396:116|396:68,1,90
198,82,231715,1,0,0:0:0:0:
198,82,231885,1,0,0:0:0:0:
260,252,232054,1,0,0:0:0:0:
19,149,232224,1,0,0:0:0:0:
68,324,232393,1,0,0:0:0:0:
240,264,232563,1,0,0:0:0:0:
184,92,232732,1,0,0:0:0:0:
68,324,232902,6,0,L|96:276,1,45
236,220,233071,1,0,0:0:0:0:
236,220,233156,1,0,0:0:0:0:
236,220,233241,2,0,L|264:168,1,45
72,36,233410,1,0,0:0:0:0:
32,116,233495,1,0,0:0:0:0:
48,204,233580,2,0,L|160:184,1,90
316,156,233919,1,0,0:0:0:0:
72,36,234088,6,0,P|37:106|48:206,1,180
316,156,234597,1,0,0:0:0:0:
228,368,234766,6,0,L|184:188,1,180
60,324,235275,1,0,0:0:0:0:
185,193,235444,6,0,P|264:160|369:161,1,180
448,44,235953,2,0,L|352:12,1,90
184,72,236292,1,0,0:0:0:0:
356,128,236461,1,0,0:0:0:0:
185,193,236631,1,0,0:0:0:0:
357,249,236800,1,0,0:0:0:0:
93,326,236970,5,0,0:0:0:0:
148,73,237139,1,0,0:0:0:0:
357,249,237309,1,0,0:0:0:0:
357,249,237648,5,0,0:0:0:0:
256,100,237817,1,0,0:0:0:0:
128,312,237987,1,0,0:0:0:0:
396,236,238156,1,0,0:0:0:0:
40,116,238495,1,0,0:0:0:0:
260,372,238834,1,0,0:0:0:0:
256,192,238919,12,0,241546,0:0:0:0:
320,136,241715,6,0,L|376:132,2,45
