osu file format v14

[General]
AudioFilename: stella-rium.mp3
AudioLeadIn: 1000
PreviewTime: 52141
Countdown: 0
SampleSet: Soft
StackLeniency: 0.7
Mode: 0
LetterboxInBreaks: 0
WidescreenStoryboard: 0

[Editor]
DistanceSpacing: 2
BeatDivisor: 4
GridSize: 4
TimelineZoom: 1.4

[Metadata]
Title:Stella-rium
TitleUnicode:Stella-rium
Artist:Kano
ArtistUnicode:鹿乃
Creator:Fycho
Version:Insane
Source:放課後のプレアデス
Tags:Houkago no pleiades M45 opening TV Size tvsize
BeatmapID:674979
BeatmapSetID:301000

[Difficulty]
HPDrainRate:7
CircleSize:4
OverallDifficulty:7
ApproachRate:9
SliderMultiplier:1.7
SliderTickRate:1

[Events]
//Background and Video events
0,0,"subaru.jpg",0,0
Video,948,"pleiades.avi"
//Break Periods
//Storyboard Layer 0 (Background)
//Storyboard Layer 1 (Fail)
//Storyboard Layer 2 (Pass)
//Storyboard Layer 3 (Foreground)
//Storyboard Sound Samples

[TimingPoints]
955,338.983050847458,4,2,1,40,1,0
1971,-125,4,2,1,40,0,0
5192,-125,4,2,1,60,0,0
5531,-133.333333333333,4,2,1,60,0,0
5870,-200,4,2,1,40,0,0
6378,-100,4,2,1,60,0,0
17226,-125,4,2,1,50,0,0
26887,-100,4,2,1,60,0,0
38921,-133.333333333333,4,2,1,40,0,0
44344,-100,4,2,1,50,0,0
52480,-100,4,2,1,70,0,1
62734,-100,4,2,1,60,0,1
63327,-100,4,2,1,70,0,1
72904,-100,4,2,1,60,0,1
73497,-100,4,2,1,50,0,1
74175,-100,4,2,1,50,0,0
87904,-100,4,2,1,30,0,0

[Colours]
Combo1 : 133,182,175
Combo2 : 132,255,132
Combo3 : 30,131,255
Combo4 : 255,231,11

[HitObjects]
123,155,955,5,4,0:0:0:0:
248,133,1124,1,4,0:1:0:0:
373,111,1293,1,4,0:0:0:0:
373,111,1632,5,0,0:0:0:0:
370,194,1802,1,0,0:0:0:0:
460,160,1971,2,0,L|456:72,1,68,2|0,0:0|0:0,0:0:0:0:
456,92,2226,1,2,0:0:0:0:
456,92,2310,1,2,0:0:0:0:
373,111,2480,6,0,L|384:36,1,68,2|0,0:0|0:0,0:0:0:0:
296,48,2819,2,0,L|286:115,1,68,2|0,0:0|0:0,0:0:0:0:
212,64,3158,1,2,0:0:0:0:
204,144,3327,1,0,0:0:0:0:
122,137,3497,1,2,0:0:0:0:
122,137,3582,1,2,0:0:0:0:
122,137,3666,5,4,0:0:0:0:
255,167,3836,1,4,0:1:0:0:
386,199,4005,1,4,0:0:0:0:
386,199,4344,6,0,L|394:271,1,68
291,357,4683,2,0,L|299:289,1,68,2|0,0:0|0:0,0:0:0:0:
298,289,4938,1,2,0:0:0:0:
298,289,5022,1,0,1:0:0:0:
122,137,5192,5,4,0:0:0:0:
459,46,5531,2,0,L|379:41,1,63.7500024318696,4|0,0:0|0:0,0:0:0:0:
459,46,5870,6,0,P|475:93|467:160,1,106.25,2|0,0:0|0:0,0:0:0:0:
459,160,6378,6,0,L|277:151,1,170,4|8,0:0|0:0,0:0:0:0:
78,269,6887,1,2,0:0:0:0:
78,269,6971,1,2,0:0:0:0:
78,269,7056,2,0,L|178:253,1,85,8|8,0:1|0:1,0:0:0:0:
219,89,7395,2,0,L|135:102,1,85,8|2,0:0|0:0,0:0:0:0:
135,102,7649,1,2,0:0:0:0:
135,102,7734,5,8,0:1:0:0:
284,161,7904,1,2,0:0:0:0:
229,362,8073,2,0,P|218:307|229:282,1,85,8|2,0:0|0:0,0:0:0:0:
364,279,8412,1,8,0:1:0:0:
284,161,8582,1,10,0:1:0:0:
95,237,8751,2,0,P|148:232|179:210,1,85,8|2,0:0|0:0,0:0:0:0:
310,45,9090,6,0,P|222:60|166:126,1,170,10|8,0:1|0:0,0:0:0:0:
402,128,9599,1,2,0:0:0:0:
402,128,9683,1,2,0:0:0:0:
402,128,9768,2,0,L|403:37,1,85,8|8,0:1|0:1,0:0:0:0:
490,189,10107,1,8,0:0:0:0:
299,201,10277,2,0,L|299:153,2,42.5,2|2|8,0:0|0:0|0:1,0:0:0:0:
365,312,10616,5,2,0:0:0:0:
365,312,10700,1,2,0:0:0:0:
365,312,10785,1,8,0:0:0:0:
464,232,10955,2,0,P|479:192|470:151,1,85,2|8,0:0|0:1,0:0:0:0:
219,212,11293,1,10,0:1:0:0:
367,157,11463,1,8,0:0:0:0:
259,87,11632,1,2,0:0:0:0:
458,55,11802,6,0,L|367:59,1,85,4|0,0:0|0:0,0:0:0:0:
219,213,12141,2,0,L|305:209,1,85,8|0,0:0|0:0,0:0:0:0:
194,33,12480,2,0,P|176:73|186:130,1,85,10|8,0:1|0:1,0:0:0:0:
380,269,12819,2,0,P|398:229|387:180,1,85,8|0,0:0|0:0,0:0:0:0:
134,216,13158,6,0,L|219:212,1,85,10|0,0:1|0:0,0:0:0:0:
458,55,13497,2,0,L|374:60,1,85,8|0,0:0|0:0,0:0:0:0:
461,273,13836,2,0,P|472:233|459:194,1,85,10|8,0:1|0:1,0:0:0:0:
183,20,14175,2,0,P|173:61|186:100,1,85,8|0,0:0|0:0,0:0:0:0:
329,11,14514,5,10,0:1:0:0:
329,11,14683,1,0,0:0:0:0:
233,172,14853,1,8,0:0:0:0:
134,148,15022,1,2,0:0:0:0:
134,148,15107,1,2,0:0:0:0:
134,148,15192,1,8,0:1:0:0:
74,334,15361,1,10,0:1:0:0:
159,277,15531,1,8,0:0:0:0:
357,329,15700,1,2,0:0:0:0:
309,240,15870,5,8,0:1:0:0:
309,240,16039,1,10,0:1:0:0:
191,367,16209,2,0,L|214:263,1,85,8|8,0:0|0:1,0:0:0:0:
209,284,16463,1,8,0:0:0:0:
209,284,16548,1,8,0:0:0:0:
131,223,16717,1,4,0:3:0:0:
299,333,16887,1,4,0:3:0:0:
221,181,17056,1,0,0:3:0:0:
191,368,17226,6,0,L|41:347,1,136,4|0,0:0|0:0,0:0:0:0:
0,262,17734,2,0,L|134:280,1,136,2|0,0:0|0:0,0:0:0:0:
376,356,18412,6,0,P|423:312|410:174,1,204,2|0,0:0|0:0,0:0:0:0:
212,156,19260,2,0,P|247:165|296:163,1,68,2|0,0:0|0:0,0:0:0:0:
132,132,19599,2,0,P|91:148|67:171,1,68,2|8,0:0|0:1,0:0:0:0:
29,254,19938,6,0,L|40:100,1,136,10|0,0:1|0:0,0:0:0:0:
100,43,20446,2,0,P|141:42|223:105,1,136,2|0,0:0|0:0,0:0:0:0:
202,190,20955,5,0,0:0:0:0:
202,190,21124,2,0,P|240:127|374:104,1,204,2|2,0:0|0:0,0:0:0:0:
439,158,21802,2,0,P|460:216|429:293,1,136,2|0,0:0|0:0,0:0:0:0:
290,160,22480,1,0,0:0:0:0:
238,241,22649,6,0,P|196:188|201:122,1,136,10|0,0:1|0:0,0:0:0:0:
272,47,23158,2,0,L|136:37,1,136,2|0,0:0|0:0,0:0:0:0:
67,119,23666,5,0,0:0:0:0:
67,119,23836,2,0,P|99:179|94:313,1,204,2|0,0:0|0:0,0:0:0:0:
167,365,24514,1,0,0:0:0:0:
225,295,24683,2,0,P|263:277|297:275,1,68,2|0,0:0|0:0,0:0:0:0:
425,347,25022,2,0,P|385:335|352:308,1,68,2|8,0:0|0:1,0:0:0:0:
350,219,25361,6,0,L|314:353,1,136,10|0,0:1|0:0,0:0:0:0:
225,106,25870,2,0,P|217:180|263:231,1,136,2|0,0:0|0:0,0:0:0:0:
298,152,26378,1,0,0:0:0:0:
175,210,26548,1,0,0:0:0:0:
379,210,26717,5,8,0:0:0:0:
231,143,26887,2,0,L|233:59,1,85,8|0,0:1|0:0,0:0:0:0:
334,281,27226,2,0,L|333:366,1,85,8|0,0:1|0:0,0:0:0:0:
77,301,27565,5,8,1:2:0:0:
261,289,27734,1,0,1:0:0:0:
166,129,27904,1,8,1:2:0:0:
74,78,28073,6,0,B|107:33|107:33|153:57|226:32,1,170,4|8,0:0|0:0,0:0:0:0:
361,119,28582,2,0,P|307:107|271:119,1,85,2|8,0:0|0:1,0:0:0:0:
195,230,28921,1,10,0:1:0:0:
195,230,29005,1,2,0:0:0:0:
195,230,29090,1,8,0:0:0:0:
304,213,29260,1,2,0:0:0:0:
408,264,29429,6,0,L|396:353,1,85,8|2,0:1|0:0,0:0:0:0:
304,213,29768,2,0,L|315:128,1,85,8|2,0:0|0:0,0:0:0:0:
315,128,30022,1,2,0:0:0:0:
315,128,30107,1,8,0:1:0:0:
410,166,30277,1,10,0:1:0:0:
196,231,30446,2,0,L|184:320,1,85,8|0,0:0|0:0,0:0:0:0:
199,148,30785,6,0,B|140:136|86:157|86:157|53:149|43:121,1,170,10|8,0:1|0:0,0:0:0:0:
46,244,31293,1,2,0:0:0:0:
46,244,31378,1,2,0:0:0:0:
46,244,31463,2,0,P|56:298|47:338,1,85,8|8,0:1|0:1,0:0:0:0:
196,231,31802,2,0,P|190:189|200:147,1,85,8|2,0:0|0:0,0:0:0:0:
370,185,32141,6,0,P|391:240|370:354,1,170,10|8,0:1|0:0,0:0:0:0:
127,291,32649,1,2,0:0:0:0:
127,291,32734,1,2,0:0:0:0:
127,291,32819,2,0,P|107:245|109:211,1,85,8|10,0:1|0:1,0:0:0:0:
190,28,33158,1,8,0:0:0:0:
261,99,33327,1,2,0:0:0:0:
95,122,33497,6,0,L|-18:113,1,85,4|0,0:0|0:0,0:0:0:0:
227,219,33836,2,0,L|311:225,1,85,8|2,0:0|0:0,0:0:0:0:
392,143,34175,1,8,0:1:0:0:
405,321,34344,1,10,0:1:0:0:
405,321,34429,1,2,0:0:0:0:
405,321,34514,2,0,P|426:273|414:229,1,85,8|0,0:0|0:0,0:0:0:0:
367,64,34853,6,0,L|463:76,1,85,10|0,0:1|0:0,0:0:0:0:
273,9,35192,1,8,0:0:0:0:
190,128,35361,2,0,L|282:136,1,85,2|8,0:0|0:1,0:0:0:0:
129,37,35700,1,10,0:1:0:0:
129,37,35785,1,2,0:0:0:0:
129,37,35870,1,8,0:0:0:0:
57,124,36039,1,0,0:0:0:0:
121,292,36209,6,0,P|133:245|116:203,1,85,10|0,0:1|0:0,0:0:0:0:
252,286,36548,2,0,P|239:332|257:375,1,85,8|0,0:0|0:0,0:0:0:0:
436,212,36887,1,10,0:1:0:0:
322,246,37056,1,8,0:1:0:0:
492,289,37226,1,12,0:0:0:0:
360,164,37395,1,0,0:0:0:0:
477,123,37565,5,10,0:1:0:0:
322,246,37734,1,10,0:1:0:0:
498,242,37904,1,8,0:0:0:0:
402,71,38073,5,8,0:3:0:0:
402,71,38158,1,8,0:3:0:0:
402,71,38243,1,8,0:1:0:0:
485,166,38412,1,8,0:3:0:0:
360,164,38582,1,4,0:3:0:0:
232,160,38751,1,0,0:0:0:0:
244,293,38921,6,0,P|263:237|248:108,1,191.250007295609,4|10,0:0|0:1,0:0:0:0:
345,264,39599,2,0,P|339:289|340:335,1,63.7500024318696,8|8,0:0|0:1,0:0:0:0:
510,169,39938,2,0,L|383:192,1,127.500004863739,2|10,0:0|0:1,0:0:0:0:
512,300,40446,6,0,P|518:201|500:179,1,127.500004863739,8|10,0:0|0:1,0:0:0:0:
425,77,40955,2,0,L|417:152,1,63.7500024318696,8|8,0:0|0:1,0:0:0:0:
321,125,41293,2,0,L|333:187,1,63.7500024318696,2|0,0:0|0:0,0:0:0:0:
230,98,41632,6,0,P|176:78|43:119,1,191.250007295609,10|10,0:1|0:1,0:0:0:0:
47,254,42310,2,0,P|64:203|57:177,1,63.7500024318696,8|8,0:0|0:1,0:0:0:0:
105,318,42649,2,0,P|188:347|234:329,1,127.500004863739,2|10,0:0|0:1,0:0:0:0:
283,267,43158,6,0,P|344:256|400:285,1,127.500004863739,8|8,0:0|0:1,0:0:0:0:
492,324,43666,2,0,L|477:227,1,95.6250036478044,0|0,1:0|1:0,0:0:0:0:
470,207,44005,2,0,L|483:145,1,63.7500024318696,0|0,1:0|0:0,0:0:0:0:
512,47,44344,6,0,P|448:31|424:38,1,85,4|0,0:0|0:0,0:0:0:0:
246,119,44683,2,0,P|284:134|326:130,1,85,0|0,1:0|0:0,0:0:0:0:
332,243,45022,2,0,L|319:335,1,85,10|8,0:1|0:1,0:0:0:0:
475,198,45361,2,0,L|459:115,1,85,0|0,1:0|0:0,0:0:0:0:
302,54,45700,5,10,0:1:0:0:
212,191,45870,1,8,0:1:0:0:
379,124,46039,1,2,0:0:0:0:
206,96,46209,5,2,1:0:0:0:
380,124,46378,1,0,0:0:0:0:
255,263,46548,1,10,0:1:0:0:
283,154,46717,5,0,1:0:0:0:
155,267,46887,1,0,0:0:0:0:
129,162,47056,6,0,P|93:185|52:190,1,85,4|0,0:0|0:0,0:0:0:0:
282,154,47395,2,0,L|385:170,1,85,0|0,1:0|0:0,0:0:0:0:
266,314,47734,2,0,P|240:270|239:229,1,85,10|8,0:1|0:1,0:0:0:0:
451,157,48073,2,0,P|445:198|422:233,1,85,0|0,1:0|0:0,0:0:0:0:
464,73,48412,5,10,0:1:0:0:
512,270,48582,1,8,0:1:0:0:
314,216,48751,1,2,0:0:0:0:
487,166,48921,5,2,1:0:0:0:
320,329,49090,1,0,0:0:0:0:
314,216,49260,1,10,0:1:0:0:
512,270,49429,6,0,L|508:181,1,85,0|0,1:0|0:0,0:0:0:0:
237,280,49768,1,4,0:0:0:0:
237,280,51124,5,0,1:0:0:0:
257,252,51209,1,0,1:0:0:0:
267,219,51293,2,0,L|259:175,1,42.5,0|0,1:0|1:0,0:0:0:0:
182,139,51463,2,0,L|193:82,1,42.5,0|0,1:0|1:0,1:0:0:0:
244,29,51632,1,12,1:0:0:0:
134,195,52480,6,0,L|120:280,1,85,4|2,0:0|0:0,0:0:0:0:
272,121,52819,1,8,0:0:0:0:
224,205,52988,1,2,0:0:0:0:
215,56,53158,5,8,0:1:0:0:
325,195,53327,1,10,0:1:0:0:
168,284,53497,1,8,0:0:0:0:
224,205,53666,1,2,0:0:0:0:
334,354,53836,6,0,P|358:296|354:264,1,85,8|10,0:1|0:1,0:0:0:0:
329,93,54175,2,0,L|429:106,1,85,8|2,0:0|0:0,0:0:0:0:
413,103,54429,1,2,0:0:0:0:
413,103,54514,1,8,0:1:0:0:
260,182,54683,1,10,0:1:0:0:
177,122,54853,2,0,L|188:33,1,85,8|2,0:0|0:0,0:0:0:0:
187,37,55107,1,2,0:0:0:0:
187,37,55192,5,8,0:1:0:0:
267,99,55361,1,2,0:0:0:0:
97,242,55531,1,8,0:0:0:0:
72,145,55700,1,2,0:0:0:0:
242,270,55870,5,8,0:1:0:0:
168,347,56039,1,10,0:1:0:0:
246,153,56209,1,8,0:0:0:0:
330,213,56378,1,2,0:0:0:0:
467,101,56548,6,0,L|460:193,1,85,8|10,0:1|0:1,0:0:0:0:
267,40,56887,1,8,0:0:0:0:
246,154,57056,5,2,0:0:0:0:
246,154,57141,1,2,0:0:0:0:
246,154,57226,1,8,0:1:0:0:
345,104,57395,1,10,0:1:0:0:
329,213,57565,1,8,0:0:0:0:
176,89,57734,1,2,0:0:0:0:
73,275,57904,6,0,P|70:207|73:176,1,85,12|2,0:1|0:0,0:0:0:0:
212,266,58243,2,0,P|213:308|210:350,1,85,8|2,0:0|0:0,0:0:0:0:
203,155,58582,2,0,L|287:164,1,85,8|10,0:1|0:1,0:0:0:0:
380,253,58921,2,0,L|462:230,1,85,8|2,0:0|0:0,0:0:0:0:
331,45,59260,6,0,P|317:101|319:142,1,85,8|10,0:1|0:1,0:0:0:0:
164,284,59599,2,0,P|178:228|176:187,1,85,8|2,0:0|0:0,0:0:0:0:
162,71,59938,1,8,0:1:0:0:
162,71,60107,1,10,0:1:0:0:
280,216,60277,2,0,L|345:290,1,85,8|2,0:0|0:0,0:0:0:0:
471,56,60616,6,0,P|405:70|342:162,1,170,10|8,0:1|0:0,0:0:0:0:
458,162,61124,1,0,0:0:0:0:
216,124,61293,2,0,L|209:225,1,85,10|8,0:1|0:1,0:0:0:0:
366,40,61632,1,8,0:0:0:0:
300,178,61802,1,0,0:0:0:0:
206,44,61971,5,10,0:1:0:0:
368,126,62141,1,10,0:1:0:0:
111,171,62310,2,0,P|100:218|122:263,1,85,12|2,0:0|0:0,0:0:0:0:
185,365,62649,5,8,0:1:0:0:
222,345,62734,1,0,1:0:0:0:
263,337,62819,1,0,1:0:0:0:
305,339,62904,1,0,1:0:0:0:
346,347,62988,1,0,1:0:0:0:
388,350,63073,1,0,1:0:0:0:
429,338,63158,1,0,1:0:0:0:
465,315,63243,1,0,1:0:0:0:
487,279,63327,6,0,L|479:184,1,85,4|2,0:0|0:0,0:0:0:0:
266,90,63666,2,0,P|242:130|243:171,1,85,8|2,0:0|0:0,0:0:0:0:
472,119,64005,1,8,0:1:0:0:
422,36,64175,1,10,0:1:0:0:
321,151,64344,1,8,0:0:0:0:
371,234,64514,1,2,0:0:0:0:
422,36,64683,5,8,0:1:0:0:
371,234,64853,1,10,0:1:0:0:
472,119,65022,1,8,0:0:0:0:
316,42,65192,1,2,0:0:0:0:
316,42,65277,1,2,0:0:0:0:
316,42,65361,5,8,0:1:0:0:
422,36,65531,1,10,0:1:0:0:
268,118,65700,2,0,L|279:204,1,85,8|2,0:0|0:0,0:0:0:0:
298,333,66039,5,10,0:1:0:0:
268,118,66209,1,10,0:1:0:0:
105,247,66378,2,0,L|194:229,1,85,8|2,0:0|0:0,0:0:0:0:
337,200,66717,1,8,0:0:0:0:
269,118,66887,2,0,L|185:104,1,85,10|0,0:1|0:0,0:0:0:0:
309,355,67226,6,0,P|349:284|334:193,1,170,4|0,0:0|0:0,0:0:0:0:
105,247,67734,1,8,0:0:0:0:
189,288,67904,1,2,0:0:0:0:
269,118,68073,2,0,L|175:133,1,85,8|10,0:1|0:1,0:0:0:0:
345,174,68412,1,8,0:0:0:0:
423,26,68582,1,2,0:0:0:0:
485,113,68751,6,0,P|493:126|492:214,1,85,4|2,0:0|0:0,0:0:0:0:
364,330,69090,2,0,L|378:238,1,85,8|2,0:0|0:0,0:0:0:0:
269,118,69429,2,0,P|245:170|254:216,1,85,8|10,0:1|0:1,0:0:0:0:
419,30,69768,2,0,L|318:44,1,85,8|2,0:0|0:0,0:0:0:0:
156,120,70107,6,0,P|103:106|66:91,1,85,8|10,0:1|0:1,0:0:0:0:
334,189,70446,2,0,P|288:201|243:215,1,85,8|2,0:0|0:0,0:0:0:0:
489,100,70785,2,0,P|479:141|474:183,1,85,8|10,0:1|0:1,0:0:0:0:
418,353,71124,2,0,P|412:310|403:269,1,85,8|2,0:0|0:0,0:0:0:0:
139,337,71463,6,0,B|181:312|248:337|248:337|271:321|286:286,1,170,4|8,0:0|0:0,0:0:0:0:
180,210,71971,1,2,0:0:0:0:
47,243,72141,2,0,L|29:326,1,85,8|10,0:1|0:1,0:0:0:0:
180,210,72480,1,8,0:0:0:0:
109,116,72649,1,2,0:0:0:0:
335,120,72819,5,8,0:1:0:0:
303,110,72904,1,0,1:0:0:0:
270,110,72988,1,0,1:0:0:0:
238,119,73073,1,0,1:0:0:0:
206,129,73158,1,0,1:0:0:0:
172,131,73243,1,0,1:0:0:0:
139,129,73327,1,0,1:0:0:0:
108,115,73412,1,0,1:0:0:0:
84,91,73497,6,0,L|84:44,1,42.5,8|0,0:3|0:0,0:0:0:0:
121,224,73666,2,0,L|86:256,1,42.5,8|0,0:3|0:0,0:0:0:0:
208,129,73836,2,0,L|252:146,1,42.5,8|0,0:3|0:0,0:0:0:0:
265,301,74005,2,0,L|255:245,1,42.5,8|0,0:3|0:0,0:0:0:0:
394,273,74175,6,0,L|376:375,1,85,4|0,0:0|0:0,0:0:0:0:
186,350,74514,2,0,L|212:217,1,127.5,8|0,0:0|0:0,0:0:0:0:
210,224,74853,1,10,0:1:0:0:
300,273,75022,1,10,0:1:0:0:
93,229,75192,2,0,P|83:270|96:311,1,85,8|0,0:0|0:0,0:0:0:0:
158,97,75531,5,10,0:1:0:0:
274,134,75700,2,0,L|367:122,1,85,2|8,0:0|0:0,0:0:0:0:
228,47,76039,1,0,0:0:0:0:
188,197,76209,2,0,L|160:292,1,85,10|10,0:1|0:1,0:0:0:0:
57,144,76548,1,8,0:0:0:0:
65,47,76717,1,0,0:0:0:0:
30,255,76887,6,0,P|88:251|119:236,1,85,10|0,0:1|0:0,0:0:0:0:
401,144,77226,2,0,P|343:148|312:163,1,85,8|0,0:0|0:0,0:0:0:0:
478,262,77565,1,10,0:1:0:0:
378,240,77734,1,10,0:1:0:0:
288,290,77904,2,0,L|308:394,1,85,8|0,0:0|0:0,0:0:0:0:
148,204,78243,6,0,P|164:132|152:108,1,85,10|10,0:1|0:1,0:0:0:0:
152,316,78582,1,8,0:0:0:0:
160,120,78751,1,2,0:0:0:0:
254,58,78921,1,8,0:1:0:0:
284,43,79005,1,0,1:0:0:0:
317,46,79090,1,0,1:0:0:0:
349,55,79175,1,0,1:0:0:0:
374,77,79260,1,0,1:0:0:0:
399,99,79344,1,0,1:0:0:0:
433,106,79429,1,0,1:0:0:0:
466,101,79514,1,0,1:0:0:0:
492,79,79599,5,4,0:0:0:0:
306,132,79768,1,0,0:0:0:0:
433,19,79938,1,8,0:0:0:0:
226,81,80107,6,0,P|199:184|200:255,1,170,4|8,0:0|0:1,0:0:0:0:
379,159,80616,1,8,0:0:0:0:
469,327,80785,6,0,B|414:306|361:351|299:322,1,170,4|8,0:0|0:1,0:0:0:0:
242,213,81293,1,8,0:0:0:0:
36,103,81463,6,0,B|91:124|144:79|206:108,1,170,4|8,0:0|0:1,0:0:0:0:
186,6,81971,1,8,0:0:0:0:
146,203,82141,1,8,0:1:0:0:
146,203,82226,1,8,0:1:0:0:
146,203,82310,6,0,P|156:269|180:297,1,85,12|8,0:0|0:1,0:0:0:0:
274,211,82649,1,8,0:0:0:0:
234,358,82819,1,8,0:1:0:0:
227,127,82988,5,8,0:0:0:0:
363,210,83158,1,8,0:1:0:0:
282,50,83327,1,8,0:0:0:0:
186,208,83497,1,0,0:0:0:0:
401,292,83666,5,0,1:0:0:0:
320,137,83836,1,0,1:0:0:0:
224,286,84005,1,0,1:0:0:0:
466,220,84175,5,8,1:0:0:0:
155,349,84514,1,8,1:0:0:0:
204,12,84853,1,12,1:0:0:0:
256,192,84938,12,4,87904,0:3:0:0:
