osu file format v14

[General]
AudioFilename: stella-rium.mp3
AudioLeadIn: 1000
PreviewTime: 52141
Countdown: 0
SampleSet: Soft
StackLeniency: 0.7
Mode: 0
LetterboxInBreaks: 0
WidescreenStoryboard: 0

[Editor]
DistanceSpacing: 1.2
BeatDivisor: 4
GridSize: 4
TimelineZoom: 1.4

[Metadata]
Title:Stella-rium
TitleUnicode:Stella-rium
Artist:Kano
ArtistUnicode:鹿乃
Creator:Fycho
Version:Hard
Source:放課後のプレアデス
Tags:Houkago no pleiades M45 opening TV Size tvsize
BeatmapID:677310
BeatmapSetID:301000

[Difficulty]
HPDrainRate:6
CircleSize:4
OverallDifficulty:6
ApproachRate:8
SliderMultiplier:1.5
SliderTickRate:1

[Events]
//Background and Video events
0,0,"subaru.jpg",0,0
Video,948,"pleiades.avi"
//Break Periods
//Storyboard Layer 0 (Background)
//Storyboard Layer 1 (Fail)
//Storyboard Layer 2 (Pass)
//Storyboard Layer 3 (Foreground)
//Storyboard Sound Samples

[TimingPoints]
955,338.983050847458,4,2,1,40,1,0
1971,-125,4,2,1,40,0,0
3666,-100,4,2,1,40,0,0
4683,-125,4,2,1,40,0,0
5192,-100,4,2,1,60,0,0
5531,-133.333333333333,4,2,1,60,0,0
5870,-200,4,2,1,40,0,0
6378,-100,4,2,1,60,0,0
17226,-125,4,2,1,50,0,0
26887,-100,4,2,1,60,0,0
38921,-133.333333333333,4,2,1,40,0,0
44344,-100,4,2,1,50,0,0
52480,-100,4,2,1,70,0,1
73497,-100,4,2,1,50,0,1
74175,-100,4,2,1,50,0,0
87904,-100,4,2,1,30,0,0

[Colours]
Combo1 : 133,182,175
Combo2 : 132,255,132
Combo3 : 30,131,255
Combo4 : 255,231,11

[HitObjects]
350,252,955,6,0,L|380:181,1,75,4|4,0:0|0:1,0:0:0:0:
455,148,1293,2,0,P|381:143|329:91,1,150,4|0,0:0|0:0,0:0:0:0:
255,42,1802,5,0,0:0:0:0:
255,42,1971,2,0,L|174:37,1,60,2|0,0:0|0:0,0:0:0:0:
85,97,2310,1,2,0:0:0:0:
85,97,2480,2,0,L|144:100,1,60,2|0,0:0|0:0,0:0:0:0:
208,156,2819,2,0,L|267:159,1,60,2|0,0:0|0:0,0:0:0:0:
320,220,3158,2,0,L|379:223,2,60,2|0|2,0:0|0:0|0:0,0:0:0:0:
225,244,3666,6,0,L|257:340,1,75,4|4,0:0|0:1,0:0:0:0:
175,353,4005,2,0,P|102:358|48:305,1,150,4|0,0:0|0:0,0:0:0:0:
73,228,4514,1,0,0:0:0:0:
73,228,4683,2,0,L|82:145,2,60,2|0|0,0:0|0:0|1:0,0:0:0:0:
163,225,5192,6,0,L|166:60,2,150,4|4|2,0:0|0:0|0:0,0:0:0:0:
163,225,6378,6,0,P|245:237|300:282,1,150,4|8,0:0|0:0,0:0:0:0:
378,289,6887,1,2,0:0:0:0:
459,279,7056,2,0,P|490:239|490:207,1,75,8|8,0:1|0:1,0:0:0:0:
467,136,7395,2,0,L|483:45,1,75,8|2,0:0|0:0,0:0:0:0:
406,24,7734,5,8,0:1:0:0:
324,36,7904,1,2,0:0:0:0:
270,98,8073,2,0,P|259:126|265:172,1,75,8|2,0:0|0:0,0:0:0:0:
311,237,8412,1,8,0:1:0:0:
311,237,8582,1,10,0:1:0:0:
249,291,8751,2,0,L|230:363,1,75,8|2,0:0|0:0,0:0:0:0:
178,245,9090,6,0,P|97:215|35:229,1,150,10|8,0:1|0:0,0:0:0:0:
6,150,9599,1,2,0:0:0:0:
6,150,9768,2,0,P|-1:95|17:66,2,75,8|8|8,0:1|0:1|0:0,0:0:0:0:
89,149,10277,1,2,0:0:0:0:
161,110,10446,6,0,P|178:77|178:39,1,75,8|2,0:1|0:0,0:0:0:0:
259,22,10785,1,8,0:0:0:0:
339,39,10955,1,2,0:0:0:0:
376,112,11124,2,0,L|361:216,1,75,8|10,0:1|0:1,0:0:0:0:
346,266,11463,1,8,0:0:0:0:
343,348,11632,1,2,0:0:0:0:
241,355,11802,6,0,L|260:189,1,150,4|8,0:0|0:0,0:0:0:0:
191,157,12310,1,0,0:0:0:0:
110,148,12480,2,0,P|58:167|31:166,1,75,10|8,0:1|0:1,0:0:0:0:
34,249,12819,2,0,P|57:296|52:340,1,75,8|0,0:0|0:0,0:0:0:0:
143,282,13158,6,0,L|323:302,2,150,10|8|10,0:1|0:0|0:1,0:0:0:0:
120,202,14005,1,8,0:1:0:0:
189,156,14175,2,0,L|209:71,1,75,8|0,0:0|0:0,0:0:0:0:
140,33,14514,5,10,0:1:0:0:
66,69,14683,1,0,0:0:0:0:
140,33,14853,2,0,L|297:35,1,150,8|8,0:0|0:1,0:0:0:0:
370,15,15361,1,10,0:1:0:0:
439,59,15531,1,8,0:0:0:0:
448,140,15700,1,2,0:0:0:0:
400,207,15870,6,0,L|386:297,1,75,8|10,0:1|0:1,0:0:0:0:
310,232,16209,2,0,L|296:322,1,75,8|8,0:0|0:1,0:0:0:0:
298,306,16463,1,8,0:0:0:0:
298,306,16548,1,8,0:0:0:0:
221,251,16717,2,0,L|207:341,2,75,4|4|0,0:3|0:3|0:3,0:0:0:0:
153,214,17226,6,0,P|103:201|17:225,1,120,4|0,0:0|0:0,0:0:0:0:
15,290,17734,2,0,L|32:166,2,120,2|2|2,0:0|0:0|0:0,0:0:0:0:
259,289,18921,6,0,P|274:225|268:213,1,60,2|0,0:0|0:0,0:0:0:0:
277,155,19260,2,0,P|270:109|253:87,1,60,2|0,0:0|0:0,0:0:0:0:
208,42,19599,2,0,P|163:27|125:29,1,60,2|8,0:0|0:1,0:0:0:0:
80,60,19938,6,0,L|66:189,1,120,10|0,0:1|0:0,0:0:0:0:
138,249,20446,2,0,L|150:129,2,120,2|2|2,0:0|0:0|0:0,0:0:0:0:
283,95,21632,5,2,0:0:0:0:
283,95,21802,2,0,P|310:82|413:80,1,120,2|2,0:0|0:0,0:0:0:0:
441,145,22310,2,0,P|447:184|439:219,1,60
411,277,22649,6,0,P|343:297|283:286,1,120,10|0,0:1|0:0,0:0:0:0:
218,275,23158,2,0,P|137:275|94:297,1,120,2|0,0:0|0:0,0:0:0:0:
61,357,23666,1,0,0:0:0:0:
61,357,23836,6,0,P|88:279|79:184,1,180,2|0,0:0|0:0,0:0:0:0:
43,31,24683,2,0,L|166:45,1,120,2|2,0:0|0:0,0:0:0:0:
202,111,25192,1,8,0:1:0:0:
279,111,25361,6,0,P|296:173|294:247,1,120,10|0,0:1|0:0,0:0:0:0:
251,292,25870,2,0,P|309:308|372:258,1,120,2|0,0:0|0:0,0:0:0:0:
426,242,26378,1,0,0:0:0:0:
436,164,26548,1,0,0:0:0:0:
397,96,26717,5,8,0:0:0:0:
397,96,26887,2,0,L|303:122,1,75,8|0,0:1|0:0,0:0:0:0:
302,195,27226,2,0,L|224:175,1,75,8|0,0:1|0:0,0:0:0:0:
158,133,27565,2,0,L|73:155,2,75,8|0|8,1:2|1:0|1:2,0:0:0:0:
55,232,28073,6,0,P|4:140|27:89,1,150,4|8,0:0|0:0,0:0:0:0:
49,20,28582,2,0,L|223:10,1,150,2|10,0:0|0:1,0:0:0:0:
257,79,29090,1,8,0:0:0:0:
325,136,29260,6,0,L|486:125,1,150,2|2,0:0|0:0,0:0:0:0:
447,211,29768,2,0,L|443:288,1,75,8|2,0:0|0:0,0:0:0:0:
355,330,30107,2,0,L|358:255,1,75,8|10,0:1|0:1,0:0:0:0:
278,226,30446,2,0,L|274:303,1,75,8|0,0:0|0:0,0:0:0:0:
187,274,30785,6,0,P|108:279|43:313,1,150,10|8,0:1|0:0,0:0:0:0:
139,372,31293,2,0,P|218:367|283:333,1,150,2|8,0:0|0:1,0:0:0:0:
303,247,31802,1,8,0:0:0:0:
381,204,31971,6,0,L|392:36,1,150,2|0,0:0|0:0,0:0:0:0:
284,26,32480,2,0,L|301:107,1,75,8|2,0:0|0:0,0:0:0:0:
272,185,32819,2,0,L|197:186,1,75,8|10,0:1|0:1,0:0:0:0:
286,339,33158,2,0,L|303:258,1,75,8|2,0:0|0:0,0:0:0:0:
213,284,33497,6,0,P|115:293|70:264,1,150,4|8,0:0|0:0,0:0:0:0:
42,183,34005,2,0,P|61:57|73:18,1,150,2|10,0:0|0:1,0:0:0:0:
154,9,34514,2,0,P|202:24|222:42,1,75,8|0,0:0|0:0,0:0:0:0:
377,53,34853,6,0,P|308:73|286:69,1,75,10|0,0:1|0:0,0:0:0:0:
240,122,35192,1,8,0:0:0:0:
296,182,35361,2,0,P|300:238|281:334,1,150,2|10,0:0|0:1,0:0:0:0:
208,290,35870,1,8,0:0:0:0:
146,235,36039,6,0,P|96:242|-27:271,1,150,2|0,0:0|0:0,0:0:0:0:
12,175,36548,1,8,0:0:0:0:
20,93,36717,1,0,0:0:0:0:
99,70,36887,2,0,L|96:164,1,75,10|8,0:1|0:1,0:0:0:0:
178,134,37226,1,12,0:0:0:0:
191,52,37395,1,0,0:0:0:0:
269,77,37565,6,0,L|267:177,1,75,10|10,0:1|0:1,0:0:0:0:
349,160,37904,1,8,0:0:0:0:
422,123,38073,1,8,0:3:0:0:
422,123,38158,1,8,0:3:0:0:
422,123,38243,2,0,L|415:43,2,75,8|8|4,0:1|0:3|0:3,0:0:0:0:
479,182,38751,1,0,0:0:0:0:
454,265,38921,6,0,P|348:276|325:274,1,112.500004291535,4|0,0:0|0:0,0:0:0:0:
264,265,39429,2,0,L|260:346,2,56.2500021457673,10|8|8,0:1|0:0|0:1,0:0:0:0:
336,98,40277,6,0,L|338:41,1,56.2500021457673,10|8,0:1|0:0,0:0:0:0:
148,166,40785,2,0,L|145:222,2,56.2500021457673,10|8|8,0:1|0:0|0:1,0:0:0:0:
224,40,41632,6,0,P|103:24|59:33,1,168.750006437302,10|10,0:1|0:1,0:0:0:0:
47,111,42310,2,0,P|37:144|43:191,1,56.2500021457673,8|8,0:0|0:1,0:0:0:0:
81,230,42649,2,0,L|72:298,1,56.2500021457673,2|0,0:0|0:0,0:0:0:0:
151,273,42988,5,10,0:1:0:0:
213,224,43158,2,0,P|363:224|385:221,1,168.750006437302,8|0,0:0|1:0,0:0:0:0:
439,75,44005,2,0,L|365:82,1,56.2500021457673,0|0,1:0|0:0,0:0:0:0:
300,88,44344,6,0,L|209:75,1,75,4|0,0:0|0:0,0:0:0:0:
143,70,44683,2,0,P|129:138|138:162,1,75,0|0,1:0|0:0,0:0:0:0:
185,202,45022,1,10,0:1:0:0:
229,271,45192,1,8,0:1:0:0:
206,350,45361,2,0,L|125:354,1,75,0|0,1:0|0:0,0:0:0:0:
229,271,45700,6,0,L|328:266,2,75,10|8|2,0:1|0:1|0:0,0:0:0:0:
145,273,46209,2,0,P|112:237|106:204,2,75,2|0|10,1:0|0:0|0:1,0:0:0:0:
185,202,46717,2,0,P|218:166|224:133,1,75,0|0,1:0|0:0,0:0:0:0:
233,57,47056,6,0,L|323:48,1,75,4|0,0:0|0:0,0:0:0:0:
422,116,47395,2,0,L|347:123,1,75,0|0,1:0|0:0,0:0:0:0:
285,178,47734,1,10,0:1:0:0:
204,159,47904,1,8,0:1:0:0:
125,182,48073,2,0,L|48:188,1,75,0|0,1:0|0:0,0:0:0:0:
204,159,48412,6,0,P|210:104|190:73,2,75,10|8|2,0:1|0:1|0:0,0:0:0:0:
210,242,48921,2,0,L|284:236,2,75,2|0|10,1:0|0:0|0:1,0:0:0:0:
137,281,49429,2,0,P|128:332|142:369,1,75,0|0,1:0|0:0,0:0:0:0:
258,330,49768,5,4,0:0:0:0:
256,192,49853,12,8,51632,0:1:0:0:
389,105,52480,6,0,L|385:189,1,75,4|2,0:0|0:0,0:0:0:0:
303,257,52819,2,0,L|306:182,1,75,8|2,0:0|0:0,0:0:0:0:
248,112,53158,1,8,0:1:0:0:
174,163,53327,1,10,0:1:0:0:
89,133,53497,2,0,P|21:140|1:134,1,75,8|2,0:0|0:0,0:0:0:0:
73,222,53836,6,0,L|50:306,1,75,8|10,0:1|0:1,0:0:0:0:
114,360,54175,1,8,0:0:0:0:
189,311,54344,1,2,0:0:0:0:
277,329,54514,2,0,P|362:365|448:342,1,150,8|8,0:1|0:0,0:0:0:0:
475,288,55022,1,2,0:0:0:0:
472,197,55192,6,0,L|315:186,1,150,8|8,0:1|0:0,0:0:0:0:
233,204,55700,1,2,0:0:0:0:
196,121,55870,2,0,P|197:75|211:44,1,75,8|10,0:1|0:1,0:0:0:0:
113,147,56209,2,0,P|112:193|98:224,1,75,8|2,0:0|0:0,0:0:0:0:
40,272,56548,6,0,L|196:252,1,150,8|8,0:1|0:0,0:0:0:0:
272,218,57056,2,0,L|424:258,1,150,2|10,0:0|0:1,0:0:0:0:
482,193,57565,1,8,0:0:0:0:
482,193,57734,1,2,0:0:0:0:
430,119,57904,6,0,P|442:55|434:35,1,75,12|2,0:1|0:0,0:0:0:0:
346,90,58243,2,0,P|342:126|355:161,1,75,8|2,0:0|0:0,0:0:0:0:
392,256,58582,2,0,L|317:251,1,75,8|10,0:1|0:1,0:0:0:0:
192,176,58921,2,0,L|266:180,1,75,8|2,0:0|0:0,0:0:0:0:
216,340,59260,6,0,L|229:263,1,75,8|10,0:1|0:1,0:0:0:0:
192,176,59599,1,8,0:0:0:0:
192,176,59768,1,2,0:0:0:0:
106,203,59938,2,0,L|116:117,1,75,8|10,0:1|0:1,0:0:0:0:
39,78,60277,1,8,0:0:0:0:
39,78,60446,1,2,0:0:0:0:
118,35,60616,6,0,P|210:22|276:13,1,150,10|8,0:1|0:0,0:0:0:0:
244,101,61124,1,0,0:0:0:0:
309,166,61293,2,0,P|390:176|436:95,1,150,10|8,0:1|0:0,0:0:0:0:
351,88,61802,1,0,0:0:0:0:
310,166,61971,6,0,L|321:262,1,75,10|10,0:1|0:1,0:0:0:0:
347,325,62310,2,0,P|273:310|199:316,1,150,12|8,0:0|0:1,0:0:0:0:
109,310,62819,1,0,1:0:0:0:
109,310,62904,1,0,1:0:0:0:
109,310,62988,2,0,L|106:262,3,37.5,0|0|0|0,1:0|1:0|1:0|1:0,0:0:0:0:
107,227,63327,6,0,P|113:147|109:131,1,75,4|2,0:0|0:0,0:0:0:0:
81,68,63666,2,0,P|133:74|157:71,1,75,8|2,0:0|0:0,0:0:0:0:
241,96,64005,1,8,0:1:0:0:
320,52,64175,1,10,0:1:0:0:
399,93,64344,1,8,0:0:0:0:
473,42,64514,1,2,0:0:0:0:
399,93,64683,6,0,P|395:135|407:168,1,75,8|10,0:1|0:1,0:0:0:0:
453,241,65022,2,0,L|435:333,1,75,8|2,0:0|0:0,0:0:0:0:
350,333,65361,2,0,B|302:314|248:343|202:320,1,150,8|8,0:1|0:0,0:0:0:0:
113,338,65870,1,2,0:0:0:0:
151,256,66039,6,0,P|163:201|151:171,1,75,10|10,0:1|0:1,0:0:0:0:
87,128,66378,2,0,L|5:151,1,75,8|2,0:0|0:0,0:0:0:0:
8,241,66717,1,8,0:0:0:0:
8,241,66887,2,0,L|80:220,1,75,10|0,0:1|0:0,0:0:0:0:
179,173,67226,6,0,P|275:149|343:161,1,150,4|0,0:0|0:0,0:0:0:0:
407,119,67734,1,8,0:0:0:0:
475,177,67904,1,2,0:0:0:0:
434,256,68073,1,8,0:1:0:0:
434,256,68243,1,10,0:1:0:0:
355,298,68412,2,0,L|364:387,1,75,8|2,0:0|0:0,0:0:0:0:
258,274,68751,6,0,P|194:267|107:322,1,150,4|8,0:0|0:0,0:0:0:0:
41,260,69260,1,2,0:0:0:0:
48,170,69429,2,0,L|59:78,1,75,8|10,0:1|0:1,0:0:0:0:
118,29,69768,1,8,0:0:0:0:
206,48,69938,1,2,0:0:0:0:
256,121,70107,6,0,P|296:117|343:112,1,75,8|10,0:1|0:1,0:0:0:0:
420,112,70446,2,0,P|440:163|429:261,1,150,8|8,0:0|0:1,0:0:0:0:
396,340,70955,1,10,0:1:0:0:
396,340,71124,2,0,L|318:332,1,75,8|2,0:0|0:0,0:0:0:0:
276,255,71463,6,0,P|216:281|139:356,1,150,4|8,0:0|0:0,0:0:0:0:
66,361,71971,1,2,0:0:0:0:
66,361,72141,2,0,L|64:278,1,75,8|10,0:1|0:1,0:0:0:0:
51,198,72480,2,0,P|33:138|38:122,1,75,8|2,0:0|0:0,0:0:0:0:
61,49,72819,5,8,0:1:0:0:
143,46,72988,1,0,1:0:0:0:
143,46,73073,1,0,1:0:0:0:
143,46,73158,2,0,L|225:40,1,75,0|0,1:0|1:0,0:0:0:0:
297,62,73497,2,0,L|342:78,3,37.5,8|0|8|0,0:3|0:0|0:3|0:0,0:0:0:0:
353,78,73836,2,0,L|406:64,3,37.5,8|0|8|0,0:3|0:0|0:3|0:0,0:0:0:0:
411,68,74175,6,0,P|441:109|439:144,1,75,4|0,0:0|0:0,0:0:0:0:
383,190,74514,2,0,L|363:347,1,150,8|10,0:0|0:1,0:0:0:0:
288,304,75022,1,10,0:1:0:0:
231,364,75192,2,0,L|249:215,1,150,8|10,0:0|0:1,0:0:0:0:
195,152,75700,5,2,0:0:0:0:
269,115,75870,2,0,P|282:76|274:35,1,75,8|0,0:0|0:0,0:0:0:0:
196,26,76209,2,0,L|121:24,1,75,10|10,0:1|0:1,0:0:0:0:
56,76,76548,1,8,0:0:0:0:
38,156,76717,1,0,0:0:0:0:
107,200,76887,6,0,P|129:289|125:358,1,150,10|8,0:1|0:0,0:0:0:0:
209,338,77395,1,0,0:0:0:0:
277,291,77565,2,0,L|364:284,1,75,10|10,0:1|0:1,0:0:0:0:
429,256,77904,2,0,P|453:229|464:193,1,75,8|0,0:0|0:0,0:0:0:0:
411,130,78243,6,0,L|243:148,1,150,10|8,0:1|0:0,0:0:0:0:
185,177,78751,1,2,0:0:0:0:
177,94,78921,2,0,P|183:48|178:18,1,75,8|0,0:1|1:0,0:0:0:0:
86,62,79260,2,0,P|81:99|87:135,1,75,0|0,1:0|1:0,0:0:0:0:
77,218,79599,5,4,0:0:0:0:
66,299,79768,1,0,0:0:0:0:
143,328,79938,1,8,0:0:0:0:
162,247,80107,2,0,P|236:244|346:235,1,150,4|8,0:0|0:1,0:0:0:0:
394,237,80616,1,8,0:0:0:0:
434,308,80785,6,0,L|425:145,1,150,4|8,0:0|0:1,0:0:0:0:
458,82,81293,1,8,0:0:0:0:
379,55,81463,2,0,P|291:67|252:135,1,150,4|8,0:0|0:1,0:0:0:0:
175,98,81971,1,8,0:0:0:0:
125,164,82141,1,8,0:1:0:0:
46,138,82310,6,0,P|23:86|35:49,1,75,12|8,0:0|0:1,0:0:0:0:
125,164,82649,2,0,L|115:246,1,75,8|8,0:0|0:1,0:0:0:0:
24,312,82988,2,0,L|33:237,1,75,8|8,0:0|0:1,0:0:0:0:
125,164,83327,2,0,L|201:197,1,75,8|0,0:0|0:0,0:0:0:0:
229,268,83666,5,0,1:0:0:0:
310,255,83836,1,0,1:0:0:0:
391,242,84005,1,0,1:0:0:0:
473,231,84175,5,8,1:0:0:0:
285,355,84514,1,8,1:0:0:0:
272,130,84853,1,12,1:0:0:0:
256,192,84938,12,4,87904,0:3:0:0:
