osu file format v14

[General]
AudioFilename: Kano- Six Trillion Years and Overnight Story.mp3
AudioLeadIn: 0
PreviewTime: 55306
Countdown: 0
SampleSet: Soft
StackLeniency: 0.7
Mode: 0
LetterboxInBreaks: 0
WidescreenStoryboard: 1

[Editor]
DistanceSpacing: 1
BeatDivisor: 4
GridSize: 4
TimelineZoom: 2.5

[Metadata]
Title:Six trillion years and overnight story
TitleUnicode:六兆年と一夜物語
Artist:Kano
ArtistUnicode:鹿乃
Creator:StarForYou
Version:StarChu's Normal
Source:
Tags:kemu IA Vocaloid Vocaloid3 Roku_Chounen_to_Ichiya_Monogatari Starfy Fort arronchu1207 Regraz -Nanaka- utaite cover
BeatmapID:756640
BeatmapSetID:240926

[Difficulty]
HPDrainRate:4
CircleSize:3
OverallDifficulty:4
ApproachRate:5
SliderMultiplier:0.999999999999999
SliderTickRate:1

[Events]
//Background and Video events
0,0,"BG.png",0,0
//Break Periods
2,76796,83138
2,138731,147654
2,163248,165719
//Storyboard Layer 0 (Background)
//Storyboard Layer 1 (Fail)
//Storyboard Layer 2 (Pass)
//Storyboard Layer 3 (Foreground)
//Storyboard Sound Samples

[TimingPoints]
13371,322.58064516129,4,2,2,45,1,0
24983,-100,4,2,3,45,0,0
25064,-100,4,2,1,45,0,0
30145,-100,4,2,3,45,0,0
30225,-100,4,2,1,45,0,0
35306,-100,4,2,3,45,0,0
35387,-100,4,2,1,45,0,0
40467,-100,4,2,3,45,0,0
40548,-100,4,2,1,45,0,0
45629,-100,4,2,3,45,0,0
45709,-100,4,2,1,45,0,0
46677,-100,4,2,1,10,0,0
47564,-100,4,2,1,45,0,0
49258,-100,4,2,1,10,0,0
50145,-100,4,2,1,45,0,0
54822,-100,4,2,1,20,0,0
55306,-100,4,2,1,25,0,0
55548,-100,4,2,1,15,0,0
55629,-100,4,2,3,35,0,0
55870,-100,4,2,1,15,0,0
55951,-100,4,2,2,45,0,1
61112,-100,4,2,4,75,0,1
61193,-100,4,2,2,45,0,1
64983,-100,4,2,2,50,0,1
65145,-100,4,2,2,43,0,1
65306,-100,4,2,2,36,0,1
65467,-100,4,2,2,29,0,1
65629,-100,4,2,2,22,0,1
65790,-100,4,2,2,22,0,1
65951,-100,4,2,1,15,0,0
66274,-100,4,2,3,30,0,0
66596,-100,4,2,2,45,0,1
71435,-100,4,2,4,75,0,1
71516,-100,4,2,2,45,0,1
76596,-100,4,2,4,75,0,0
84338,-100,4,2,2,45,0,0
86919,-100,4,2,3,45,0,0
87000,-100,4,2,1,45,0,0
87564,-100,4,2,1,45,0,0
97241,-100,4,2,3,45,0,0
97322,-100,4,2,1,45,0,0
102403,-100,4,2,3,45,0,0
102483,-100,4,2,1,45,0,0
116758,-100,4,2,1,20,0,0
117564,-100,4,2,3,45,0,0
117645,-100,4,2,1,20,0,0
117887,-100,4,2,2,45,0,1
123048,-100,4,2,4,75,0,1
123129,-100,4,2,2,45,0,1
126919,-100,4,2,2,50,0,1
127080,-100,4,2,2,43,0,1
127241,-100,4,2,2,36,0,1
127403,-100,4,2,2,29,0,1
127564,-100,4,2,2,22,0,1
127725,-100,4,2,2,15,0,1
127887,-100,4,2,1,15,0,0
127967,-100,4,2,1,10,0,0
128048,-100,4,2,1,15,0,0
128129,-100,4,2,1,10,0,0
128209,-100,4,2,3,30,0,0
128532,-100,4,2,2,45,0,1
132080,-100,4,2,2,45,0,1
132725,-100,4,2,2,45,0,1
133370,-100,4,2,4,75,0,1
133451,-100,4,2,2,45,0,1
138532,-100,4,2,4,75,0,0
148854,-100,4,2,2,45,0,0
162403,-100,4,2,1,25,0,0
162645,-100,4,2,1,15,0,0
162725,-100,4,2,1,35,0,0
162967,-100,4,2,1,15,0,0
163048,-100,4,2,3,45,0,0
166596,-100,4,2,2,45,0,0
168209,-100,4,2,4,75,0,1
168290,-100,4,2,2,45,0,1
172080,-100,4,2,2,50,0,1
172241,-100,4,2,2,43,0,1
172403,-100,4,2,2,36,0,1
172564,-100,4,2,2,29,0,1
172725,-100,4,2,2,22,0,1
172887,-100,4,2,2,15,0,1
173048,-100,4,2,1,25,0,0
173129,-100,4,2,1,15,0,0
173209,-100,4,2,1,25,0,0
173290,-100,4,2,1,15,0,0
173370,-100,4,2,3,30,0,0
173693,-100,4,2,2,45,0,1
177241,-100,4,2,2,45,0,1
177887,-100,4,2,2,45,0,1
178532,-100,4,2,4,75,0,1
178612,-100,4,2,2,45,0,1
183693,-100,4,2,4,75,0,1
183774,-100,4,2,2,45,0,1
184338,342.857142857143,4,2,2,45,1,1
184338,-100,4,2,2,45,0,1
184680,342.857142857143,4,2,2,45,1,1
185022,387.096774193548,4,2,2,45,1,0
185215,392.156862745098,4,2,2,45,1,0
185411,419.58041958042,4,2,2,45,1,0
185620,428.571428571429,4,2,2,45,1,0
185834,444.444444444444,4,2,2,45,1,0
186056,500,4,2,2,45,1,0
186306,555.555555555556,4,2,2,45,1,0
186583,635.593220338983,4,2,2,45,1,0
187854,322.58064516129,4,2,2,45,1,0
188499,322.58064516129,4,2,2,45,1,1
188499,-100,4,2,2,45,0,1
191079,-100,4,2,4,75,0,0

[Colours]
Combo1 : 137,89,101
Combo2 : 253,90,207
Combo3 : 89,255,159
Combo4 : 255,62,67

[HitObjects]
184,172,14338,6,0,P|136:164|120:152,1,50,2|0,0:0|0:0,0:0:0:0:
96,132,14661,2,0,P|108:192|88:240,1,99.9999999999999,8|0,0:0|0:0,0:0:0:0:
52,316,15306,2,0,L|112:320,1,50,0|0,0:0|0:0,0:0:0:0:
152,332,15629,2,0,L|201:328,1,50,4|0,0:0|0:0,0:0:0:0:
248,316,15951,6,0,L|368:320,1,99.9999999999999,8|0,0:0|0:0,0:0:0:0:
436,272,16596,2,0,P|440:248|436:204,1,50,0|0,0:0|0:0,0:0:0:0:
412,180,16919,2,0,P|411:155|415:130,1,50,4|0,0:0|0:0,0:0:0:0:
424,80,17241,6,0,P|368:88|320:72,1,99.9999999999999,8|0,0:0|0:0,0:0:0:0:
228,68,17887,2,0,L|168:72,1,50,0|0,0:0|0:0,0:0:0:0:
128,80,18209,2,0,L|78:76,1,50,4|0,0:0|0:0,0:0:0:0:
28,68,18532,6,0,B|48:140|48:140|28:272,1,200,8|4,0:0|0:0,0:0:0:0:
100,336,19500,1,8,0:0:0:0:
196,356,19822,6,0,L|316:352,1,99.9999999999999,8|0,0:0|0:0,0:0:0:0:
388,316,20467,2,0,P|408:280|408:252,1,50,2|0,0:0|0:0,0:0:0:0:
416,220,20790,2,0,P|408:179|390:158,1,50,10|0,0:0|0:0,0:0:0:0:
368,136,21112,6,0,P|400:124|444:48,1,99.9999999999999,8|0,0:0|0:0,0:0:0:0:
351,48,21758,2,0,L|239:56,1,99.9999999999999,10|2,0:0|0:0,0:0:0:0:
159,16,22403,6,0,P|147:52|175:120,1,99.9999999999999,8|0,0:0|0:0,0:0:0:0:
207,140,22887,2,0,L|195:256,1,99.9999999999999,8|0,0:0|0:0,0:0:0:0:
195,288,23371,2,0,P|251:276|303:296,1,99.9999999999999,8|0,0:0|0:0,0:0:0:0:
316,332,23854,2,0,P|313:280|337:216,1,99.9999999999999,8|0,0:0|0:0,0:0:0:0:
326,234,24983,6,0,L|434:239,1,99.9999999999999,8|0,0:0|0:0,0:0:0:0:
470,215,25467,1,0,0:0:0:0:
502,179,25629,2,0,P|506:135|478:71,1,99.9999999999999,2|0,0:0|0:0,0:0:0:0:
442,63,26112,1,0,0:0:0:0:
390,63,26274,5,2,0:0:0:0:
310,127,26596,1,2,0:0:0:0:
207,124,26919,1,2,0:0:0:0:
126,187,27241,1,2,0:0:0:0:
36,144,27564,6,0,L|47:264,1,99.9999999999999,2|0,0:0|0:0,0:0:0:0:
51,292,28048,1,0,0:0:0:0:
59,340,28209,2,0,P|99:328|171:332,1,99.9999999999999,2|2,0:0|0:0,0:0:0:0:
207,336,28693,1,0,0:0:0:0:
255,348,28854,5,2,0:0:0:0:
355,368,29177,1,2,0:0:0:0:
422,291,29500,1,2,0:0:0:0:
389,194,29822,1,0,0:0:0:0:
288,180,30145,6,0,P|246:190|170:174,1,99.9999999999999,8|0,0:0|0:0,0:0:0:0:
142,170,30629,1,0,0:0:0:0:
94,158,30790,2,0,L|102:274,1,99.9999999999999,2|2,0:0|0:0,0:0:0:0:
110,358,31435,6,0,L|226:350,1,99.9999999999999,2|0,0:0|0:0,0:0:0:0:
254,330,31919,1,0,0:0:0:0:
286,290,32080,2,0,P|338:306|398:282,1,99.9999999999999,2|2,0:0|0:0,0:0:0:0:
440,216,32725,6,0,L|436:96,1,99.9999999999999,2|0,0:0|0:0,0:0:0:0:
420,68,33209,2,0,B|376:76|376:76|308:52,1,99.9999999999999
279,48,33693,2,0,P|251:56|215:56,1,50,2|0,0:0|0:0,0:0:0:0:
179,60,34016,5,2,0:0:0:0:
91,108,34338,1,0,0:0:0:0:
51,200,34661,2,0,L|59:308,1,99.9999999999999,2|4,0:0|0:0,0:0:0:0:
147,344,35306,6,0,P|191:336|263:352,1,99.9999999999999,8|0,0:0|0:0,0:0:0:0:
295,352,35790,2,0,P|327:356|359:344,1,50,0|0,0:0|0:0,0:0:0:0:
427,296,36274,2,0,L|435:232,1,50,8|0,0:0|0:0,0:0:0:0:
435,196,36596,6,0,L|423:76,1,99.9999999999999,8|8,0:0|0:0,0:0:0:0:
327,68,37241,2,0,L|339:188,1,99.9999999999999,8|8,0:0|0:0,0:0:0:0:
343,216,37725,1,0,0:0:0:0:
347,264,37887,6,0,P|307:256|243:264,1,99.9999999999999,8|0,0:0|0:0,0:0:0:0:
199,276,38370,2,0,P|203:236|191:208,1,50,0|0,0:0|0:0,0:0:0:0:
163,136,38854,2,0,P|128:139|95:136,1,50,8|0,0:0|0:0,0:0:0:0:
67,116,39177,6,0,P|79:160|63:220,1,99.9999999999999,8|8,0:0|0:0,0:0:0:0:
59,312,39822,2,0,L|175:304,1,99.9999999999999,8|0,0:0|0:0,0:0:0:0:
250,346,40467,6,0,P|260:298|243:252,1,99.9999999999999,8|0,0:0|0:0,0:0:0:0:
215,212,40951,2,0,P|183:212|147:200,1,50,0|0,0:0|0:0,0:0:0:0:
91,140,41435,2,0,L|95:80,1,50,8|0,0:0|0:0,0:0:0:0:
99,40,41758,6,0,L|211:48,1,99.9999999999999,8|0,0:0|0:0,0:0:0:0:
247,48,42241,2,0,P|287:48|311:40,1,50,0|0,0:0|0:0,0:0:0:0:
395,36,42725,2,0,L|407:92,1,50,8|0,0:0|0:0,0:0:0:0:
419,132,43048,6,0,L|411:248,1,99.9999999999999,8|0,0:0|0:0,0:0:0:0:
407,280,43532,2,0,L|291:272,1,99.9999999999999,0|0,0:0|0:0,0:0:0:0:
259,268,44016,2,0,L|263:320,2,50,8|0|8,0:0|0:0|0:0,0:0:0:0:
251,220,44500,6,0,P|200:232|124:168,1,150
92,84,45306,1,10,0:2:0:0:
36,168,45629,6,0,L|48:268,1,99.9999999999999,8|0,0:0|0:0,0:0:0:0:
56,316,46112,2,0,B|88:308|88:308|124:328|168:304,1,99.9999999999999,8|0,0:0|0:0,0:0:0:0:
193,281,46596,1,8,0:0:0:0:
193,281,47564,5,0,0:0:0:0:
293,293,47887,1,0,0:2:0:0:
393,305,48209,2,0,L|385:201,1,99.9999999999999,8|0,0:0|0:0,0:0:0:0:
336,192,48693,2,0,L|344:88,1,99.9999999999999,8|0,0:0|0:0,0:0:0:0:
348,44,49177,1,8,0:0:0:0:
348,44,50145,6,0,B|292:72|240:40|240:40|200:52|200:52|148:16,1,200,8|8,0:0|0:0,0:0:0:0:
76,72,51112,1,0,0:0:0:0:
73,171,51435,1,8,0:0:0:0:
157,223,51758,1,0,0:0:0:0:
244,176,52080,1,8,0:0:0:0:
420,272,52725,6,0,L|424:156,1,99.9999999999999,8|2,0:0|0:0,0:0:0:0:
400,128,53209,1,0,0:0:0:0:
356,104,53370,2,0,L|328:92|300:88,1,50,8|0,0:0|0:0,0:0:0:0:
260,88,53693,2,0,L|230:96|206:111,1,50,8|0,0:0|0:0,0:0:0:0:
176,136,54016,2,0,L|64:112,2,99.9999999999999,8|8|8,0:0|0:0|0:0,0:0:0:0:
236,328,55306,2,0,L|138:307,1,99.9999999999999,2|8,0:0|0:0,0:0:0:0:
44,276,55951,6,0,L|48:160,1,99.9999999999999,8|0,0:0|0:0,0:0:0:0:
52,128,56435,2,0,P|92:120|124:120,1,50,0|8,0:0|0:0,0:0:0:0:
192,160,56919,2,0,P|216:157|241:151,1,50,8|0,0:0|0:0,0:0:0:0:
292,144,57241,6,0,P|312:180|372:204,1,99.9999999999999,8|0,0:0|0:0,0:0:0:0:
416,204,57725,1,0,0:0:0:0:
464,196,57887,2,0,L|460:312,1,99.9999999999999,8|8,0:0|0:0,0:0:0:0:
460,344,58370,6,0,L|400:336,1,50,0|8,0:0|0:0,0:0:0:0:
324,284,58854,2,0,L|274:290,1,50,8|0,0:0|0:0,0:0:0:0:
224,296,59177,2,0,L|112:292,1,99.9999999999999,8|8,0:0|0:0,0:0:0:0:
72,292,59661,1,0,0:0:0:0:
24,288,59822,6,0,P|16:232|40:176,1,99.9999999999999,8|0,0:0|0:0,0:0:0:0:
52,148,60306,1,0,0:0:0:0:
88,112,60467,2,0,P|144:120|200:96,1,99.9999999999999,8|8,0:0|0:0,0:0:0:0:
264,48,61112,6,0,L|384:56,1,99.9999999999999,8|0,0:0|0:0,0:0:0:0:
412,56,61596,2,0,L|408:124,1,50,0|8,0:0|0:0,0:0:0:0:
384,204,62080,2,0,L|386:253,1,50,8|0,0:0|0:0,0:0:0:0:
391,304,62403,6,0,P|355:308|323:304,1,50,8|0,0:0|0:0,0:0:0:0:
295,292,62725,2,0,P|270:291|245:295,1,50,8|0,0:0|0:0,0:0:0:0:
195,304,63048,2,0,P|203:256|179:196,1,99.9999999999999,8|8,0:0|0:0,0:0:0:0:
151,172,63532,1,0,0:0:0:0:
103,168,63693,6,0,P|67:172|35:184,2,50,8|0|8,0:0|0:0|0:0,0:0:0:0:
179,104,64338,2,0,P|215:100|247:88,2,50,8|0|8,0:0|0:0|0:0,0:0:0:0:
187,208,64983,2,0,P|195:236|191:276,1,50,8|0,0:0|0:0,0:0:0:0:
195,304,65306,6,0,P|259:296|303:308,1,99.9999999999999,2|2,0:0|0:0,0:0:0:0:
391,320,65951,1,2,0:0:0:0:
459,248,66274,1,10,0:0:0:0:
447,149,66596,6,0,L|435:92,1,50,8|0,0:0|0:0,0:0:0:0:
423,52,66919,2,0,P|379:72|311:56,1,99.9999999999999,8|8,0:0|0:0,0:0:0:0:
279,56,67403,1,0,0:0:0:0:
235,36,67564,6,0,L|115:40,1,99.9999999999999,8|0,0:0|0:0,0:0:0:0:
83,40,68048,2,0,L|87:104,1,50,0|8,0:0|0:0,0:0:0:0:
115,184,68532,2,0,L|111:248,1,50,8|0,0:0|0:0,0:0:0:0:
107,284,68854,6,0,P|167:276|211:292,1,99.9999999999999,8|0,0:0|0:0,0:0:0:0:
247,312,69338,1,0,0:0:0:0:
295,324,69500,2,0,L|363:320,1,50,8|0,0:0|0:0,0:0:0:0:
395,316,69822,2,0,P|403:276|399:248,1,50,8|0,0:0|0:0,0:0:0:0:
379,224,70145,6,0,P|423:224|459:176,2,99.9999999999999,8|8|8,0:0|0:0|0:0,0:0:0:0:
283,196,71112,2,0,P|283:152|287:124,1,50,8|0,0:0|0:0,0:0:0:0:
299,100,71435,6,0,L|187:104,1,99.9999999999999,8|0,0:0|0:0,0:0:0:0:
147,104,71919,2,0,P|139:72|147:44,1,50,0|8,0:0|0:0,0:0:0:0:
63,116,72403,2,0,P|65:140|57:164,1,50,8|0,0:0|0:0,0:0:0:0:
35,208,72725,6,0,L|39:268,1,50,8|0,0:0|0:0,0:0:0:0:
83,280,73048,2,0,L|79:340,1,50,0|0,0:0|0:0,0:0:0:0:
123,356,73370,2,0,L|235:352,1,99.9999999999999,8|8,0:0|0:0,0:0:0:0:
275,348,73854,1,0,0:0:0:0:
327,344,74016,6,0,L|319:288,2,50,8|0|8,0:0|0:0|0:0,0:0:0:0:
407,284,74661,2,0,L|415:228,2,50,8|0|8,0:0|0:0|0:0,0:0:0:0:
335,216,75306,6,0,P|291:216|267:208,1,50,8|0,0:0|0:0,0:0:0:0:
235,204,75629,2,0,B|187:192|187:192|131:204,1,99.9999999999999,2|2,0:0|0:0,0:0:0:0:
79,284,76274,2,0,B|127:296|127:296|183:284,1,99.9999999999999,0|8,0:0|0:0,0:0:0:0:
79,288,84338,6,0,L|199:280,1,99.9999999999999,8|0,0:0|0:0,0:0:0:0:
223,308,84822,2,0,B|215:260|215:260|239:196,1,99.9999999999999,8|0,0:0|0:0,0:0:0:0:
263,172,85306,2,0,P|307:176|363:164,1,99.9999999999999,8|0,0:0|0:0,0:0:0:0:
339,120,85790,2,0,P|368:156|432:176,1,99.9999999999999,8|0,0:0|0:0,0:0:0:0:
416,176,86919,6,0,L|412:64,1,99.9999999999999,8|0,0:0|0:0,0:0:0:0:
424,28,87403,2,0,L|364:32,1,50
316,112,87887,2,0,L|266:108,1,50
216,108,88209,6,0,P|228:168|212:220,2,99.9999999999999,8|8|2,0:0|0:0|0:0,0:0:0:0:
140,40,89177,2,0,P|112:36|84:40,1,50,0|0,0:0|0:0,0:0:0:0:
48,64,89500,6,0,L|56:172,1,99.9999999999999,8|0,0:0|0:0,0:0:0:0:
60,212,89983,1,0,0:0:0:0:
68,260,90145,2,0,B|116:244|116:244|176:268,1,99.9999999999999
208,280,90629,1,0,0:0:0:0:
256,284,90790,2,0,L|264:164,1,99.9999999999999,8|0,0:0|0:0,0:0:0:0:
268,136,91274,1,0,0:0:0:0:
280,88,91435,2,0,P|336:96|384:84,1,99.9999999999999
456,152,92080,6,0,L|452:268,1,99.9999999999999,8|0,0:0|0:0,0:0:0:0:
428,296,92564,1,0,0:0:0:0:
388,324,92725,2,0,P|340:348|280:344,1,99.9999999999999,8|0,0:0|0:0,0:0:0:0:
200,316,93370,6,8,L|204:208,1,99.9999999999999,8|10,0:0|0:0,0:0:0:0:
180,172,93854,1,8,0:0:0:0:
148,132,94016,2,0,P|196:140|260:124,1,99.9999999999999,8|10,0:0|0:0,0:0:0:0:
336,92,94661,6,0,L|456:100,1,99.9999999999999,8|0,0:0|0:0,0:0:0:0:
480,100,95145,2,0,P|492:160|480:208,1,99.9999999999999,8|0,0:0|0:0,0:0:0:0:
468,244,95629,2,0,L|472:308,1,50,8|8,0:0|0:0,0:0:0:0:
223,336,96596,6,0,B|179:352|135:328|135:328|79:340|79:340|11:324,1,200,8|8,0:0|0:0,0:0:0:0:
23,180,97725,1,0,0:0:0:0:
23,180,97887,2,0,P|87:196|147:164,1,99.9999999999999,0|8,0:0|0:0,0:0:0:0:
155,152,98370,1,0,0:0:0:0:
187,116,98532,6,0,P|235:106|282:122,1,99.9999999999999,8|8,0:0|0:0,0:0:0:0:
347,200,99177,2,0,L|343:332,1,99.9999999999999,2|8,0:0|0:0,0:0:0:0:
355,344,99661,1,0,0:0:0:0:
403,364,99822,6,0,P|459:368|511:340,1,99.9999999999999,8|0,0:0|0:0,0:0:0:0:
439,272,100467,2,0,L|442:172,1,99.9999999999999,0|8,0:0|0:0,0:0:0:0:
427,124,100951,1,0,0:0:0:0:
391,88,101112,6,0,P|323:80|255:108,1,99.9999999999999,8|8,0:0|0:0,0:0:0:0:
215,152,101758,2,0,P|165:160|117:151,1,99.9999999999999,8|0,0:0|0:0,0:0:0:0:
55,72,102403,6,0,L|63:296,1,200,8|0,0:0|0:0,0:0:0:0:
163,264,103370,1,8,0:0:0:0:
123,352,103693,2,0,P|227:336|255:232,1,200,8|0,0:0|0:0,0:0:0:0:
215,168,104661,1,8,0:0:0:0:
315,172,104983,6,0,B|371:168|371:168|411:180|411:180|499:172,2,150,8|0|0,0:0|0:0|0:0,0:0:0:0:
215,168,106274,2,0,P|155:176|115:208,1,99.9999999999999,8|0,0:0|0:0,0:0:0:0:
75,284,106919,2,0,P|83:344|115:384,1,99.9999999999999,8|8,0:0|0:0,0:0:0:0:
171,300,107564,6,0,L|283:296,1,99.9999999999999,8|0,0:0|0:0,0:0:0:0:
315,320,108048,2,0,L|427:316,1,99.9999999999999,8|0,0:0|0:0,0:0:0:0:
459,340,108532,1,8,0:0:0:0:
399,48,109500,5,8,0:0:0:0:
311,92,109822,1,8,0:0:0:0:
339,188,110145,2,0,L|227:184,1,99.9999999999999,8|0,0:0|0:0,0:0:0:0:
195,208,110629,2,0,L|83:204,1,99.9999999999999,8|0,0:0|0:0,0:0:0:0:
51,228,111113,1,8,0:0:0:0:
323,352,112080,6,0,B|343:296|391:284|391:284|431:252|427:184,1,200,8|8,0:0|0:0,0:0:0:0:
367,116,113048,1,0,0:0:0:0:
331,208,113370,1,8,0:0:0:0:
231,216,113693,1,0,0:0:0:0:
179,132,114016,1,8,0:0:0:0:
83,308,114661,6,0,B|135:300|135:300|207:308,1,99.9999999999999,8|2,0:0|0:0,0:0:0:0:
231,312,115145,1,0,0:0:0:0:
279,316,115306,2,0,L|351:312,1,50,8|0,0:0|0:0,0:0:0:0:
355,268,115629,2,0,L|427:264,1,50,8|0,0:0|0:0,0:0:0:0:
427,220,115951,1,8,0:0:0:0:
504,156,116274,1,8,0:0:0:0:
488,56,116596,1,8,0:0:0:0:
312,148,117241,2,0,P|272:152|216:132,1,99.9999999999999,8|8,0:0|0:0,0:0:0:0:
147,60,117887,5,8,0:0:0:0:
119,156,118209,2,0,L|95:212,1,50
71,244,118532,2,0,L|67:356,1,99.9999999999999,8|8,0:0|0:0,0:0:0:0:
159,380,119177,6,0,L|162:280,1,99.9999999999999,8|0,0:0|0:0,0:0:0:0:
195,244,119661,1,0,0:0:0:0:
239,220,119822,2,0,P|307:212|371:244,1,99.9999999999999,8|8,0:0|0:0,0:0:0:0:
419,276,120467,6,0,L|431:156,1,99.9999999999999,8|0,0:0|0:0,0:0:0:0:
407,132,120951,1,0,0:0:0:0:
371,100,121112,2,0,P|295:92|251:112,1,99.9999999999999,8|8,0:0|0:0,0:0:0:0:
195,160,121758,2,0,P|146:169|97:158,1,99.9999999999999,8|8,0:0|0:0,0:0:0:0:
15,104,122403,1,8,0:0:0:0:
11,204,122725,6,0,L|3:272,2,50,8|0|8,0:0|0:0|0:0,0:0:0:0:
99,256,123370,2,0,L|107:324,2,50,0|0|8,0:0|0:0|0:0,0:0:0:0:
97,158,124016,1,8,0:0:0:0:
195,160,124338,6,0,L|331:152,1,99.9999999999999,8|0,0:0|0:0,0:0:0:0:
343,160,124822,1,0,0:0:0:0:
379,196,124983,2,0,P|383:264|355:324,1,99.9999999999999,8|8,0:0|0:0,0:0:0:0:
287,340,125629,6,0,L|211:328,2,50,8|0|0,0:0|0:0|0:0,0:0:0:0:
373,293,126274,2,0,L|449:281,2,50,8|0|8,0:0|0:0|0:0,0:0:0:0:
303,220,126919,6,8,L|288:164,1,50
292,120,127241,2,0,P|287:70|267:24,1,99.9999999999999,2|2,0:0|0:0,0:0:0:0:
168,32,127887,1,2,0:0:0:0:
116,120,128209,1,8,0:0:0:0:
204,168,128532,6,0,L|200:224,1,50,8|0,0:0|0:0,0:0:0:0:
200,268,128854,2,0,P|195:317|175:363,1,99.9999999999999,8|8,0:0|0:0,0:0:0:0:
80,336,129500,6,0,P|84:286|104:240,1,99.9999999999999,8|0,0:0|0:0,0:0:0:0:
199,220,130145,2,0,L|339:228,1,99.9999999999999,8|8,0:0|0:0,0:0:0:0:
347,216,130629,1,0,0:0:0:0:
387,188,130790,6,0,P|403:124|383:76,1,99.9999999999999,8|0,0:0|0:0,0:0:0:0:
295,68,131435,2,0,L|155:76,1,99.9999999999999,8|8,0:0|0:0,0:0:0:0:
131,148,132080,5,8,0:0:0:0:
127,248,132403,2,0,L|63:252,2,50,8|0|8,0:0|0:0|0:0,0:0:0:0:
191,324,133048,1,8,0:0:0:0:
291,336,133370,6,0,L|435:348,1,99.9999999999999,8|8,0:0|0:0,0:0:0:0:
447,260,134016,2,0,L|347:251,1,99.9999999999999,8|8,0:0|0:0,0:0:0:0:
255,208,134661,6,0,P|243:128|267:76,1,99.9999999999999,8|0,0:0|0:0,0:0:0:0:
263,64,135145,1,0,0:0:0:0:
263,64,135306,2,0,L|123:68,1,99.9999999999999,8|8,0:0|0:0,0:0:0:0:
87,132,135951,5,8,0:0:0:0:
139,216,136274,1,8,0:0:0:0:
63,280,136596,1,8,0:0:0:0:
115,364,136919,1,8,0:0:0:0:
191,300,137241,6,0,L|283:292,1,50,8|0,0:0|0:0,0:0:0:0:
291,304,137564,2,0,L|383:296,1,50,0|0,0:0|0:0,0:0:0:0:
391,304,137887,1,2,0:0:0:0:
423,212,138209,2,0,B|411:148|443:180|419:96,1,99.9999999999999,0|8,0:0|0:0,0:0:0:0:
259,196,148854,5,10,0:0:0:0:
459,196,149500,1,8,0:0:0:0:
359,372,150145,1,8,0:0:0:0:
307,284,150467,1,8,0:0:0:0:
259,196,150790,1,8,0:0:0:0:
159,372,151435,5,8,0:0:0:0:
59,196,152080,1,8,0:0:0:0:
259,196,152725,1,8,0:0:0:0:
307,108,153048,1,8,0:0:0:0:
359,20,153370,1,0,0:0:0:0:
435,204,154016,6,0,B|423:260|435:300|435:300|407:340|339:372,1,200,8|8,0:0|0:0,0:0:0:0:
259,336,154983,1,8,0:0:0:0:
163,364,155306,2,0,B|111:340|83:300|83:300|95:260|83:204,1,200,8|8,0:0|0:0,0:0:0:0:
31,120,156274,1,8,0:0:0:0:
131,112,156596,6,0,B|199:112|199:112|263:92|263:92|355:92,1,200,8|8,0:0|0:0,0:0:0:0:
419,48,157564,1,0,0:0:0:0:
467,136,157887,2,0,P|479:224|407:324,1,200,8|8,0:0|0:0,0:0:0:0:
327,288,158854,1,0,0:0:0:0:
259,360,159177,6,0,P|211:320|187:276,1,99.9999999999999,8|8,0:0|0:0,0:0:0:0:
191,188,159822,2,0,P|231:140|275:116,1,99.9999999999999,8|8,0:0|0:0,0:0:0:0:
359,116,160467,5,8,0:0:0:0:
427,188,160790,1,8,0:0:0:0:
423,286,161112,2,0,P|367:360|283:364,1,166.666666666667,8|8,0:0|0:0,0:0:0:0:
75,300,162403,6,0,B|67:240|67:240|79:168|79:168|67:92,1,200,2|10,0:0|0:0,0:0:0:0:
0,192,166919,5,8,0:0:0:0:
96,212,167241,1,8,0:0:0:0:
184,260,167564,1,8,0:0:0:0:
252,332,167887,1,8,0:0:0:0:
347,300,168209,6,0,P|407:304|459:288,1,99.9999999999999,8|8,0:0|0:0,0:0:0:0:
507,216,168854,2,0,P|511:156|495:104,1,99.9999999999999,8|8,0:0|0:0,0:0:0:0:
423,52,169500,6,0,P|363:48|311:64,1,99.9999999999999,8|0,0:0|0:0,0:0:0:0:
283,88,169983,1,0,0:0:0:0:
263,132,170145,2,0,L|251:248,1,99.9999999999999,8|8,0:0|0:0,0:0:0:0:
176,296,170790,6,0,P|96:300|52:260,1,99.9999999999999,8|8,0:0|0:0,0:0:0:0:
32,204,171435,2,0,L|44:72,1,99.9999999999999,8|8,0:0|0:0,0:0:0:0:
71,64,171919,1,0,0:0:0:0:
119,48,172080,6,0,L|199:52,1,50,8|0,0:0|0:0,0:0:0:0:
215,76,172403,2,0,L|295:80,1,50,0|0,0:0|0:0,0:0:0:0:
299,116,172725,2,0,P|303:172|295:200,2,50,2|0|2,0:0|0:0|0:0,0:0:0:0:
215,172,173370,6,0,P|211:228|219:256,2,50,8|0|8,0:0|0:0|0:0,0:0:0:0:
299,116,174016,2,0,P|371:116|412:136,1,99.9999999999999,8|0,0:0|0:0,0:0:0:0:
472,192,174661,5,8,0:0:0:0:
487,288,174983,1,0,0:0:0:0:
403,340,175306,2,0,L|291:344,1,99.9999999999999,8|8,0:0|0:0,0:0:0:0:
264,312,175790,1,0,0:0:0:0:
224,280,175951,6,0,L|220:168,1,99.9999999999999,8|8,0:0|0:0,0:0:0:0:
200,132,176435,1,0,0:0:0:0:
163,96,176596,2,0,P|91:92|47:124,1,99.9999999999999,8|8,0:0|0:0,0:0:0:0:
27,196,177241,6,0,P|99:200|143:168,1,99.9999999999999,8|0,0:0|0:0,0:0:0:0:
163,96,177887,1,8,0:0:0:0:
248,44,178209,2,0,L|300:36,1,50
332,68,178532,6,0,P|396:88|468:68,1,99.9999999999999,8|8,0:0|0:0,0:0:0:0:
396,180,179177,2,0,P|376:244|396:316,1,99.9999999999999,8|8,0:0|0:0,0:0:0:0:
368,324,179661,1,0,0:0:0:0:
372,372,179822,6,0,L|252:376,1,99.9999999999999,8|0,0:0|0:0,0:0:0:0:
184,324,180467,2,0,L|64:328,1,99.9999999999999,8|8,0:0|0:0,0:0:0:0:
64,280,180951,1,0,0:0:0:0:
84,236,181112,6,0,P|76:164|92:100,1,99.9999999999999,8|8,0:0|0:0,0:0:0:0:
147,64,181758,2,0,P|219:56|283:72,1,99.9999999999999,8|8,0:0|0:0,0:0:0:0:
284,152,182403,2,0,L|292:216,1,50,8|0,0:0|0:0,0:0:0:0:
260,240,182725,2,0,L|268:304,1,50,8|0,0:0|0:0,0:0:0:0:
236,328,183048,5,8,0:0:0:0:
172,252,183370,2,0,P|100:260|36:244,1,99.9999999999999,8|0,0:0|0:0,0:0:0:0:
28,168,184016,1,8,0:0:0:0:
51,76,184338,1,8,0:0:0:0:
256,192,184680,12,0,186583,0:0:0:0:
67,144,187854,6,0,L|203:152,1,99.9999999999999,8|8,0:0|0:0,0:0:0:0:
252,200,188499,2,0,L|301:194,2,50,8|0|8,0:0|0:0|0:0,0:0:0:0:
164,248,189144,2,0,L|168:308,1,50
196,336,189466,1,8,0:0:0:0:
296,352,189789,5,8,0:0:0:0:
344,340,189950,1,0,0:0:0:0:
384,312,190111,2,0,L|456:320,2,50,8|0|8,0:0|0:0|0:0,0:0:0:0:
348,216,190757,2,0,P|340:148|364:100,1,99.9999999999999,8|8,0:0|0:0,0:0:0:0:
