osu file format v14

[General]
AudioFilename: Kano- Six Trillion Years and Overnight Story.mp3
AudioLeadIn: 0
PreviewTime: 55306
Countdown: 0
SampleSet: Soft
StackLeniency: 0.7
Mode: 0
LetterboxInBreaks: 0
WidescreenStoryboard: 0

[Editor]
DistanceSpacing: 1
BeatDivisor: 4
GridSize: 4
TimelineZoom: 2.2

[Metadata]
Title:Six trillion years and overnight story
TitleUnicode:六兆年と一夜物語
Artist:Kano
ArtistUnicode:鹿乃
Creator:StarForYou
Version:Regraz's Easy
Source:
Tags:kemu IA Vocaloid Vocaloid3 Roku_Chounen_to_Ichiya_Monogatari Starfy Fort arronchu1207 Regraz -Nanaka- utaite cover
BeatmapID:580395
BeatmapSetID:240926

[Difficulty]
HPDrainRate:3
CircleSize:2.6
OverallDifficulty:3
ApproachRate:4
SliderMultiplier:0.9
SliderTickRate:1

[Events]
//Background and Video events
0,0,"BG.png",0,0
//Break Periods
2,76596,83018
2,138532,147534
2,163248,165599
//Storyboard Layer 0 (Background)
//Storyboard Layer 1 (Fail)
//Storyboard Layer 2 (Pass)
//Storyboard Layer 3 (Foreground)
//Storyboard Sound Samples

[TimingPoints]
13371,322.58064516129,4,2,2,45,1,0
22403,-100,4,2,2,45,0,0
22887,-100,4,2,2,45,0,0
23371,-100,4,2,2,45,0,0
23854,-100,4,2,2,45,0,0
24983,-100,4,2,3,45,0,0
25064,-100,4,2,1,45,0,0
30145,-100,4,2,3,45,0,0
30225,-100,4,2,1,45,0,0
34661,-100,4,2,1,45,0,0
34983,-100,4,2,1,45,0,0
35306,-100,4,2,3,45,0,0
35387,-100,4,2,1,45,0,0
40467,-100,4,2,3,45,0,0
40548,-100,4,2,1,45,0,0
45629,-100,4,2,3,45,0,0
45709,-100,4,2,1,45,0,0
46677,-100,4,2,1,10,0,0
47564,-100,4,2,1,45,0,0
49258,-100,4,2,1,10,0,0
50145,-100,4,2,1,45,0,0
52725,-100,4,2,1,45,0,0
54661,-100,4,2,1,45,0,0
54822,-100,4,2,1,20,0,0
55306,-100,4,2,1,25,0,0
55548,-100,4,2,1,15,0,0
55629,-100,4,2,3,35,0,0
55870,-100,4,2,1,15,0,0
55951,-100,4,2,2,45,0,1
61112,-100,4,2,4,75,0,1
61193,-100,4,2,2,45,0,1
64983,-100,4,2,2,50,0,1
65145,-100,4,2,2,43,0,1
65306,-100,4,2,2,36,0,1
65467,-100,4,2,2,29,0,1
65629,-100,4,2,2,22,0,1
65951,-100,4,2,1,15,0,0
66274,-100,4,2,3,30,0,0
66596,-100,4,2,2,45,0,1
70145,-100,4,2,2,45,0,1
70790,-100,4,2,2,45,0,1
71435,-100,4,2,4,75,0,1
71516,-100,4,2,2,45,0,1
76596,-100,4,2,4,75,0,0
84338,-100,4,2,2,45,0,0
84822,-100,4,2,2,45,0,0
85306,-100,4,2,2,45,0,0
85790,-100,4,2,2,45,0,0
86919,-100,4,2,3,45,0,0
87000,-100,4,2,1,45,0,0
96596,-100,4,2,1,45,0,0
96919,-100,4,2,1,45,0,0
97241,-100,4,2,3,45,0,0
97322,-100,4,2,1,45,0,0
102403,-100,4,2,3,45,0,0
102483,-100,4,2,1,45,0,0
114661,-100,4,2,1,45,0,0
116596,-100,4,2,1,45,0,0
116758,-100,4,2,1,20,0,0
117241,-100,4,2,1,20,0,0
117564,-100,4,2,3,45,0,0
117645,-100,4,2,1,20,0,0
117887,-100,4,2,2,45,0,1
123048,-100,4,2,4,75,0,1
123129,-100,4,2,2,45,0,1
126919,-100,4,2,2,50,0,1
127080,-100,4,2,2,43,0,1
127241,-100,4,2,2,36,0,1
127403,-100,4,2,2,29,0,1
127564,-100,4,2,2,22,0,1
127725,-100,4,2,2,15,0,1
127887,-100,4,2,1,15,0,0
127967,-100,4,2,1,10,0,0
128048,-100,4,2,1,15,0,0
128129,-100,4,2,1,10,0,0
128209,-100,4,2,3,30,0,0
128532,-100,4,2,2,45,0,1
132080,-100,4,2,2,45,0,1
132725,-100,4,2,2,45,0,1
133370,-100,4,2,4,75,0,1
133451,-100,4,2,2,45,0,1
138532,-100,4,2,4,75,0,0
148854,-100,4,2,2,45,0,0
162403,-100,4,2,1,25,0,0
162645,-100,4,2,1,15,0,0
162725,-100,4,2,1,35,0,0
162967,-100,4,2,1,15,0,0
163048,-100,4,2,3,45,0,0
166596,-100,4,2,2,45,0,0
168209,-100,4,2,4,75,0,1
168290,-100,4,2,2,45,0,1
172080,-100,4,2,2,50,0,1
172241,-100,4,2,2,43,0,1
172403,-100,4,2,2,36,0,1
172564,-100,4,2,2,29,0,1
172725,-100,4,2,2,22,0,1
172887,-100,4,2,2,15,0,1
173048,-100,4,2,1,25,0,0
173129,-100,4,2,1,15,0,0
173209,-100,4,2,1,25,0,0
173290,-100,4,2,1,15,0,0
173370,-100,4,2,3,30,0,0
173693,-100,4,2,2,45,0,1
177241,-100,4,2,2,45,0,1
177887,-100,4,2,2,45,0,1
178532,-100,4,2,4,75,0,1
178612,-100,4,2,2,45,0,1
183693,-100,4,2,4,75,0,1
183774,-100,4,2,2,45,0,1
184338,342.857142857143,4,2,2,45,1,0
184338,-100,4,2,2,45,0,1
184680,342.857142857143,4,2,2,45,1,1
185022,387.096774193548,4,2,2,45,1,0
185215,392.156862745098,4,2,2,45,1,0
185411,419.58041958042,4,2,2,45,1,0
185620,428.571428571429,4,2,2,45,1,0
185834,444.444444444444,4,2,2,45,1,0
186056,500,4,2,2,45,1,0
186306,555.555555555556,4,2,2,45,1,0
186583,635.593220338983,4,2,2,45,1,0
187854,322.58064516129,4,2,2,45,1,0
188499,322.58064516129,4,2,2,45,1,1
188499,-100,4,2,2,45,0,1
191079,-100,4,2,4,75,0,0

[Colours]
Combo1 : 137,89,101
Combo2 : 253,90,207
Combo3 : 89,255,159
Combo4 : 255,62,67

[HitObjects]
76,215,14338,5,2,0:0:0:0:
125,136,14661,2,0,B|155:73|243:81|243:81|275:172|357:155,1,270,8|4,0:0|0:0,0:0:0:0:
331,67,15951,2,0,P|252:144|353:247,1,270,8|4,0:0|0:0,0:0:0:0:
425,268,17241,6,0,L|154:340,1,270,8|4,0:0|0:0,0:0:0:0:
101,271,18532,2,0,P|111:226|96:168,1,90,8|8,0:0|0:0,0:0:0:0:
31,128,19177,2,0,P|21:83|36:25,1,90,4|8,0:0|0:0,0:0:0:0:
117,26,19822,6,0,B|197:25|197:25|220:42|220:42|303:40,1,180,8|2,0:0|0:0,0:0:0:0:
373,81,20790,1,10,0:0:0:0:
437,144,21112,2,0,B|458:208|451:241|451:241|411:236|378:279,1,180,8|10,0:0|0:0,0:0:0:0:
320,341,22080,1,2,0:0:0:0:
248,288,22403,6,0,L|151:300,2,90,8|0|0,0:0|0:0|0:0,0:0:0:0:
272,200,23371,1,8,0:0:0:0:
180,164,23693,2,0,P|136:144|112:104,1,90
200,80,24338,2,0,P|246:92|290:77,1,90
373,57,24983,6,0,B|424:116|379:188|379:188|396:239,1,180,8|2,0:0|0:0,0:0:0:0:
441,298,25951,1,0,0:0:0:0:
350,296,26274,2,0,P|280:288|253:301,1,90,2|2,0:0|0:0,0:0:0:0:
182,334,26919,1,2,0:0:0:0:
118,270,27241,1,2,0:0:0:0:
59,338,27564,6,0,P|31:283|85:189,1,180,2|2,0:0|0:0,0:0:0:0:
166,149,28532,1,2,0:0:0:0:
245,190,28854,2,0,P|320:212|348:210,2,90,2|2|2,0:0|0:0|0:0,0:0:0:0:
158,31,30145,6,0,B|287:25|287:25|344:49,1,180,8|2,0:0|0:0,0:0:0:0:
404,99,31112,1,2,0:0:0:0:
350,171,31435,2,0,B|394:276|321:342,1,180,2|2,0:0|0:0,0:0:0:0:
236,346,32403,1,2,0:0:0:0:
161,296,32725,6,0,P|149:220|42:196,1,180,2|0,0:0|0:0,0:0:0:0:
75,277,33693,1,2,0:0:0:0:
85,366,34016,2,0,L|266:358,1,180,2|2,0:0|0:0,0:0:0:0:
339,307,34983,1,4,0:0:0:0:
422,341,35306,6,0,P|458:260|415:181,1,180,8|0,0:0|0:0,0:0:0:0:
329,192,36274,1,8,0:0:0:0:
247,155,36596,2,0,P|192:153|155:163,2,90,8|8|8,0:0|0:0|0:0,0:0:0:0:
329,192,37564,1,8,0:0:0:0:
380,266,37887,6,0,L|387:75,1,180,8|0,0:0|0:0,0:0:0:0:
456,30,38854,1,8,0:0:0:0:
497,109,39177,2,0,L|507:201,2,90,8|8|8,0:0|0:0|0:0,0:0:0:0:
451,283,40467,6,0,P|365:277|330:359,1,180,8|0,0:0|0:0,0:0:0:0:
255,297,41435,1,8,0:0:0:0:
180,349,41758,2,0,P|142:273|57:279,1,180,8|0,0:0|0:0,0:0:0:0:
23,195,42725,1,8,0:0:0:0:
48,109,43048,6,0,L|240:82,1,180,8|0,0:0|0:0,0:0:0:0:
306,124,44016,1,8,0:0:0:0:
380,174,44338,2,0,B|410:132|452:125|452:125|482:165|473:216,1,180,8|8,0:0|0:0,0:0:0:0:
443,295,45306,1,10,0:2:0:0:
358,322,45629,6,0,B|301:333|255:307|255:307|227:325,2,135,8|8|8,0:0|0:0|0:0,0:0:0:0:
121,191,47564,2,0,P|129:127|122:91,1,90,0|0,0:0|0:2,0:0:0:0:
63,36,48209,6,0,P|150:57|210:34,2,135,8|8|8,0:0|0:0|0:0,0:0:0:0:
331,70,50145,2,0,L|338:169,1,90,8|8,0:0|0:0,0:0:0:0:
263,211,50790,6,0,P|219:209|170:230,1,90,8|0,0:0|0:0,0:0:0:0:
184,315,51435,2,0,P|225:331|270:329,1,90,8|0,0:0|0:0,0:0:0:0:
335,267,52080,1,8,0:0:0:0:
367,89,52725,2,0,L|267:100,1,90,8|2,0:0|0:0,0:0:0:0:
190,123,53370,6,0,P|121:140|92:132,1,90,8|8,0:0|0:0,0:0:0:0:
127,48,54016,1,8,0:0:0:0:
214,26,54338,1,8,0:0:0:0:
283,83,54661,1,8,0:0:0:0:
432,183,55306,2,0,L|461:279,1,90,2|8,0:0|0:0,0:0:0:0:
373,301,55951,6,0,P|286:272|204:315,1,180,8|8,0:0|0:0,0:0:0:0:
131,351,56919,1,8,0:0:0:0:
51,308,57241,2,0,B|54:213|54:213|71:155|57:115,1,180,8|8,0:0|0:0,0:0:0:0:
30,44,58209,1,8,0:0:0:0:
118,62,58532,6,0,P|184:72|223:58,1,90,8|8,0:0|0:0,0:0:0:0:
289,35,59177,2,0,P|333:28|376:39,1,90,8|8,0:0|0:0,0:0:0:0:
435,107,59822,2,0,P|407:212|453:281,1,180,8|8,0:0|0:0,0:0:0:0:
503,333,60790,1,8,0:0:0:0:
415,351,61112,6,0,B|321:346|321:346|222:354,1,180,8|8,0:0|0:0,0:0:0:0:
145,354,62080,1,8,0:0:0:0:
73,299,62403,2,0,P|82:252|68:199,2,90,8|8|8,0:0|0:0|0:0,0:0:0:0:
145,354,63370,1,8,0:0:0:0:
230,325,63693,6,0,L|221:228,1,90
311,241,64338,2,0,L|319:135,1,90,0|8,0:0|0:0,0:0:0:0:
397,108,64983,2,0,P|454:118|499:107,2,90,8|2|2,0:0|0:0|0:0,0:0:0:0:
317,66,65951,1,2,0:0:0:0:
241,115,66274,6,0,P|239:171|218:212,1,90,10|8,0:0|0:0,0:0:0:0:
141,233,66919,1,8,0:0:0:0:
76,296,67241,1,8,0:0:0:0:
159,329,67564,2,0,B|290:328|290:328|323:339|357:340,1,180,8|8,0:0|0:0,0:0:0:0:
406,280,68532,1,8,0:0:0:0:
474,337,68854,6,0,P|495:263|424:191,1,180,8|8,0:0|0:0,0:0:0:0:
363,132,69822,1,8,0:0:0:0:
412,56,70145,2,0,L|502:41,2,90,8|8|8,0:0|0:0|0:0,0:0:0:0:
323,39,71112,1,8,0:0:0:0:
246,86,71435,6,0,P|190:112|85:49,1,180,8|8,0:0|0:0,0:0:0:0:
8,26,72403,1,8,0:0:0:0:
16,115,72725,2,0,B|11:194|11:194|19:218|19:218|18:301,1,180,8|8,0:0|0:0,0:0:0:0:
96,337,73693,1,8,0:0:0:0:
169,284,74016,6,0,P|239:244|326:289,1,180,8|8,0:0|0:0,0:0:0:0:
399,329,74983,1,8,0:0:0:0:
476,282,75306,2,0,P|484:223|468:179,2,90,8|2|2,0:0|0:0|0:0,0:0:0:0:
192,244,84338,6,0,P|180:287|187:331,2,90,8|0|0,0:0|0:0|0:0,0:0:0:0:
244,171,85306,1,8,0:0:0:0:
329,145,85629,2,0,P|372:135|415:147,1,90
455,228,86274,2,0,L|448:332,1,90
365,351,86919,6,0,P|254:313|198:353,1,180,8|0,0:0|0:0,0:0:0:0:
53,245,88209,2,0,P|46:201|51:157,2,90,8|8|2,0:0|0:0|0:0,0:0:0:0:
127,81,89500,2,0,P|231:94|304:41,1,180,8|0,0:0|0:0,0:0:0:0:
444,152,90790,2,0,P|454:185|454:251,2,90,8|8|0,0:0|0:0|0:0,0:0:0:0:
322,282,92080,6,0,P|221:265|145:317,1,180,8|8,0:0|0:0,0:0:0:0:
129,124,93370,2,0,P|230:141|306:89,1,180,8|8,0:0|0:0,0:0:0:0:
347,31,94338,1,10,0:0:0:0:
424,76,94661,2,0,B|447:129|423:180|423:180|429:219,2,135,8|8|8,0:0|0:0|0:0,0:0:0:0:
455,43,95790,1,8,0:0:0:0:
230,34,96596,2,0,L|132:30,1,90,8|4,0:0|0:0,0:0:0:0:
56,63,97241,6,0,P|20:144|63:223,1,180,8|0,0:0|0:0,0:0:0:0:
148,214,98209,1,8,0:0:0:0:
216,271,98531,2,0,P|271:273|308:263,2,90,8|8|2,0:0|0:0|0:0,0:0:0:0:
181,187,99499,1,8,0:0:0:0:
132,118,99822,6,0,L|125:309,1,180,8|0,0:0|0:0,0:0:0:0:
56,354,100789,1,8,0:0:0:0:
15,275,101112,2,0,L|5:183,2,90,8|8|8,0:0|0:0|0:0,0:0:0:0:
61,101,102402,6,0,P|147:107|182:25,1,180,8|0,0:0|0:0,0:0:0:0:
258,90,103370,1,8,0:0:0:0:
331,33,103693,2,0,P|369:109|454:103,1,180,8|0,0:0|0:0,0:0:0:0:
498,179,104660,1,8,0:0:0:0:
465,263,104983,6,0,L|273:290,1,180,8|0,0:0|0:0,0:0:0:0:
207,248,105951,1,0,0:0:0:0:
133,198,106273,2,0,B|101:237|63:248|63:248|30:213|44:161,1,180,8|8,0:0|0:0,0:0:0:0:
64,70,107241,1,8,0:0:0:0:
154,49,107564,6,0,L|303:44,2,135,8|8|8,0:0|0:0|0:0,0:0:0:0:
116,316,109500,2,0,P|128:231|119:214,1,90,8|8,0:0|0:0,0:0:0:0:
114,141,110145,2,0,P|171:211|222:214,2,135,8|8|8,0:0|0:0|0:0,0:0:0:0:
348,274,112080,2,0,L|438:288,1,90,8|8,0:0|0:0,0:0:0:0:
502,350,112725,6,0,B|480:278|501:200|501:200|480:157,2,180,8|8|8,0:0|0:0|0:0,0:0:0:0:
404,198,114661,1,8,0:0:0:0:
329,247,114983,1,2,0:0:0:0:
246,210,115306,6,0,P|185:200|141:209,1,90,8|8,0:0|0:0,0:0:0:0:
89,262,115951,2,0,L|90:359,2,90,8|8|0,0:0|0:0|0:0,0:0:0:0:
255,330,117241,1,8,0:0:0:0:
343,311,117564,1,8,0:0:0:0:
284,244,117887,6,0,P|286:188|307:147,1,90,8|8,0:0|0:0,0:0:0:0:
387,135,118532,1,8,0:0:0:0:
444,65,118854,1,8,0:0:0:0:
357,46,119177,2,0,B|226:47|226:47|193:36|159:35,1,180,8|8,0:0|0:0,0:0:0:0:
107,92,120145,1,8,0:0:0:0:
39,35,120467,6,0,P|18:109|89:181,1,180,8|8,0:0|0:0,0:0:0:0:
150,240,121435,1,8,0:0:0:0:
101,316,121758,2,0,L|11:331,2,90,8|8|8,0:0|0:0|0:0,0:0:0:0:
190,333,122725,1,8,0:0:0:0:
267,286,123048,6,0,P|323:260|428:323,1,180,8|8,0:0|0:0,0:0:0:0:
505,346,124016,1,8,0:0:0:0:
497,257,124338,2,0,B|502:178|502:178|494:154|494:154|495:71,1,180,8|8,0:0|0:0,0:0:0:0:
417,35,125306,1,8,0:0:0:0:
344,88,125629,6,0,P|274:128|187:83,1,180,8|8,0:0|0:0,0:0:0:0:
114,43,126596,1,8,0:0:0:0:
37,90,126919,2,0,P|27:147|45:193,2,90,8|2|2,0:0|0:0|0:0,0:0:0:0:
114,135,127887,2,0,L|214:138,1,90,2|8,0:0|0:0,0:0:0:0:
272,196,128532,6,0,L|372:199,1,90,8|8,0:0|0:0,0:0:0:0:
434,145,129177,1,8,0:0:0:0:
495,210,129500,2,0,B|514:278|501:324|501:324|472:346|429:328,1,180,8|8,0:0|0:0,0:0:0:0:
357,296,130467,1,8,0:0:0:0:
268,280,130790,6,0,B|202:258|156:284|156:284|125:308|76:303,1,180,8|8,0:0|0:0,0:0:0:0:
30,242,131758,1,8,0:0:0:0:
81,168,132080,2,0,P|85:111|72:73,2,90,8|8|8,0:0|0:0|0:0,0:0:0:0:
120,248,133048,2,0,L|216:253,1,90,8|8,0:0|0:0,0:0:0:0:
294,221,133693,6,0,L|390:226,1,90,8|8,0:0|0:0,0:0:0:0:
459,177,134338,1,8,0:0:0:0:
387,121,134661,2,0,B|266:118|266:118|199:82,1,180,8|8,0:0|0:0,0:0:0:0:
132,50,135629,1,8,0:0:0:0:
74,119,135951,6,0,P|66:188|79:223,1,90,8|8,0:0|0:0,0:0:0:0:
147,250,136596,2,0,P|157:207|150:163,1,90,8|8,0:0|0:0,0:0:0:0:
220,106,137241,2,0,B|315:87|315:87|410:100,1,180,8|2,0:0|0:0,0:0:0:0:
85,49,148854,6,0,B|90:121|90:121|61:184|84:241,1,180,10|8,0:0|0:0,0:0:0:0:
258,240,150145,2,0,P|332:234|355:242,2,90,8|8|8,0:0|0:0|0:0,0:0:0:0:
437,255,151435,2,0,B|432:183|432:183|461:120|438:63,1,180,8|8,0:0|0:0,0:0:0:0:
266,44,152726,2,0,P|192:50|169:42,2,90,8|8|8,0:0|0:0|0:0,0:0:0:0:
104,123,154016,6,0,P|162:153|129:260,1,180,8|8,0:0|0:0,0:0:0:0:
80,315,154983,1,8,0:0:0:0:
166,341,155306,2,0,L|355:341,1,180,8|8,0:0|0:0,0:0:0:0:
432,311,156274,1,8,0:0:0:0:
367,248,156596,6,0,P|339:168|407:118,1,180,8|8,0:0|0:0,0:0:0:0:
256,19,157887,2,0,L|256:111,2,90,8|0|8,0:0|0:0|0:0,0:0:0:0:
166,24,158854,1,0,0:0:0:0:
91,74,159177,6,0,B|91:154|91:154|81:178|81:178|78:263,1,180,8|8,0:0|0:0,0:0:0:0:
149,307,160145,1,8,0:0:0:0:
226,261,160467,2,0,P|288:251|327:260,1,90,8|8,0:0|0:0,0:0:0:0:
374,323,161112,2,0,P|371:246|444:212,1,150,8|8,0:0|0:0,0:0:0:0:
284,56,162403,6,0,L|188:55,2,90,2|8|10,0:0|0:0|0:0,0:0:0:0:
258,179,166919,6,0,L|257:83,2,90,8|8|8,0:0|0:0|0:0,0:0:0:0:
188,235,167887,1,8,0:0:0:0:
108,192,168209,6,0,P|34:189|0:198,1,90,8|8,0:0|0:0,0:0:0:0:
19,282,168854,2,0,P|93:285|127:276,1,90,8|8,0:0|0:0,0:0:0:0:
188,235,169500,2,0,B|245:224|286:249|286:249|323:277|383:262,1,180,8|8,0:0|0:0,0:0:0:0:
442,230,170467,1,8,0:0:0:0:
453,139,170790,6,0,L|470:40,1,90,8|8,0:0|0:0,0:0:0:0:
384,16,171435,2,0,L|367:115,1,90,8|8,0:0|0:0,0:0:0:0:
313,175,172080,2,0,B|263:196|214:176|214:176|176:145|117:163,1,180,8|2,0:0|0:0,0:0:0:0:
77,221,173048,1,2,0:0:0:0:
119,300,173370,6,0,L|223:314,1,90,8|8,0:0|0:0,0:0:0:0:
298,305,174016,2,0,L|387:292,1,90,8|8,0:0|0:0,0:0:0:0:
437,218,174661,2,0,B|414:157|448:104|448:104|430:68|389:42,1,180,8|8,0:0|0:0,0:0:0:0:
320,44,175629,1,8,0:0:0:0:
247,96,175951,6,0,P|204:109|145:100,1,90,8|8,0:0|0:0,0:0:0:0:
89,48,176596,2,0,P|44:44|1:57,1,90,8|8,0:0|0:0,0:0:0:0:
9,146,177241,2,0,B|15:220|15:220|30:242|30:242|33:337,1,180,8|8,0:0|0:0,0:0:0:0:
122,329,178209,1,8,0:0:0:0:
207,300,178532,6,0,P|279:298|307:302,1,90,8|8,0:0|0:0,0:0:0:0:
381,330,179177,2,0,P|425:333|470:329,1,90,8|8,0:0|0:0,0:0:0:0:
493,242,179822,2,0,L|499:36,1,180,8|8,0:0|0:0,0:0:0:0:
411,39,180790,1,8,0:0:0:0:
327,73,181112,6,0,P|268:76|234:61,1,90,8|8,0:0|0:0,0:0:0:0:
149,66,181758,2,0,P|106:79|62:74,1,90,8|8,0:0|0:0,0:0:0:0:
29,158,182403,2,0,P|119:169|212:131,1,180,8|8,0:0|0:0,0:0:0:0:
265,76,183370,1,8,0:0:0:0:
340,26,183693,6,0,L|450:41,1,90,8|8,0:0|0:0,0:0:0:0:
432,122,184338,2,0,L|322:107,1,90,8|8,0:0|0:0,0:0:0:0:
256,192,185022,12,0,186583,0:0:0:0:
68,284,187854,6,0,L|178:282,1,90,8|8,0:0|0:0,0:0:0:0:
227,224,188499,6,0,P|303:206|332:217,1,90,8|8,0:0|0:0,0:0:0:0:
367,279,189144,2,0,P|411:281|452:263,1,90,8|8,0:0|0:0,0:0:0:0:
485,179,189789,2,0,L|489:76,2,90,8|8|8,0:0|0:0|0:0,0:0:0:0:
508,265,190757,1,8,0:0:0:0:
464,343,191079,5,8,0:0:0:0:
