osu file format v14

[General]
AudioFilename: Kano- Six Trillion Years and Overnight Story.mp3
AudioLeadIn: 0
PreviewTime: 55306
Countdown: 0
SampleSet: Soft
StackLeniency: 0.7
Mode: 0
LetterboxInBreaks: 0
WidescreenStoryboard: 0

[Editor]
DistanceSpacing: 1.5
BeatDivisor: 4
GridSize: 4
TimelineZoom: 2.6

[Metadata]
Title:Six trillion years and overnight story
TitleUnicode:六兆年と一夜物語
Artist:Kano
ArtistUnicode:鹿乃
Creator:StarForYou
Version:OverNight
Source:
Tags:kemu IA Vocaloid Vocaloid3 Roku_Chounen_to_Ichiya_Monogatari Starfy Fort arronchu1207 Regraz -Nanaka- utaite cover
BeatmapID:556638
BeatmapSetID:240926

[Difficulty]
HPDrainRate:6
CircleSize:4.2
OverallDifficulty:9
ApproachRate:9.4
SliderMultiplier:1.9
SliderTickRate:1

[Events]
//Background and Video events
0,0,"BG.png",0,0
//Break Periods
2,76838,83738
2,163248,166056
//Storyboard Layer 0 (Background)
//Storyboard Layer 1 (Fail)
//Storyboard Layer 2 (Pass)
//Storyboard Layer 3 (Foreground)
//Storyboard Sound Samples

[TimingPoints]
13371,322.58064516129,4,2,2,65,1,0
22403,-80,4,2,2,65,0,0
22887,-76.9230769230769,4,2,2,65,0,0
23371,-74.0740740740741,4,2,2,65,0,0
23854,-71.4285714285714,4,2,2,65,0,0
24983,-100,4,2,3,45,0,0
25064,-100,4,2,1,65,0,0
30145,-100,4,2,3,65,0,0
30225,-100,4,2,1,65,0,0
34661,-83.3333333333333,4,2,1,65,0,0
34983,-71.4285714285714,4,2,1,65,0,0
35306,-100,4,2,3,65,0,0
35387,-100,4,2,1,65,0,0
40467,-100,4,2,3,65,0,0
40548,-100,4,2,1,65,0,0
45629,-133.333333333333,4,2,3,65,0,0
45709,-133.333333333333,4,2,1,65,0,0
52725,-80,4,2,1,65,0,0
54661,-100,4,2,1,65,0,0
54741,-100,4,2,1,5,0,0
55306,-200,4,2,1,25,0,0
55548,-200,4,2,1,15,0,0
55629,-133.333333333333,4,2,3,35,0,0
55870,-200,4,2,1,15,0,0
55951,-80,4,2,2,65,0,1
61112,-80,4,2,4,75,0,1
61193,-80,4,2,2,65,0,1
64983,-80,4,2,2,50,0,1
65145,-80,4,2,2,45,0,1
65306,-80,4,2,2,40,0,1
65467,-80,4,2,2,35,0,1
65951,-133.333333333333,4,2,1,35,0,0
66032,-133.333333333333,4,2,1,10,0,0
66112,-133.333333333333,4,2,1,35,0,0
66193,-133.333333333333,4,2,1,10,0,0
66274,-100,4,2,3,50,0,0
66596,-80,4,2,2,65,0,1
70145,-133.333333333333,4,2,2,65,0,1
70790,-80,4,2,2,65,0,1
71435,-80,4,2,4,75,0,1
71516,-80,4,2,2,65,0,1
76596,-80,4,2,4,75,0,0
84338,-80,4,2,2,65,0,0
84822,-76.9230769230769,4,2,2,65,0,0
85306,-74.0740740740741,4,2,2,65,0,0
85790,-71.4285714285714,4,2,2,65,0,0
86919,-100,4,2,3,45,0,0
87000,-100,4,2,1,65,0,0
96596,-200,4,2,1,65,0,0
96919,-133.333333333333,4,2,1,65,0,0
97241,-100,4,2,3,65,0,0
97322,-100,4,2,1,65,0,0
102403,-100,4,2,3,65,0,0
102483,-100,4,2,1,65,0,0
114661,-80,4,2,1,65,0,0
116596,-100,4,2,1,65,0,0
116677,-100,4,2,1,5,0,0
117241,-100,4,2,1,20,0,0
117564,-100,4,2,3,65,0,0
117645,-100,4,2,1,20,0,0
117887,-80,4,2,2,65,0,1
123048,-80,4,2,4,75,0,1
123129,-80,4,2,2,65,0,1
126919,-80,4,2,2,50,0,1
127080,-80,4,2,2,45,0,1
127241,-80,4,2,2,40,0,1
127403,-80,4,2,2,35,0,1
127887,-133.333333333333,4,2,1,35,0,0
127967,-133.333333333333,4,2,1,10,0,0
128048,-133.333333333333,4,2,1,35,0,0
128129,-133.333333333333,4,2,1,10,0,0
128209,-100,4,2,3,50,0,0
128532,-80,4,2,2,65,0,1
132080,-133.333333333333,4,2,2,65,0,1
132725,-80,4,2,2,65,0,1
133370,-80,4,2,4,75,0,1
133451,-80,4,2,2,65,0,1
138532,-100,4,2,4,75,0,0
138612,-100,4,2,2,65,0,0
141112,-200,4,2,1,27,0,0
141919,-200,4,2,1,32,0,0
142000,-200,4,2,1,34,0,0
142080,-200,4,2,1,36,0,0
142161,-200,4,2,1,38,0,0
142241,-200,4,2,1,40,0,0
142322,-200,4,2,1,42,0,0
142403,-100,4,2,2,65,0,0
143693,-80,4,2,2,65,0,0
147564,-66.6666666666667,4,2,2,65,0,0
148854,-100,4,2,2,65,0,0
162403,-200,4,2,1,25,0,0
162645,-200,4,2,1,15,0,0
162725,-133.333333333333,4,2,1,35,0,0
162967,-200,4,2,1,15,0,0
163048,-100,4,2,3,65,0,0
166596,-100,4,2,2,65,0,0
168209,-80,4,2,4,75,0,1
168290,-80,4,2,2,65,0,1
172080,-80,4,2,2,50,0,1
172241,-80,4,2,2,45,0,1
172403,-80,4,2,2,40,0,1
172564,-80,4,2,2,35,0,1
173048,-133.333333333333,4,2,1,35,0,0
173129,-133.333333333333,4,2,1,15,0,0
173209,-133.333333333333,4,2,1,35,0,0
173290,-133.333333333333,4,2,1,15,0,0
173370,-100,4,2,3,60,0,0
173693,-80,4,2,2,65,0,1
177241,-133.333333333333,4,2,2,65,0,1
177887,-80,4,2,2,65,0,1
178532,-80,4,2,4,75,0,1
178612,-80,4,2,2,65,0,1
183693,-80,4,2,4,75,0,1
183774,-80,4,2,2,65,0,1
184338,342.857142857143,4,2,2,65,1,0
184338,-80,4,2,2,65,0,1
184680,342.857142857143,4,2,2,65,1,1
185022,387.096774193548,4,2,2,65,1,0
185215,392.156862745098,4,2,2,65,1,0
185411,419.58041958042,4,2,2,65,1,0
185620,428.571428571429,4,2,2,65,1,0
185834,444.444444444444,4,2,2,65,1,0
186056,500,4,2,2,65,1,0
186306,555.555555555556,4,2,2,65,1,0
186583,635.593220338983,4,2,2,65,1,0
187854,322.58064516129,4,2,2,65,1,0
188499,322.58064516129,4,2,2,65,1,1
188499,-80,4,2,2,65,0,1
191079,-80,4,2,4,75,0,0

[Colours]
Combo1 : 137,89,101
Combo2 : 253,90,207
Combo3 : 89,255,159
Combo4 : 255,62,67

[HitObjects]
94,153,14338,6,0,P|113:140|136:133,1,47.5,2|2,0:0|0:0,0:0:0:0:
176,264,14500,2,0,P|163:244|156:221,1,47.5,2|2,0:0|0:0,0:0:0:0:
216,124,14661,2,0,L|336:140,1,95,8|8,0:0|0:0,0:0:0:0:
360,256,14983,1,8,0:0:0:0:
372,100,15145,1,0,0:0:0:0:
416,312,15306,6,0,P|368:332|348:328,1,47.5,2|2,0:0|0:0,0:0:0:0:
340,214,15467,2,0,P|354:233|360:256,1,47.5,2|2,0:0|0:0,0:0:0:0:
264,300,15629,2,0,L|164:260,1,95,4|0,0:0|0:0,0:0:0:0:
216,124,15951,1,8,0:0:0:0:
372,100,16112,1,8,0:0:0:0:
360,256,16274,1,8,0:0:0:0:
204,280,16435,1,0,0:0:0:0:
146,158,16596,6,0,L|100:168,1,47.5,2|2,0:0|0:0,0:0:0:0:
262,133,16758,2,0,L|216:124,1,47.5,2|2,0:0|0:0,0:0:0:0:
328,176,16919,2,0,L|456:160,1,95,4|0,0:0|0:0,0:0:0:0:
280,44,17241,1,8,0:0:0:0:
248,220,17403,1,8,0:0:0:0:
424,164,17564,1,8,0:0:0:0:
260,36,17725,1,0,0:0:0:0:
93,215,17887,6,0,L|100:168,1,47.5,2|2,0:0|0:0,0:0:0:0:
44,280,18048,2,0,L|52:336,1,47.5,2|2,0:0|0:0,0:0:0:0:
124,364,18209,2,0,L|248:352,1,95,4|0,0:0|0:0,0:0:0:0:
396,320,18532,5,8,0:0:0:0:
424,288,18612,1,0,0:0:0:0:
440,248,18693,1,8,0:0:0:0:
440,204,18774,1,0,0:0:0:0:
424,164,18854,2,0,P|424:120|436:92,3,47.5,8|0|8|0,0:0|0:0|0:0|0:0,0:0:0:0:
488,68,19177,6,0,L|368:44,1,95,4|0,0:0|0:0,0:0:0:0:
320,76,19419,1,0,0:0:0:0:
320,76,19500,2,0,L|317:28,1,47.5,8|0,0:0|0:0,0:0:0:0:
248,158,19661,2,0,L|214:123,1,47.5
312,236,19822,5,8,0:0:0:0:
396,320,19983,1,0,0:0:0:0:
272,340,20145,1,8,0:0:0:0:
312,236,20306,1,0,0:0:0:0:
212,168,20467,1,2,0:0:0:0:
176,188,20548,1,2,0:0:0:0:
152,224,20629,1,2,0:0:0:0:
148,268,20709,1,2,0:0:0:0:
152,312,20790,2,0,L|52:264,1,95,2|0,0:0|0:0,0:0:0:0:
68,108,21112,5,8,0:0:0:0:
212,168,21274,1,0,0:0:0:0:
152,312,21435,1,8,0:0:0:0:
8,252,21596,1,0,0:0:0:0:
68,108,21758,1,10,0:0:0:0:
96,104,21838,1,2,0:0:0:0:
124,100,21919,1,2,0:0:0:0:
152,96,22000,1,2,0:0:0:0:
180,92,22080,2,0,L|196:24,1,47.5,2|2,0:0|0:0,0:0:0:0:
280,128,22241,2,0,L|290:174,1,47.5,2|2,0:0|0:0,0:0:0:0:
344,252,22403,6,0,P|300:264|256:260,1,59.375,8|0,0:0|0:0,0:0:0:0:
104,244,22564,2,0,P|148:232|192:236,1,59.375
211,360,22725,1,8,0:0:0:0:
200,356,22887,6,0,P|196:312|208:276,1,61.7499971733095,8|0,0:0|0:0,0:0:0:0:
352,100,23048,2,0,P|356:144|344:180,1,61.7499971733095,0|0,0:0|0:0,0:0:0:0:
256,200,23209,1,8,0:0:0:0:
248,208,23371,6,8,L|168:204,1,64.1250002446175,8|0,0:0|0:0,0:0:0:0:
352,100,23532,2,0,L|432:96,1,64.1250002446175,0|0,0:0|0:0,0:0:0:0:
428,224,23693,1,8,0:0:0:0:
436,232,23854,6,0,L|428:320,1,66.4999979705811,8|0,0:0|0:0,0:0:0:0:
356,384,24016,2,0,L|349:317,1,66.4999979705811,0|0,0:0|0:0,0:0:0:0:
336,180,24177,1,8,0:0:0:0:
328,172,24983,6,0,B|272:156|224:184|224:184|200:144|236:88,1,190,8|8,0:0|0:0,0:0:0:0:
292,44,25467,1,0,0:0:0:0:
404,120,25629,2,0,P|420:176|408:220,1,95
292,336,25951,2,0,P|276:280|288:236,1,95,8|0,0:0|0:0,0:0:0:0:
378,367,26274,6,0,B|252:352|252:352|200:304,1,190,2|10,0:0|0:0,0:0:0:0:
136,260,26758,1,0,0:0:0:0:
80,196,26919,2,0,L|88:96,1,95
215,229,27241,2,0,L|208:324,1,95,8|0,0:0|0:0,0:0:0:0:
88,100,27564,6,0,B|220:80|220:80|176:36,2,190,2|8|0,0:0|0:0|0:0,0:0:0:0:
88,20,28370,1,0,0:0:0:0:
288,40,28532,2,0,P|304:92|288:136,1,95,8|0,0:0|0:0,0:0:0:0:
214,228,28854,6,0,B|238:344|238:344|252:324,1,142.5,2|0,0:0|0:0,0:0:0:0:
270,184,29177,2,0,P|222:156|142:224,1,142.5,10|0,0:0|0:0,0:0:0:0:
157,333,29500,2,0,L|252:324,1,95
392,248,29822,2,0,L|297:257,1,95,8|0,0:0|0:0,0:0:0:0:
440,308,30145,6,0,B|488:268|468:204|436:184|436:184|460:156|520:172,1,190,8|8,0:0|0:0,0:0:0:0:
346,333,30629,2,0,L|251:323,1,95
104,212,30951,1,0,0:0:0:0:
36,160,31112,2,0,L|40:56,1,95,8|0,0:0|0:0,0:0:0:0:
176,100,31435,6,0,L|184:308,1,190,2|8,0:0|0:0,0:0:0:0:
256,344,31919,1,0,0:0:0:0:
344,332,32080,2,0,B|372:284|372:284|376:220,1,95
328,104,32403,2,0,B|300:152|300:152|296:216,1,95,8|0,0:0|0:0,0:0:0:0:
460,116,32725,6,0,B|328:104|328:104|292:56,1,190,2|8,0:0|0:0,0:0:0:0:
132,132,33209,2,0,B|264:144|264:144|300:192,1,190,2|0,0:0|0:0,0:0:0:0:
357,238,33693,2,0,L|344:332,1,95,8|0,0:0|0:0,0:0:0:0:
128,340,34016,5,2,0:0:0:0:
275,292,34177,1,0,0:0:0:0:
129,245,34338,1,2,0:0:0:0:
219,369,34500,1,0,0:0:0:0:
220,216,34661,6,0,P|140:152|52:184,1,170.999994781494,2|0,0:0|0:0,0:0:0:0:
129,245,34983,6,0,B|168:324|252:304|252:304|284:328|332:312,1,199.499993911743,4|0,0:0|0:0,0:0:0:0:
420,300,35306,6,0,P|444:236|388:152,1,142.5,8|0,0:0|0:0,0:0:0:0:
360,128,35629,1,8,0:0:0:0:
220,216,35790,1,0,0:0:0:0:
325,311,35951,2,0,L|420:300,1,95,0|0,0:0|0:0,0:0:0:0:
248,128,36274,2,0,L|153:139,1,95,8|0,0:0|0:0,0:0:0:0:
28,180,36596,6,0,B|20:252|20:252|32:336,1,142.5,2|0,0:0|0:0,0:0:0:0:
108,344,36919,2,0,B|180:336|180:336|264:348,1,142.5,8|0,0:0|0:0,0:0:0:0:
324,312,37241,2,0,L|440:300,1,95
248,128,37564,1,8,0:0:0:0:
196,252,37725,1,0,0:0:0:0:
324,312,37887,6,0,B|340:276|324:248|324:248|348:196|304:140,1,142.5,2|0,0:0|0:0,0:0:0:0:
248,128,38209,2,0,L|144:120,1,95,8|0,0:0|0:0,0:0:0:0:
20,320,38532,1,0,0:0:0:0:
196,252,38693,1,0,0:0:0:0:
56,160,38854,1,8,0:0:0:0:
108,344,39016,1,8,0:0:0:0:
272,192,39177,6,0,P|200:180|192:88,1,142.5,2|0,0:0|0:0,0:0:0:0:
248,128,39500,2,0,P|221:190|154:199,1,142.5,8|0,0:0|0:0,0:0:0:0:
64,148,39822,2,0,L|80:44,1,95
152,200,40145,2,0,L|136:304,1,95,8|0,0:0|0:0,0:0:0:0:
72,340,40387,1,0,0:0:0:0:
72,340,40467,6,0,L|200:336,1,95,8|0,0:0|0:0,0:0:0:0:
400,220,40790,1,8,0:0:0:0:
248,128,40951,1,0,0:0:0:0:
300,296,41112,1,0,0:0:0:0:
416,100,41274,1,0,0:0:0:0:
204,64,41435,2,0,P|176:104|184:168,1,95,8|0,0:0|0:0,0:0:0:0:
184,176,41677,1,0,0:0:0:0:
200,200,41758,6,0,L|312:212,1,95,2|0,0:0|0:0,0:0:0:0:
436,100,42080,1,8,0:0:0:0:
248,128,42241,1,0,0:0:0:0:
392,36,42403,1,0,0:0:0:0:
204,64,42564,1,0,0:0:0:0:
472,168,42725,2,0,P|492:232|428:292,1,142.5,8|0,0:0|0:0,0:0:0:0:
396,292,43048,6,0,L|280:296,1,95,2|0,0:0|0:0,0:0:0:0:
112,244,43370,2,0,L|228:240,1,95,8|0,0:0|0:0,0:0:0:0:
372,128,43693,2,0,P|384:82|371:37,1,95
240,248,44016,2,0,P|227:293|240:338,1,95,8|0,0:0|0:0,0:0:0:0:
396,292,44338,5,2,0:0:0:0:
372,128,44500,1,8,0:0:0:0:
140,128,44661,1,0,0:0:0:0:
116,292,44823,1,0,0:0:0:0:
256,348,44983,6,0,B|372:332|372:332|340:312,1,142.5,2|0,0:0|0:0,0:0:0:0:
256,270,45306,2,0,L|116:292,1,142.5,10|0,0:2|0:0,0:0:0:0:
56,340,45629,6,0,P|40:280|96:216,1,142.500005435944,8|0,0:0|0:0,0:0:0:0:
255,270,46112,2,0,B|220:280|220:280|160:280|160:280|116:292,1,142.500005435944,8|0,0:0|0:0,0:0:0:0:
188,184,46596,1,8,0:2:0:0:
223,99,47564,5,0,0:0:0:0:
280,172,47887,1,0,0:2:0:0:
336,240,48209,2,0,B|320:332|320:332|264:368,1,142.500005435944,8|0,0:0|0:0,0:0:0:0:
113,288,48693,2,0,P|180:267|248:288,1,142.500005435944,8|0,0:0|0:0,0:0:0:0:
180,372,49177,1,8,0:0:0:0:
80,90,50145,6,0,P|116:110|136:114,1,47.5000018119813,8|8,0:0|0:0,0:0:0:0:
148,192,50360,2,0,P|170:183|189:170,1,47.5000018119813,8|8,0:0|0:0,0:0:0:0:
212,72,50575,2,0,P|234:80|253:93,1,47.5000018119813,8|8,0:0|0:0,0:0:0:0:
316,168,50790,6,0,P|344:228|304:312,1,142.500005435944,8|0,0:0|0:0,0:0:0:0:
191,297,51435,2,0,P|167:231|196:168,1,142.500005435944,8|0,0:0|0:0,0:0:0:0:
256,236,52080,1,8,0:0:0:0:
256,236,52564,1,0,0:0:0:0:
256,236,52645,1,0,0:0:0:0:
256,236,52725,6,0,L|120:236,1,118.75,8|2,0:0|0:0,0:0:0:0:
100,216,52967,1,2,0:0:0:0:
80,180,53048,1,2,0:0:0:0:
80,140,53129,1,2,0:0:0:0:
92,100,53209,1,2,0:0:0:0:
120,68,53290,1,2,0:0:0:0:
160,48,53370,6,0,B|240:28|304:52|304:52|264:92,1,178.125,8|0,0:0|0:0,0:0:0:0:
176,168,53693,2,0,B|184:284|184:284|237:314,1,178.125,8|0,0:0|0:0,0:0:0:0:
390,280,54016,5,8,0:0:0:0:
256,93,54177,1,8,0:0:0:0:
256,236,54338,1,8,0:0:0:0:
474,165,54500,1,8,0:0:0:0:
391,49,54661,6,8,B|396:96,1,47.5,8|0,0:0|0:0,0:0:0:0:
390,280,55306,6,8,P|348:308|312:312,1,71.25,2|0,0:0|0:0,0:0:0:0:
228,312,55629,6,0,P|279:297|329:313,1,106.875004076958,8|0,0:0|0:0,0:0:0:0:
228,312,55951,6,0,B|241:234|241:234|217:178,1,118.75,6|0,0:0|0:0,0:0:0:0:
180,148,56193,1,0,0:0:0:0:
112,132,56274,2,0,P|152:84|224:96,1,118.75,8|0,0:0|0:0,0:0:0:0:
406,162,56596,2,0,L|392:280,1,118.75,2|0,0:0|0:0,0:0:0:0:
360,340,56838,1,0,0:0:0:0:
304,380,56919,2,0,P|296:312|344:272,1,118.75,8|0,0:0|0:0,0:0:0:0:
460,340,57241,5,2,0:0:0:0:
184,376,57403,1,0,0:0:0:0:
144,352,57483,1,0,0:0:0:0:
104,324,57564,2,0,L|88:204,1,118.75,8|0,0:0|0:0,0:0:0:0:
232,44,57887,1,2,0:0:0:0:
407,162,58048,1,0,0:0:0:0:
407,162,58129,1,0,0:0:0:0:
407,162,58209,2,0,P|336:176|264:144,1,118.75,8|0,0:0|0:0,0:0:0:0:
156,48,58532,6,0,B|160:96|208:116|208:116|176:232,1,178.125,2|0,0:0|0:0,0:0:0:0:
88,260,58854,2,0,L|124:124,1,118.75,8|0,0:0|0:0,0:0:0:0:
232,44,59177,1,2,0:0:0:0:
436,88,59338,1,0,0:0:0:0:
464,128,59419,1,0,0:0:0:0:
492,168,59500,2,0,B|512:252|512:252|496:320,1,118.75,8|0,0:0|0:0,0:0:0:0:
392,336,59822,6,0,B|260:344|260:344|320:308,1,178.125,2|0,0:0|0:0,0:0:0:0:
396,240,60145,2,0,B|434:257|434:257|313:264,1,118.75,8|0,0:0|0:0,0:0:0:0:
248,260,60467,2,0,L|128:256,1,118.75,2|0,0:0|0:0,0:0:0:0:
40,116,60709,1,0,0:0:0:0:
52,84,60790,2,0,P|56:44|48:16,1,59.375,8|0,0:0|0:0,0:0:0:0:
120,120,60951,2,0,P|116:160|124:188,1,59.375,8|0,0:0|0:0,0:0:0:0:
196,148,61112,6,0,B|324:132|324:132|380:68,1,178.125,8|0,0:0|0:0,0:0:0:0:
280,64,61435,1,8,0:0:0:0:
248,260,61596,1,0,0:0:0:0:
492,200,61758,2,0,B|452:176|452:176|400:176|372:192|356:220|356:268,1,178.125,2|0,0:0|0:0,0:0:0:0:
433,254,62080,1,8,0:0:0:0:
468,92,62241,1,0,0:0:0:0:
280,64,62403,5,2,0:0:0:0:
308,384,62564,1,0,0:0:0:0:
396,164,62725,1,8,0:0:0:0:
248,260,62886,1,0,0:0:0:0:
406,341,63048,1,0,0:0:0:0:
232,72,63209,1,0,0:0:0:0:
188,92,63290,1,0,0:0:0:0:
156,128,63370,2,0,B|140:192|140:192|152:248,1,118.75,8|0,0:0|0:0,0:0:0:0:
256,364,63693,5,8,0:0:0:0:
256,364,63854,2,0,L|300:316,1,59.375
404,106,64016,5,8,0:0:0:0:
404,106,64177,2,0,L|341:92,1,59.375
107,106,64338,5,8,0:0:0:0:
107,106,64499,2,0,L|126:168,1,59.375
404,278,64661,5,8,0:0:0:0:
404,278,64822,2,0,L|385:216,1,59.375
256,68,64983,5,8,0:0:0:0:
240,136,65145,1,8,0:0:0:0:
268,320,65306,1,2,0:0:0:0:
284,252,65467,1,2,0:0:0:0:
316,116,65629,1,2,0:0:0:0:
300,184,65790,1,0,0:0:0:0:
284,252,65951,6,0,L|328:256,1,35.625001358986,2|0,0:0|0:0,0:0:0:0:
375,333,66112,2,0,L|331:337,1,35.625001358986,2|0,0:0|0:0,0:0:0:0:
256,340,66274,6,0,B|156:308|156:308|224:312,1,142.5,10|0,0:0|0:0,0:0:0:0:
256,340,66596,6,0,L|374:333,1,118.75,12|0,0:0|0:0,0:0:0:0:
440,304,66838,1,0,0:0:0:0:
492,256,66919,2,0,P|500:184|476:132,1,118.75,2|0,0:0|0:0,0:0:0:0:
436,92,67161,1,0,0:0:0:0:
368,84,67241,2,0,L|249:90,1,118.75,8|0,0:0|0:0,0:0:0:0:
144,248,67564,5,2,0:0:0:0:
316,172,67725,1,0,0:0:0:0:
316,172,67806,1,0,0:0:0:0:
316,172,67887,1,8,0:0:0:0:
160,64,68048,1,0,0:0:0:0:
93,193,68209,2,0,P|73:269|97:305,1,118.75,2|0,0:0|0:0,0:0:0:0:
144,248,68451,1,0,0:0:0:0:
144,248,68532,1,8,0:0:0:0:
264,88,68693,1,0,0:0:0:0:
221,345,68854,6,0,B|337:330|337:330|385:275,1,178.125,2|0,0:0|0:0,0:0:0:0:
454,297,69177,2,0,L|449:158,1,118.75,8|0,0:0|0:0,0:0:0:0:
300,264,69500,1,0,0:0:0:0:
153,118,69661,1,0,0:0:0:0:
279,6,69823,1,8,0:0:0:0:
320,172,69983,1,0,0:0:0:0:
248,100,70145,6,0,B|288:80|288:80|344:76|344:76|388:52,1,142.500005435944,8|8,0:0|0:0,0:0:0:0:
216,24,70629,1,8,0:0:0:0:
153,118,70790,6,0,P|160:216|144:260,1,118.75,8|8,0:0|0:0,0:0:0:0:
116,264,71032,1,8,0:0:0:0:
68,256,71112,1,8,0:0:0:0:
32,224,71193,1,8,0:0:0:0:
24,176,71274,1,8,0:0:0:0:
38,131,71354,1,8,0:0:0:0:
75,101,71435,6,0,B|183:81|183:81|255:101,1,178.125,8|0,0:0|0:0,0:0:0:0:
216,168,71758,1,8,0:0:0:0:
119,20,71919,1,0,0:0:0:0:
300,160,72080,2,0,B|328:212|300:260|300:260|348:252|392:296,1,178.125,2|0,0:0|0:0,0:0:0:0:
316,348,72403,1,8,0:0:0:0:
224,210,72564,1,0,0:0:0:0:
456,72,72725,5,2,0:0:0:0:
188,132,72887,1,0,0:0:0:0:
412,184,73048,1,8,0:0:0:0:
300,160,73209,1,0,0:0:0:0:
340,56,73370,1,0,0:0:0:0:
480,208,73532,2,0,P|448:248|432:252,1,59.375,0|0,0:0|0:0,0:0:0:0:
340,238,73693,2,0,L|224:210,1,118.75,8|0,0:0|0:0,0:0:0:0:
176,48,74016,5,8,0:0:0:0:
176,48,74177,2,0,L|187:107,1,59.375
171,333,74338,5,8,0:0:0:0:
171,333,74499,2,0,L|217:294,1,59.375
420,194,74661,5,8,0:0:0:0:
420,194,74822,2,0,L|363:174,1,59.375
91,189,74983,5,8,0:0:0:0:
91,189,75144,2,0,L|148:209,1,59.375
308,272,75306,5,8,0:0:0:0:
488,272,75467,1,10,0:0:0:0:
342,377,75629,1,2,0:0:0:0:
398,206,75790,1,2,0:0:0:0:
453,377,75951,1,2,0:0:0:0:
453,377,76274,6,0,L|389:369,1,59.375,8|8,0:0|0:0,0:0:0:0:
300,168,76435,2,0,L|308:104,1,59.375,8|8,0:0|0:0,0:0:0:0:
500,161,76596,1,10,0:0:0:0:
88,264,84338,6,0,P|132:272|152:268,1,59.375,8|0,0:0|0:0,0:0:0:0:
316,216,84500,2,0,P|287:208|258:210,1,59.375
240,352,84661,1,8,0:0:0:0:
260,344,84822,6,0,L|280:268,1,61.7499971733095,8|0,0:0|0:0,0:0:0:0:
184,140,84983,2,0,L|164:216,1,61.7499971733095
127,327,85145,1,8,0:0:0:0:
144,340,85306,6,0,L|232:336,1,64.1250002446175,8|0,0:0|0:0,0:0:0:0:
408,288,85467,2,0,L|340:284,1,64.1250002446175
244,195,85629,1,8,0:0:0:0:
256,176,85790,6,0,P|256:108|236:80,1,66.4999979705811,8|0,0:0|0:0,0:0:0:0:
144,8,85951,2,0,P|136:40|142:72,1,66.4999979705811
184,140,86112,1,8,0:0:0:0:
192,152,86919,6,0,B|280:164|280:164|320:132|316:68,1,190,8|8,0:0|0:0,0:0:0:0:
192,44,87403,1,0,0:0:0:0:
128,108,87564,2,0,P|116:172|140:213,1,95,0|0,0:0|0:0,0:0:0:0:
200,320,87887,2,0,P|212:256|188:215,1,95,8|0,0:0|0:0,0:0:0:0:
88,336,88209,6,0,B|208:320|208:320|280:344,1,190,2|8,0:0|0:0,0:0:0:0:
352,368,88693,1,2,0:0:0:0:
352,368,88854,1,2,0:0:0:0:
352,368,89177,2,0,P|364:312|336:264,1,95,8|0,0:0|0:0,0:0:0:0:
248,216,89500,6,0,P|304:244|432:208,1,190,2|8,0:0|0:0,0:0:0:0:
480,120,89983,1,0,0:0:0:0:
408,48,90145,2,0,P|348:44|308:52,1,95
144,128,90467,2,0,P|204:132|244:124,1,95,8|0,0:0|0:0,0:0:0:0:
160,44,90790,6,0,P|92:64|80:180,1,190,2|8,0:0|0:0,0:0:0:0:
164,256,91274,1,0,0:0:0:0:
164,256,91435,2,0,P|176:316|160:352,1,95
9,300,91758,2,0,L|104:300,1,95,8|0,0:0|0:0,0:0:0:0:
260,296,92080,5,6,0:0:0:0:
272,308,92564,1,0,0:0:0:0:
352,248,92725,2,0,L|368:144,1,95,8|0,0:0|0:0,0:0:0:0:
304,76,93048,2,0,P|248:68|200:80,1,95
124,128,93370,6,0,B|92:168|92:196|112:236|112:236|84:276|116:324,1,190,6|8,0:0|0:0,0:0:0:0:
271,186,93854,2,0,P|225:175|180:188,1,95
272,308,94177,1,0,0:0:0:0:
352,248,94338,5,8,0:0:0:0:
364,240,94661,2,0,B|400:188|372:128|372:128|388:84|464:88,1,190,6|8,0:0|0:0,0:0:0:0:
504,52,95145,2,0,P|416:88|336:48,1,190,2|0,0:0|0:0,0:0:0:0:
232,80,95629,1,8,0:0:0:0:
232,80,95790,1,0,0:0:0:0:
232,80,96596,6,0,L|220:160,1,71.25,8|0,0:0|0:0,0:0:0:0:
224,248,96919,6,0,P|239:197|220:148,1,106.875004076958,4|0,0:0|0:0,0:0:0:0:
168,200,97241,6,0,P|168:296|264:308,1,190,8|8,0:0|0:0,0:0:0:0:
392,280,97725,2,0,L|492:256,1,95
408,92,98048,1,0,0:0:0:0:
264,176,98209,1,8,0:0:0:0:
444,176,98370,1,0,0:0:0:0:
228,92,98532,6,0,L|128:104,1,95,2|0,0:0|0:0,0:0:0:0:
36,224,98854,2,0,L|136:236,1,95,8|0,0:0|0:0,0:0:0:0:
360,292,99177,2,0,P|380:232|348:148,1,142.5
300,108,99500,1,8,0:0:0:0:
204,224,99661,1,0,0:0:0:0:
296,340,99822,6,0,P|356:372|428:336,1,142.5,2|0,0:0|0:0,0:0:0:0:
480,280,100145,2,0,L|492:172,1,95,8|0,0:0|0:0,0:0:0:0:
300,108,100467,1,0,0:0:0:0:
416,220,100629,1,0,0:0:0:0:
444,84,100790,1,8,0:0:0:0:
256,168,100951,1,0,0:0:0:0:
380,140,101112,5,2,0:0:0:0:
200,44,101274,1,0,0:0:0:0:
290,224,101435,1,8,0:0:0:0:
325,28,101596,1,0,0:0:0:0:
178,166,101758,1,8,0:0:0:0:
178,166,101838,1,8,0:0:0:0:
178,166,101919,2,0,L|156:276,1,95,8|8,0:0|0:0,0:0:0:0:
44,188,102241,1,0,0:0:0:0:
192,92,102403,6,0,L|312:76,1,95,8|0,0:0|0:0,0:0:0:0:
356,120,102645,1,0,0:0:0:0:
356,120,102725,1,8,0:0:0:0:
312,332,102887,1,0,0:0:0:0:
472,308,103048,1,0,0:0:0:0:
364,208,103209,1,0,0:0:0:0:
248,280,103370,2,8,P|232:340|252:388,1,95,8|0,0:0|0:0,0:0:0:0:
328,252,103693,6,0,P|284:200|164:272,1,190,2|8,0:0|0:0,0:0:0:0:
356,120,104177,2,0,L|472:104,1,95
256,24,104500,1,0,0:0:0:0:
156,120,104661,2,0,B|120:140|108:184|120:212|120:212|96:168,1,142.5,8|0,0:0|0:0,0:0:0:0:
64,100,104983,6,0,B|204:132|204:132|272:92,1,190,2|8,0:0|0:0,0:0:0:0:
144,16,105467,1,0,0:0:0:0:
24,172,105629,1,0,0:0:0:0:
64,332,105790,1,0,0:0:0:0:
196,212,105951,1,8,0:0:0:0:
10,291,106112,1,8,0:0:0:0:
224,376,106274,6,0,P|288:364|344:376,1,95,2|0,0:0|0:0,0:0:0:0:
488,268,106596,2,0,P|424:280|368:268,1,95,8|0,0:0|0:0,0:0:0:0:
276,216,106919,6,0,P|256:156|320:80,1,142.5,2|0,0:0|0:0,0:0:0:0:
368,60,107241,2,0,B|292:92|292:92|200:56,1,142.5,8|0,0:0|0:0,0:0:0:0:
164,24,107564,6,0,B|144:64|144:64|160:96|160:132|144:168|144:168|164:224,1,190,6|8,0:0|0:0,0:0:0:0:
180,288,108048,2,0,B|192:344|260:352|260:352|304:328|372:360,1,190,2|0,0:0|0:0,0:0:0:0:
412,304,108532,2,0,B|436:256|400:208|400:208|396:152|448:124|448:124|468:136|492:184|460:208,1,285,8|0,0:0|0:0,0:0:0:0:
344,264,109177,5,8,0:0:0:0:
180,288,109338,1,0,0:0:0:0:
180,288,109419,1,0,0:0:0:0:
180,288,109500,2,0,B|132:300|104:280|104:280|132:352|72:384,2,190,8|2|6,0:0|0:0|0:0,0:0:0:0:
148,212,110306,1,0,0:0:0:0:
40,320,110467,5,8,0:0:0:0:
39,320,110629,2,0,B|96:284|148:324|156:376|156:376|219:336,1,190,2|0,0:0|0:0,0:0:0:0:
268,312,111112,2,0,B|292:256|264:208|264:208|304:180|304:180|272:144|272:80|336:40,1,285,8|0,0:0|0:0,0:0:0:0:
364,124,111758,5,8,0:0:0:0:
479,264,111973,1,8,0:0:0:0:
416,268,112080,2,0,L|332:272,1,63.3333333333333,8|8,0:0|0:0,0:0:0:0:
268,312,112295,2,0,L|264:228,1,63.3333333333333,8|8,0:0|0:0,0:0:0:0:
200,188,112510,2,0,P|256:160|284:164,1,63.3333333333333,8|8,0:0|0:0,0:0:0:0:
380,196,112725,5,8,0:0:0:0:
289,71,113048,1,0,0:0:0:0:
435,119,113370,1,8,0:0:0:0:
289,166,113693,1,0,0:0:0:0:
380,42,114016,1,8,0:0:0:0:
380,42,114500,1,0,0:0:0:0:
380,42,114580,1,0,0:0:0:0:
380,42,114661,6,0,P|292:60|248:36,1,118.75,8|2,0:0|0:0,0:0:0:0:
216,68,114903,1,2,0:0:0:0:
192,116,114983,1,2,0:0:0:0:
204,168,115064,1,2,0:0:0:0:
252,192,115145,1,2,0:0:0:0:
304,180,115225,1,2,0:0:0:0:
340,140,115306,6,0,P|304:240|364:308,1,178.125,8|0,0:0|0:0,0:0:0:0:
392,220,115629,2,0,B|332:220|332:220|276:236|276:236|184:232,1,178.125,8|0,0:0|0:0,0:0:0:0:
264,124,115951,5,8,0:0:0:0:
124,244,116112,1,8,0:0:0:0:
264,124,116274,5,8,0:0:0:0:
124,244,116435,1,8,0:0:0:0:
296,300,116596,6,0,L|340:244,1,47.5,8|0,0:0|0:0,0:0:0:0:
296,300,117241,6,0,L|340:244,1,47.5,8|0,0:0|0:0,0:0:0:0:
422,165,117403,2,0,L|452:128,1,47.5,8|0,0:0|0:0,0:0:0:0:
341,133,117564,6,0,L|311:170,1,47.5,8|0,0:0|0:0,0:0:0:0:
408,296,117725,2,0,L|437:258,1,47.5,0|0,0:0|0:0,0:0:0:0:
452,128,117887,6,0,P|376:148|320:112,1,118.75,6|0,0:0|0:0,0:0:0:0:
292,84,118129,1,0,0:0:0:0:
268,16,118209,2,0,P|232:44|240:132,1,118.75,8|0,0:0|0:0,0:0:0:0:
316,312,118532,2,0,P|352:284|344:200,1,118.75,2|0,0:0|0:0,0:0:0:0:
292,248,118774,1,0,0:0:0:0:
248,304,118854,2,0,P|316:380|356:364,1,118.75,8|0,0:0|0:0,0:0:0:0:
422,165,119177,5,2,0:0:0:0:
292,83,119338,2,0,P|262:89|233:85,1,59.375,0|0,0:0|0:0,0:0:0:0:
68,140,119500,2,0,P|132:128|184:148,1,118.75,8|0,0:0|0:0,0:0:0:0:
292,248,119822,1,2,0:0:0:0:
44,320,119983,1,0,0:0:0:0:
88,288,120064,1,0,0:0:0:0:
128,252,120145,1,8,0:0:0:0:
164,356,120306,1,0,0:0:0:0:
40,184,120467,6,0,P|128:208|220:172,1,178.125,2|0,0:0|0:0,0:0:0:0:
291,108,120790,2,0,P|239:132|207:232,1,118.75,8|0,0:0|0:0,0:0:0:0:
296,352,121112,2,0,L|432:340,1,118.75,2|0,0:0|0:0,0:0:0:0:
484,192,121435,1,8,0:0:0:0:
432,36,121596,1,0,0:0:0:0:
292,248,121758,6,0,B|352:216|432:248|432:248|392:192,1,178.125,2|0,0:0|0:0,0:0:0:0:
361,46,122080,2,0,P|339:99|355:155,1,118.75,8|0,0:0|0:0,0:0:0:0:
484,112,122403,1,2,0:0:0:0:
168,256,122564,1,0,0:0:0:0:
172,260,122645,1,0,0:0:0:0:
176,264,122725,2,0,L|168:332,1,59.375,8|0,0:0|0:0,0:0:0:0:
292,248,122887,2,0,L|285:189,1,59.375,8|0,0:0|0:0,0:0:0:0:
212,128,123048,5,8,0:0:0:0:
211,365,123209,1,0,0:0:0:0:
211,365,123290,1,0,0:0:0:0:
211,365,123370,1,8,0:0:0:0:
417,246,123532,1,0,0:0:0:0:
218,185,123693,1,0,0:0:0:0:
354,349,123854,1,0,0:0:0:0:
354,349,123935,1,0,0:0:0:0:
354,349,124015,1,8,0:0:0:0:
428,148,124177,1,0,0:0:0:0:
280,104,124338,5,2,0:0:0:0:
290,351,124500,1,0,0:0:0:0:
428,148,124661,1,8,0:0:0:0:
196,230,124822,1,0,0:0:0:0:
432,298,124983,1,0,0:0:0:0:
280,104,125145,2,0,L|269:33,1,59.375
428,148,125306,2,0,L|408:288,1,118.75,8|0,0:0|0:0,0:0:0:0:
112,104,125629,5,8,0:0:0:0:
112,104,125790,2,0,P|156:92|180:92,1,59.375
404,111,125951,5,8,0:0:0:0:
404,111,126112,2,0,P|392:155|380:176,1,59.375
251,360,126274,5,8,0:0:0:0:
251,360,126435,2,0,P|219:328|207:307,1,59.375
260,23,126596,5,8,0:0:0:0:
260,23,126757,2,0,P|292:55|304:76,1,59.375
412,200,126919,5,8,0:0:0:0:
476,144,127080,1,8,0:0:0:0:
424,280,127241,1,2,0:0:0:0:
464,64,127403,1,2,0:0:0:0:
436,360,127564,1,2,0:0:0:0:
488,224,127725,1,0,0:0:0:0:
424,280,127887,6,0,L|380:288,1,35.625001358986,2|0,0:0|0:0,0:0:0:0:
320,328,128048,2,0,L|284:321,1,35.625001358986,2|0,0:0|0:0,0:0:0:0:
208,248,128209,6,0,B|318:220|318:220|260:200,1,142.5,8|0,0:0|0:0,0:0:0:0:
220,168,128532,6,0,L|60:216,1,118.75,8|0,0:0|0:0,0:0:0:0:
71,263,128774,1,0,0:0:0:0:
13,303,128854,2,0,P|96:328|132:297,1,118.75,2|0,0:0|0:0,0:0:0:0:
172,269,129096,1,0,0:0:0:0:
172,269,129177,2,0,B|205:244|205:244|222:158,1,118.75,8|0,0:0|0:0,0:0:0:0:
136,88,129500,5,2,0:0:0:0:
280,236,129661,1,0,0:0:0:0:
280,236,129741,1,0,0:0:0:0:
280,236,129822,2,8,P|360:248|408:224,1,118.75,8|0,0:0|0:0,0:0:0:0:
332,96,130145,1,2,0:0:0:0:
136,88,130306,1,0,0:0:0:0:
116,132,130387,1,0,0:0:0:0:
96,172,130467,1,8,0:0:0:0:
172,269,130629,1,0,0:0:0:0:
160,48,130790,6,0,B|84:36|36:52|36:52|96:80,1,178.125,2|0,0:0|0:0,0:0:0:0:
160,120,131112,2,0,P|220:88|224:20,1,118.75,8|0,0:0|0:0,0:0:0:0:
76,216,131435,1,2,0:0:0:0:
248,324,131596,1,0,0:0:0:0:
160,120,131758,1,8,0:0:0:0:
76,324,131919,1,0,0:0:0:0:
160,192,132080,6,0,B|209:187|209:187|257:197|257:197|317:182,1,142.500005435944,8|8,0:0|0:0,0:0:0:0:
396,116,132564,1,8,0:0:0:0:
260,12,132725,5,8,0:0:0:0:
128,78,132887,1,8,0:0:0:0:
128,78,132967,1,8,0:0:0:0:
128,78,133048,1,8,0:0:0:0:
128,78,133129,1,8,0:0:0:0:
128,78,133209,1,8,0:0:0:0:
128,78,133290,1,8,0:0:0:0:
128,78,133370,6,0,B|154:216|154:216|135:247,1,178.125,8|0,0:0|0:0,0:0:0:0:
80,324,133693,2,0,P|44:228|60:192,1,118.75,8|0,0:0|0:0,0:0:0:0:
231,88,134016,2,0,P|318:75|396:116,1,178.125,2|0,0:0|0:0,0:0:0:0:
488,120,134338,2,0,P|432:200|368:204,1,118.75,8|0,0:0|0:0,0:0:0:0:
208,168,134661,5,2,0:0:0:0:
440,49,134822,1,0,0:0:0:0:
321,281,134983,1,8,0:0:0:0:
280,24,135145,1,0,0:0:0:0:
466,208,135306,1,0,0:0:0:0:
264,328,135467,1,0,0:0:0:0:
264,328,135548,1,0,0:0:0:0:
264,328,135629,2,0,L|132:316,1,118.75,8|0,0:0|0:0,0:0:0:0:
104,140,135951,5,8,0:0:0:0:
104,140,136112,2,0,L|124:64,1,59.375
408,140,136274,5,8,0:0:0:0:
408,140,136435,2,0,L|388:64,1,59.375
160,248,136596,5,8,0:0:0:0:
160,248,136757,2,0,L|180:172,1,59.375
352,248,136919,5,8,0:0:0:0:
352,248,137080,2,0,L|332:172,1,59.375
84,124,137241,5,10,0:0:0:0:
256,28,137403,1,10,0:0:0:0:
253,225,137564,1,2,0:0:0:0:
142,26,137725,1,2,0:0:0:0:
311,127,137887,1,2,0:0:0:0:
140,224,138048,5,2,0:0:0:0:
132,208,138129,1,2,0:0:0:0:
124,192,138209,1,2,0:0:0:0:
116,176,138290,1,2,0:0:0:0:
108,160,138370,1,2,0:0:0:0:
100,144,138451,1,2,0:0:0:0:
94,131,138532,6,0,L|206:95,1,95,8|0,0:0|0:0,0:0:0:0:
240,60,138774,1,0,0:0:0:0:
240,60,138854,1,8,0:0:0:0:
96,20,139016,1,0,0:0:0:0:
28,212,139177,1,2,0:0:0:0:
100,316,139338,1,0,0:0:0:0:
100,316,139419,1,0,0:0:0:0:
100,316,139500,2,0,L|204:336,1,95,8|0,0:0|0:0,0:0:0:0:
308,312,139822,5,2,0:0:0:0:
348,216,139983,1,0,0:0:0:0:
308,120,140145,5,8,0:0:0:0:
268,216,140306,1,0,0:0:0:0:
428,216,140467,5,2,0:0:0:0:
448,176,140548,1,2,0:0:0:0:
448,132,140629,1,2,0:0:0:0:
436,92,140709,1,2,0:0:0:0:
412,56,140790,2,0,L|340:64,1,47.5,10|2,0:0|0:0,0:0:0:0:
308,120,140951,2,0,L|260:114,1,47.5,2|2,0:0|0:0,0:0:0:0:
164,112,141112,6,0,B|124:84|72:104|72:104|52:80|56:48|92:16,1,190,8|8,0:0|0:0,0:0:0:0:
116,168,141919,1,2,0:0:0:0:
124,188,142000,1,2,0:0:0:0:
136,204,142080,1,2,0:0:0:0:
152,216,142161,1,2,0:0:0:0:
172,224,142241,1,2,0:0:0:0:
192,228,142322,1,2,0:0:0:0:
208,228,142403,6,0,L|280:208,1,47.5,8|8,0:0|0:0,0:0:0:0:
388,320,142564,2,0,L|316:300,1,47.5,8|8,0:0|0:0,0:0:0:0:
308,120,142725,2,0,L|353:132,1,47.5,8|8,0:0|0:0,0:0:0:0:
488,212,142886,2,0,L|442:224,1,47.5,8|8,0:0|0:0,0:0:0:0:
228,304,143048,5,10,0:0:0:0:
182,316,143128,1,2,0:0:0:0:
136,306,143209,1,2,0:0:0:0:
100,276,143289,1,2,0:0:0:0:
81,233,143370,1,2,0:0:0:0:
85,186,143451,1,2,0:0:0:0:
109,146,143531,1,2,0:0:0:0:
150,121,143612,1,2,0:0:0:0:
197,118,143693,6,2,P|284:132|316:112,1,118.75,10|2,0:0|0:0,0:0:0:0:
360,56,143935,1,8,0:0:0:0:
360,56,144016,1,8,0:0:0:0:
109,146,144177,1,8,0:0:0:0:
124,164,144258,1,0,0:0:0:0:
140,180,144338,2,0,L|132:252,1,59.375,0|0,0:0|0:0,0:0:0:0:
43,354,144500,1,8,0:0:0:0:
28,336,144581,1,0,0:0:0:0:
12,320,144661,2,0,L|20:248,1,59.375,8|0,0:0|0:0,0:0:0:0:
96,128,144822,5,8,0:0:0:0:
116,116,144903,1,0,0:0:0:0:
136,104,144983,1,2,0:0:0:0:
156,92,145064,1,0,0:0:0:0:
176,80,145145,2,0,L|304:104,1,118.75,8|8,0:0|0:0,0:0:0:0:
360,136,145387,5,8,0:0:0:0:
360,136,145467,2,0,L|364:220,1,59.375,8|8,0:0|0:0,0:0:0:0:
436,284,145629,1,8,0:0:0:0:
436,284,145709,2,0,L|440:200,1,59.375,0|8,0:0|0:0,0:0:0:0:
428,92,145870,1,8,0:0:0:0:
428,92,145951,2,0,P|392:60|364:56,1,59.375,8|8,0:0|0:0,0:0:0:0:
256,36,146112,2,0,P|224:72|220:100,1,59.375,8|8,0:0|0:0,0:0:0:0:
248,176,146274,5,2,0:0:0:0:
251,222,146354,1,2,0:0:0:0:
230,264,146435,1,2,0:0:0:0:
193,293,146515,1,2,0:0:0:0:
147,305,146596,1,10,0:0:0:0:
100,299,146677,1,2,0:0:0:0:
60,275,146757,1,2,0:0:0:0:
33,236,146838,1,2,0:0:0:0:
28,188,146919,5,10,0:0:0:0:
74,185,146999,1,2,0:0:0:0:
117,205,147080,1,2,0:0:0:0:
144,243,147160,1,2,0:0:0:0:
150,290,147241,1,10,0:0:0:0:
133,334,147322,1,2,0:0:0:0:
97,364,147402,1,2,0:0:0:0:
51,373,147483,1,2,0:0:0:0:
8,348,147564,6,0,P|24:280|48:256,1,71.2500027179719,8|8,0:0|0:0,0:0:0:0:
117,205,147725,2,0,P|101:273|77:297,1,71.2500027179719,8|8,0:0|0:0,0:0:0:0:
108,132,147887,2,0,P|164:148|180:168,1,71.2500027179719,8|8,0:0|0:0,0:0:0:0:
311,199,148048,2,0,P|276:196|248:175,1,71.2500027179719,8|8,0:0|0:0,0:0:0:0:
332,56,148209,2,0,L|324:126,1,71.2500027179719,8|8,0:0|0:0,0:0:0:0:
224,104,148370,2,0,L|231:33,1,71.2500027179719,8|8,0:0|0:0,0:0:0:0:
416,199,148532,6,0,L|468:195,1,35.625001358986,2|2,0:0|0:0,0:0:0:0:
420,175,148612,2,0,L|470:162,1,35.625001358986,2|2,0:0|0:0,0:0:0:0:
421,152,148693,2,0,L|468:130,1,35.625001358986,2|2,0:0|0:0,0:0:0:0:
416,128,148773,2,0,L|459:98,1,35.625001358986,2|2,0:0|0:0,0:0:0:0:
405,102,148854,5,10,0:0:0:0:
332,56,149016,2,0,B|272:40|196:60|196:60|228:112,1,190,8|0,0:0|0:0,0:0:0:0:
276,180,149500,2,0,P|288:240|264:296,1,95,8|8,0:0|0:0,0:0:0:0:
192,324,149822,2,0,P|180:264|204:208,1,95
368,324,150145,5,8,0:0:0:0:
280,272,150306,1,0,0:0:0:0:
368,220,150467,1,8,0:0:0:0:
280,376,150629,1,0,0:0:0:0:
192,324,150790,6,0,L|200:264,1,47.5,8|0,0:0|0:0,0:0:0:0:
280,272,150951,2,0,L|272:332,1,47.5
192,324,151112,1,8,0:0:0:0:
184,312,151193,1,0,0:0:0:0:
176,300,151274,1,0,0:0:0:0:
168,288,151354,1,0,0:0:0:0:
160,276,151435,5,8,0:0:0:0:
204,196,151596,2,0,B|248:136|220:76|220:76|276:80|288:124,1,190,8|0,0:0|0:0,0:0:0:0:
124,120,152080,2,0,L|24:112,1,95,8|8,0:0|0:0,0:0:0:0:
214,196,152403,2,0,L|314:188,1,95
412,188,152725,5,8,0:0:0:0:
360,56,152887,1,0,0:0:0:0:
464,56,153048,1,8,0:0:0:0:
308,188,153209,1,0,0:0:0:0:
256,56,153370,6,0,L|316:96,1,47.5,8|0,0:0|0:0,0:0:0:0:
412,188,153532,1,0,0:0:0:0:
408,200,153612,1,0,0:0:0:0:
404,212,153693,1,8,0:0:0:0:
400,224,153774,1,0,0:0:0:0:
396,236,153854,1,0,0:0:0:0:
392,248,153935,1,0,0:0:0:0:
388,260,154016,6,0,B|248:276|248:276|208:216,1,190,8|8,0:0|0:0,0:0:0:0:
308,188,154500,1,0,0:0:0:0:
172,312,154661,2,0,L|108:196,1,95,8|0,0:0|0:0,0:0:0:0:
216,32,154983,2,0,L|280:148,1,95,8|0,0:0|0:0,0:0:0:0:
332,216,155306,5,8,0:0:0:0:
172,312,155467,1,0,0:0:0:0:
172,120,155629,1,8,0:0:0:0:
332,216,155790,1,0,0:0:0:0:
172,312,155951,6,8,P|112:316|84:300,1,63.3333333333333
52,268,156166,1,8,0:0:0:0:
59,75,156274,6,8,P|92:124|92:157,1,63.3333333333333
80,200,156489,1,8,0:0:0:0:
164,176,156596,6,0,P|240:144|348:196,1,190,12|0,0:0|0:0,0:0:0:0:
468,296,157080,1,0,0:0:0:0:
276,336,157241,2,0,P|268:272|304:212,1,95,8|0,0:0|0:0,0:0:0:0:
386,248,157564,2,0,P|397:293|388:340,1,95,0|0,0:0|0:0,0:0:0:0:
196,348,157887,5,8,0:0:0:0:
196,348,158048,2,0,B|68:300|68:300|8:344,1,190,8|0,0:0|0:0,0:0:0:0:
16,196,158532,2,0,B|144:244|144:244|204:200,1,190,8|0,0:0|0:0,0:0:0:0:
112,112,159016,1,0,0:0:0:0:
248,272,159177,6,0,P|272:216|212:124,1,142.5,8|0,0:0|0:0,0:0:0:0:
184,92,159500,2,0,P|248:104|300:72,1,95,8|0,0:0|0:0,0:0:0:0:
444,172,159822,2,0,P|380:160|328:192,1,95,8|0,0:0|0:0,0:0:0:0:
316,348,160145,1,8,0:0:0:0:
400,232,160306,1,0,0:0:0:0:
280,192,160467,2,0,L|104:264,1,190,8|8,0:0|0:0,0:0:0:0:
248,352,160951,1,8,0:0:0:0:
336,144,161112,6,0,L|344:80,1,63.3333333333333,8|8,0:0|0:0,0:0:0:0:
264,80,161327,2,0,L|256:16,1,63.3333333333333,8|8,0:0|0:0,0:0:0:0:
176,56,161543,1,8,0:0:0:0:
176,56,161650,1,8,0:0:0:0:
176,56,162403,6,0,L|180:136,1,71.25,2|0,0:0|0:0,0:0:0:0:
208,224,162725,2,0,L|211:112,1,106.875004076958,8|0,0:0|0:0,0:0:0:0:
288,172,163048,1,10,0:0:0:0:
304,128,166596,5,8,0:0:0:0:
220,228,166758,1,0,0:0:0:0:
220,228,166838,1,0,0:0:0:0:
220,228,166919,2,0,B|280:188|336:228|336:228|348:184|400:176,1,190,8|8,0:0|0:0,0:0:0:0:
280,288,167403,1,8,0:0:0:0:
160,284,167564,2,0,B|120:224|159:168|159:168|116:156|108:104,1,190,8|8,0:0|0:0,0:0:0:0:
200,76,168048,1,0,0:0:0:0:
308,52,168209,6,0,B|368:36|464:56|464:56|408:84,1,178.125,8|0,0:0|0:0,0:0:0:0:
368,136,168532,2,0,P|292:140|228:124,1,118.75,8|0,0:0|0:0,0:0:0:0:
72,40,168854,2,0,P|104:108|72:224,1,178.125,2|0,0:0|0:0,0:0:0:0:
16,260,169177,2,0,P|76:224|176:240,1,118.75,8|0,0:0|0:0,0:0:0:0:
256,316,169500,5,2,0:0:0:0:
144,136,169661,1,0,0:0:0:0:
368,136,169822,1,8,0:0:0:0:
256,344,169983,1,0,0:0:0:0:
256,80,170145,1,0,0:0:0:0:
432,196,170306,1,0,0:0:0:0:
432,196,170387,1,0,0:0:0:0:
432,196,170467,2,0,L|412:316,1,118.75,8|0,0:0|0:0,0:0:0:0:
128,324,170790,5,8,0:0:0:0:
128,324,170951,2,0,L|204:312,1,59.375
356,232,171112,5,8,0:0:0:0:
356,232,171273,2,0,L|280:220,1,59.375
128,120,171435,5,8,0:0:0:0:
128,120,171596,2,0,L|204:108,1,59.375
356,28,171758,5,8,0:0:0:0:
356,28,171919,2,0,L|280:16,1,59.375
192,16,172080,5,8,0:0:0:0:
108,36,172241,1,8,0:0:0:0:
24,16,172403,1,2,0:0:0:0:
108,36,172564,1,2,0:0:0:0:
128,120,172725,1,0,0:0:0:0:
118,160,172805,1,0,0:0:0:0:
108,204,172887,1,0,0:0:0:0:
96,248,172967,1,0,0:0:0:0:
68,284,173048,6,0,L|120:288,1,35.625001358986,2|0,0:0|0:0,0:0:0:0:
200,336,173209,2,0,L|148:340,1,35.625001358986,2|2,0:0|0:0,0:0:0:0:
260,280,173370,6,0,B|296:276|296:276|360:288|360:288|408:280,1,142.5,8|0,0:0|0:0,0:0:0:0:
400,281,173693,6,8,P|416:216|376:136,1,118.75,8|0,0:0|0:0,0:0:0:0:
352,116,173935,1,0,0:0:0:0:
288,88,174016,2,0,L|160:100,1,118.75,2|0,0:0|0:0,0:0:0:0:
116,144,174258,1,0,0:0:0:0:
64,192,174338,2,0,P|45:137|73:87,1,118.75,8|0,0:0|0:0,0:0:0:0:
216,218,174661,6,0,L|200:336,1,118.75,2|0,0:0|0:0,0:0:0:0:
81,346,174903,1,0,0:0:0:0:
81,346,174983,2,0,L|225:334,1,118.75,8|0,0:0|0:0,0:0:0:0:
400,280,175306,2,0,P|412:208|384:144,1,118.75,2|0,0:0|0:0,0:0:0:0:
288,172,175548,1,0,0:0:0:0:
288,172,175629,2,0,P|368:184|408:156,1,118.75,8|0,0:0|0:0,0:0:0:0:
336,52,175951,5,2,0:0:0:0:
164,128,176112,1,0,0:0:0:0:
148,180,176193,1,0,0:0:0:0:
128,232,176274,1,12,0:0:0:0:
324,312,176435,1,0,0:0:0:0:
180,80,176596,2,0,L|64:108,1,118.75,2|0,0:0|0:0,0:0:0:0:
16,164,176838,1,0,0:0:0:0:
16,164,176919,1,8,0:0:0:0:
112,284,177080,1,0,0:0:0:0:
256,60,177241,6,0,B|176:80|176:80|116:48,1,142.500005435944,8|8,0:0|0:0,0:0:0:0:
96,152,177725,1,8,0:0:0:0:
44,264,177887,6,0,P|44:308|136:348,1,118.75,8|8,0:0|0:0,0:0:0:0:
152,348,178129,1,8,0:0:0:0:
192,312,178209,1,8,0:0:0:0:
208,260,178290,1,8,0:0:0:0:
208,208,178370,1,8,0:0:0:0:
192,156,178451,1,8,0:0:0:0:
156,116,178532,6,0,P|228:152|320:100,1,178.125,8|0,0:0|0:0,0:0:0:0:
352,48,178854,1,8,0:0:0:0:
116,244,179016,1,0,0:0:0:0:
284,284,179177,2,0,B|356:252|408:300|408:300|428:260|468:256,1,178.125,2|0,0:0|0:0,0:0:0:0:
484,332,179500,1,8,0:0:0:0:
348,184,179661,1,0,0:0:0:0:
340,364,179822,5,2,0:0:0:0:
437,229,179983,1,0,0:0:0:0:
181,146,180145,1,8,0:0:0:0:
181,312,180306,1,0,0:0:0:0:
340,95,180467,1,0,0:0:0:0:
144,76,180629,2,0,P|108:120|100:148,1,59.375
88,216,180790,2,0,L|108:348,1,118.75,8|0,0:0|0:0,0:0:0:0:
256,324,181112,5,8,0:0:0:0:
256,324,181274,2,0,L|332:300,1,59.375
256,60,181435,5,8,0:0:0:0:
256,60,181597,2,0,L|180:84,1,59.375
288,324,181758,5,8,0:0:0:0:
288,324,181919,2,0,L|346:270,1,59.375
224,60,182080,5,8,0:0:0:0:
224,60,182242,2,0,L|165:113,1,59.375
172,367,182403,5,10,0:0:0:0:
314,177,182564,1,10,0:0:0:0:
125,259,182725,1,2,0:0:0:0:
361,286,182887,1,2,0:0:0:0:
196,164,183048,1,2,0:0:0:0:
290,382,183209,5,8,0:0:0:0:
306,350,183290,1,8,0:0:0:0:
330,326,183370,1,8,0:0:0:0:
358,306,183451,1,8,0:0:0:0:
390,294,183532,1,8,0:0:0:0:
426,290,183612,1,8,0:0:0:0:
462,294,183693,6,0,P|438:222|482:118,1,178.125,8|0,0:0|0:0,0:0:0:0:
512,68,184016,2,0,P|444:88|368:52,1,118.75,8|0,0:0|0:0,0:0:0:0:
292,128,184338,2,0,P|220:96|112:144,1,178.125,2|0,0:0|0:0,0:0:0:0:
72,176,184680,2,0,L|80:296,1,95,8|0,0:0|0:0,0:0:0:0:
256,352,185022,5,8,0:0:0:0:
360,256,185215,5,8,0:0:0:0:
228,232,185411,5,8,0:0:0:0:
284,360,185620,5,8,0:0:0:0:
384,268,185834,5,8,0:0:0:0:
260,244,186056,5,8,0:0:0:0:
308,368,186306,5,8,0:0:0:0:
343,140,186583,5,8,0:0:0:0:
402,355,187854,5,2,0:0:0:0:
456,192,188015,1,0,0:0:0:0:
456,192,188095,1,0,0:0:0:0:
456,192,188176,1,8,0:0:0:0:
266,247,188337,1,0,0:0:0:0:
266,247,188418,1,0,0:0:0:0:
266,247,188499,6,8,P|294:239|320:224,1,59.375,8|0,0:0|0:0,0:0:0:0:
245,136,188660,2,0,P|217:144|192:160,1,59.375
213,294,188821,6,8,P|239:309|268:316,1,59.375,8|0,0:0|0:0,0:0:0:0:
298,89,188982,2,8,P|272:74|244:68,1,59.375,0|0,0:0|0:0,0:0:0:0:
144,294,189144,6,8,P|152:322|168:348,1,59.375,8|0,0:0|0:0,0:0:0:0:
367,89,189305,2,8,P|359:61|344:36,1,59.375,0|0,0:0|0:0,0:0:0:0:
96,241,189466,6,8,P|82:267|76:296,1,59.375,8|0,0:0|0:0,0:0:0:0:
415,142,189627,2,8,P|429:116|436:88,1,59.375,0|0,0:0|0:0,0:0:0:0:
256,192,189789,5,8,0:0:0:0:
168,348,189950,1,8,0:0:0:0:
344,348,190111,1,8,0:0:0:0:
256,88,190273,1,8,0:0:0:0:
75,295,190434,1,0,0:0:0:0:
75,295,190757,6,0,L|163:283,1,59.375,8|8,0:0|0:0,0:0:0:0:
314,183,190918,2,0,L|256:192,1,59.375,8|8,0:0|0:0,0:0:0:0:
99,32,191079,1,0,0:0:0:0:
