osu file format v13

[General]
AudioFilename: Kano - Setsuna Plus (D. Mindbreak).mp3
AudioLeadIn: 2000
PreviewTime: 49341
Countdown: 0
SampleSet: None
StackLeniency: 0.7
Mode: 0
LetterboxInBreaks: 0
WidescreenStoryboard: 0

[Editor]
DistanceSpacing: 0.9
BeatDivisor: 4
GridSize: 4
TimelineZoom: 1.3

[Metadata]
Title:Setsuna Plus
TitleUnicode:刹那プラス
Artist:Kano
ArtistUnicode:鹿乃
Creator:luxoDeh
Version:Insane
Source:
Tags:MikitoP みきとP vocaloid moment utaite cover Hatsune Miku 初音ミク Miwasiba みわしいば zaregoto klein AnreFM
BeatmapID:350646
BeatmapSetID:140379

[Difficulty]
HPDrainRate:7
CircleSize:4
OverallDifficulty:8
ApproachRate:8.5
SliderMultiplier:2
SliderTickRate:2

[Events]
//Background and Video events
0,0,"Moment.Plus.full.1219724.jpg",0,0
Video,-4753,"setsuna plus.avi"
//Break Periods
2,74912,83327
2,133751,142166
2,174009,179327
//Storyboard Layer 0 (Background)
//Storyboard Layer 1 (Fail)
//Storyboard Layer 2 (Pass)
//Storyboard Layer 3 (Foreground)
//Storyboard Sound Samples
//Background Colour Transformations
3,100,163,162,255

[TimingPoints]
390,387.096774193548,4,2,1,60,1,0
12196,-181.818181818181,4,2,1,60,0,0
12777,-100,4,2,1,60,0,0
46841,-200,4,2,1,60,0,0
48583,-100,4,2,1,60,0,0
49744,-100,4,2,1,60,0,1
56712,-100,4,3,1,60,0,1
57002,-100,4,2,1,60,0,1
58260,-100,4,3,1,60,0,1
58551,-100,4,2,1,60,0,1
61551,-100,4,3,1,40,0,1
62131,-100,4,2,1,60,0,1
71615,-100,4,2,1,60,0,0
105680,-200,4,2,1,60,0,0
107809,-100,4,3,1,60,0,0
108389,-100,4,2,1,60,0,0
108583,-100,4,2,1,60,0,1
115551,-100,4,3,1,60,0,1
115841,-100,4,2,1,60,0,1
117099,-100,4,3,1,60,0,1
117389,-100,4,2,1,60,0,1
120389,-100,4,3,1,40,0,1
120970,-100,4,2,1,60,0,1
129680,-100,4,2,1,60,0,0
130453,-100,4,2,1,40,0,0
142840,-100,4,2,1,60,0,0
160551,-100,4,2,1,30,0,0
160841,-100,4,2,1,60,0,0
183486,-100,4,2,1,60,0,1
194712,-100,4,3,1,40,0,1
195293,-100,4,2,1,60,0,1
200519,-83.3333333333333,4,2,1,60,0,1
200906,-71.4285714285714,4,2,1,60,0,1
201293,-100,4,2,1,60,0,1
207873,-100,4,2,1,60,0,0

[Colours]
Combo1 : 255,128,128
Combo2 : 128,255,255
Combo3 : 255,0,128
Combo4 : 128,255,128

[HitObjects]
332,116,390,5,4,0:0:0:0:
332,116,583,2,0,L|404:48,1,100,0|0,0:0|0:0,0:0:0:0:
180,268,970,1,2,0:0:0:0:
180,268,1164,2,0,L|108:336,1,100
180,116,1551,1,2,0:0:0:0:
180,116,1744,2,0,L|108:48,1,100
332,268,2131,1,2,0:0:0:0:
332,268,2325,2,0,L|404:336,1,100,0|0,0:0|0:0,0:0:0:0:
212,308,2712,6,0,P|164:272|152:212,1,100,2|0,0:0|0:0,0:0:0:0:
300,76,3099,2,0,P|348:112|360:172,1,100,0|2,0:0|0:0,0:0:0:0:
151,148,3486,6,0,P|170:102|212:76,2,100,2|0|0,0:0|0:0|0:0,0:0:0:0:
299,308,4067,2,0,P|341:281|360:235,1,100,2|0,0:0|0:0,0:0:0:0:
368,144,4454,1,0,0:0:0:0:
304,80,4648,1,2,0:0:0:0:
216,80,4841,1,0,0:0:0:0:
144,240,5035,5,0,0:0:0:0:
208,304,5228,1,2,0:0:0:0:
296,304,5422,1,0,0:0:0:0:
364,244,5615,2,0,L|460:300,1,100,0|2,0:0|0:0,0:0:0:0:
368,144,6002,2,0,L|312:32,1,100,0|0,0:0|0:0,0:0:0:0:
148,140,6389,6,0,L|52:84,1,100,2|2,0:0|0:0,0:0:0:0:
144,240,6777,2,0,L|200:352,1,100,0|0,0:0|0:0,0:0:0:0:
272,360,7164,1,2,0:0:0:0:
360,352,7357,1,0,0:0:0:0:
400,272,7551,1,0,0:0:0:0:
388,104,7744,2,0,P|335:151|211:84,1,200,2|0,0:0|0:0,0:0:0:0:
243,24,8325,5,2,0:0:0:0:
153,32,8519,1,0,0:0:0:0:
112,112,8712,1,0,0:0:0:0:
124,280,8906,2,0,P|176:240|296:304,1,200,2|0,0:0|0:0,0:0:0:0:
360,344,9486,6,0,P|424:360|476:332,2,100,2|2|0,0:0|0:0|0:0,0:0:0:0:
207,117,10067,2,0,P|143:101|91:129,2,100,0|2|0,0:0|0:0|0:0,0:0:0:0:
152,344,10648,2,0,P|88:360|36:332,2,100,0|2|0,0:0|0:0|0:0,0:0:0:0:
307,117,11228,2,0,P|371:101|423:129,2,100,0|2|0,0:0|0:0|0:0,0:0:0:0:
208,116,11809,2,0,L|120:188,1,100,0|2,0:0|0:0,0:0:0:0:
153,278,12196,6,0,B|180:254|180:254|199:249|199:249|208:233|208:233|244:202,1,110.000003356934
384,128,12777,6,0,P|440:100|500:116,1,100,4|0,0:0|0:0,0:0:0:0:
408,304,13164,2,0,P|348:332|312:328,1,100,8|0,0:0|0:0,0:0:0:0:
240,280,13551,1,0,0:0:0:0:
168,164,13744,1,0,0:0:0:0:
92,276,13938,1,8,0:0:0:0:
168,164,14131,1,0,0:0:0:0:
284,52,14325,6,0,P|336:24|380:28,1,100
416,168,14712,2,0,P|368:196|320:196,1,100,8|0,0:0|0:0,0:0:0:0:
236,184,15099,1,0,0:0:0:0:
92,148,15293,1,0,0:0:0:0:
228,96,15486,1,8,0:0:0:0:
148,220,15680,1,0,0:0:0:0:
140,72,15873,6,0,P|88:60|36:80,1,100
40,228,16260,2,0,P|87:242|135:229,1,100,8|0,0:0|0:0,0:0:0:0:
236,184,16648,2,0,P|283:169|331:182,1,100
327,341,17035,2,0,P|279:353|231:339,1,100,8|0,0:0|0:0,0:0:0:0:
184,264,17422,5,0,0:0:0:0:
200,108,17615,1,0,0:0:0:0:
148,180,17809,1,8,0:0:0:0:
288,100,18002,1,0,0:0:0:0:
360,156,18196,2,0,L|456:228,2,100,0|0|8,0:0|0:0|0:0,0:0:0:0:
240,48,18777,1,0,0:0:0:0:
240,48,18873,1,8,0:0:0:0:
240,48,18970,6,0,P|200:80|144:80,1,100,4|0,0:0|0:0,0:0:0:0:
68,112,19357,2,0,P|12:152|0:200,1,100,8|0,0:0|0:0,0:0:0:0:
168,348,19744,2,0,P|211:324|235:281,1,100
264,196,20131,2,0,P|267:146|298:108,1,100,8|0,0:0|0:0,0:0:0:0:
352,180,20519,5,0,0:0:0:0:
148,260,20712,1,0,0:0:0:0:
184,160,20906,1,8,0:0:0:0:
312,324,21099,1,0,0:0:0:0:
96,188,21293,2,0,P|92:128|120:88,1,100
196,60,21680,2,0,P|248:88|316:76,1,100,8|0,0:0|0:0,0:0:0:0:
476,44,22067,6,0,P|428:80|420:136,1,100
420,208,22454,2,0,P|416:272|380:312,1,100,8|0,0:0|0:0,0:0:0:0:
332,236,22841,2,0,B|284:208|240:236|240:236|224:296|152:300,1,200,0|8,0:0|0:0,0:0:0:0:
152,208,23422,1,0,0:0:0:0:
300,324,23615,6,0,P|356:328|420:208,1,200,0|8,0:0|0:0,0:0:0:0:
404,128,24196,1,0,0:0:0:0:
340,64,24389,1,0,0:0:0:0:
248,56,24583,1,0,0:0:0:0:
176,108,24777,2,0,B|128:120|128:120|127:172|127:172|81:188|81:188|81:251,1,200,12|4,0:0|0:0,0:0:0:0:
84,328,25357,5,0,0:0:0:0:
84,328,25551,2,0,B|132:348|132:348|176:328,1,100,8|0,0:0|0:0,0:0:0:0:
352,232,25938,1,0,0:0:0:0:
352,232,26131,2,0,B|304:212|304:212|260:232,1,100,0|8,0:0|0:0,0:0:0:0:
308,308,26519,1,0,0:0:0:0:
308,308,26712,6,0,B|356:328|356:328|400:308,1,100
464,244,27099,1,8,0:0:0:0:
488,156,27293,1,0,0:0:0:0:
468,68,27486,1,0,0:0:0:0:
388,28,27680,1,0,0:0:0:0:
320,84,27873,2,0,P|280:120|224:120,1,100,8|0,0:0|0:0,0:0:0:0:
28,72,28260,6,0,P|68:36|124:36,1,100
332,112,28648,2,0,P|292:148|236:148,1,100,8|0,0:0|0:0,0:0:0:0:
48,100,29035,2,0,P|88:64|144:64,1,100
220,88,29422,1,8,0:0:0:0:
288,148,29615,1,0,0:0:0:0:
320,232,29809,5,0,0:0:0:0:
284,316,30002,1,0,0:0:0:0:
199,346,30196,2,0,P|144:334|94:345,2,100,8|0|0,0:0|0:0|0:0,0:0:0:0:
416,237,30777,2,0,P|386:327|292:336,1,200,0|8,0:0|0:0,0:0:0:0:
375,158,31357,6,0,P|405:68|500:60,1,200,4|8,0:0|0:0,0:0:0:0:
417,238,31938,1,0,0:0:0:0:
332,268,32131,2,0,L|232:268,1,100
148,132,32519,2,0,L|256:132,1,100,8|0,0:0|0:0,0:0:0:0:
332,268,32906,6,0,L|256:344,1,100
148,132,33293,2,0,L|224:56,1,100,8|0,0:0|0:0,0:0:0:0:
304,28,33680,1,0,0:0:0:0:
392,36,33873,1,0,0:0:0:0:
458,96,34067,1,8,0:0:0:0:
459,185,34260,1,0,0:0:0:0:
304,284,34454,6,0,B|256:304|256:304|204:284,1,100
211,97,34841,2,0,B|256:80|256:80|304:100,1,100,8|0,0:0|0:0,0:0:0:0:
141,236,35228,2,0,B|124:192|124:192|144:144,1,100
372,144,35615,2,0,B|392:192|392:192|372:244,1,100,8|0,0:0|0:0,0:0:0:0:
320,308,36002,5,0,0:0:0:0:
240,352,36196,1,0,0:0:0:0:
152,328,36389,1,8,0:0:0:0:
92,260,36583,1,0,0:0:0:0:
80,124,36777,2,0,P|136:160|260:104,1,200,0|8,0:0|0:0,0:0:0:0:
316,56,37357,1,0,0:0:0:0:
316,56,37551,6,0,L|384:144,1,100,4|0,0:0|0:0,0:0:0:0:
468,124,37938,2,0,L|456:256,1,100,8|0,0:0|0:0,0:0:0:0:
300,328,38325,1,0,0:0:0:0:
248,256,38519,1,0,0:0:0:0:
89,261,38712,2,0,P|171:309|253:245,1,200,8|4,0:0|0:0,0:0:0:0:
264,168,39293,6,0,P|256:96|208:64,1,100,0|8,0:0|0:0,0:0:0:0:
180,148,39680,1,0,0:0:0:0:
161,240,39873,2,0,P|165:300|197:332,1,100
384,272,40260,2,0,P|380:212|348:180,1,100,8|0,0:0|0:0,0:0:0:0:
224,72,40648,6,0,P|280:120|372:56,1,200,4|8,0:0|0:0,0:0:0:0:
468,212,41422,1,2,0:0:0:0:
476,300,41615,1,0,0:0:0:0:
408,360,41809,1,8,0:0:0:0:
320,368,42002,1,2,0:0:0:0:
256,308,42196,6,0,P|296:252|212:156,1,200,2|8,0:0|0:0,0:0:0:0:
140,140,42777,1,0,0:0:0:0:
56,285,42970,1,2,0:0:0:0:
67,95,43164,1,0,0:0:0:0:
126,331,43357,1,8,0:0:0:0:
263,271,43551,1,0,0:0:0:0:
276,248,43648,1,0,0:0:0:0:
288,228,43744,6,0,L|348:128,1,100,4|0,0:0|0:0,0:0:0:0:
488,48,44131,2,0,P|444:100|312:60,1,200,8|0,0:0|0:0,0:0:0:0:
264,12,44712,1,0,0:0:0:0:
188,132,44906,1,8,0:0:0:0:
324,80,45099,1,0,0:0:0:0:
180,44,45293,6,0,P|124:68|100:112,1,100,4|0,0:0|0:0,0:0:0:0:
76,236,45680,2,0,B|76:288|136:312|136:312|180:268|244:296,1,200,8|0,0:0|0:0,0:0:0:0:
312,248,46260,1,0,0:0:0:0:
200,376,46454,1,8,0:0:0:0:
469,74,46841,6,0,B|375:125|280:89|280:89|181:47|79:101,1,400,4|0,0:0|0:0,0:0:0:0:
38,176,48583,6,0,L|-8:282,2,100,0|8|0,0:0|0:0|0:0,0:0:0:0:
112,52,49164,1,8,0:0:0:0:
222,136,49357,1,0,0:0:0:0:
255,164,49454,1,0,0:0:0:0:
291,191,49551,1,8,0:0:0:0:
460,212,49744,6,0,P|384:220|356:332,1,200,4|0,0:0|0:0,0:0:0:0:
440,300,50325,2,0,P|492:296|528:268,1,100,8|0,0:0|0:0,0:0:0:0:
416,140,50712,2,0,P|364:144|328:172,1,100
424,268,51099,2,0,P|476:264|512:236,1,100,8|0,0:0|0:0,0:0:0:0:
396,96,51486,6,0,P|344:100|308:128,1,100
256,204,51873,1,8,0:0:0:0:
136,324,52067,1,8,0:0:0:0:
92,160,52260,1,0,0:0:0:0:
256,204,52454,1,0,0:0:0:0:
256,204,52551,1,0,0:0:0:0:
256,204,52648,1,8,0:0:0:0:
424,192,52841,6,0,P|412:104|300:56,1,200,4|0,0:0|0:0,0:0:0:0:
244,100,53422,2,0,P|200:136|144:136,1,100,8|8,0:0|0:0,0:0:0:0:
8,76,53809,2,0,P|52:40|108:40,1,100
264,128,54196,2,0,P|220:164|164:164,1,100,8|0,0:0|0:0,0:0:0:0:
24,112,54583,6,0,P|68:76|124:76,1,100
196,96,54970,1,8,0:0:0:0:
336,200,55164,1,8,0:0:0:0:
352,36,55357,1,0,0:0:0:0:
196,96,55551,1,0,0:0:0:0:
196,96,55648,1,0,0:0:0:0:
196,96,55744,1,8,0:0:0:0:
80,216,55938,6,0,P|108:280|232:328,1,200,4|0,0:0|0:0,0:0:0:0:
312,308,56519,1,8,0:0:0:0:
452,216,56712,1,0,0:0:0:0:
452,216,56809,1,0,0:0:0:0:
452,216,56906,1,4,0:0:0:0:
304,144,57099,1,0,0:0:0:0:
312,308,57293,1,8,0:0:0:0:
464,60,57486,6,0,P|400:92|272:52,1,200,4|0,0:0|0:0,0:0:0:0:
200,20,58067,1,8,0:0:0:0:
72,120,58260,1,0,0:0:0:0:
72,120,58357,1,0,0:0:0:0:
72,120,58454,1,4,0:0:0:0:
228,180,58648,1,0,0:0:0:0:
200,20,58841,1,8,0:0:0:0:
186,329,59035,6,0,P|284:334|360:272,1,200,4|0,0:0|0:0,0:0:0:0:
238,132,59615,2,0,B|216:168|160:156|160:156|112:208|128:260,1,200,8|0,0:0|0:0,0:0:0:0:
180,64,60196,1,0,0:0:0:0:
56,152,60389,1,8,0:0:0:0:
208,228,60583,6,0,P|256:216|308:76,1,200,4|0,0:0|0:0,0:0:0:0:
276,8,61164,2,0,P|320:52|384:60,1,100,8|0,0:0|0:0,0:0:0:0:
484,228,61551,1,8,0:0:0:0:
496,184,61648,1,0,0:0:0:0:
496,140,61743,1,2,0:0:0:0:
476,100,61841,1,0,0:0:0:0:
444,68,61938,1,8,0:0:0:0:
396,312,62131,6,0,P|336:344|204:308,1,200,4|0,0:0|0:0,0:0:0:0:
144,256,62712,2,0,P|116:188|132:144,1,100,8|8,0:0|0:0,0:0:0:0:
276,84,63099,2,0,P|304:152|288:196,1,100
116,264,63486,2,0,P|88:196|104:152,1,100,8|0,0:0|0:0,0:0:0:0:
316,72,63873,6,0,P|344:140|328:184,1,100
304,248,64260,1,8,0:0:0:0:
232,360,64454,1,8,0:0:0:0:
376,360,64648,1,0,0:0:0:0:
304,248,64841,1,0,0:0:0:0:
304,248,64938,1,0,0:0:0:0:
304,248,65035,1,8,0:0:0:0:
216,119,65228,6,0,P|308:87|400:121,1,200,4|0,0:0|0:0,0:0:0:0:
304,247,65809,2,0,P|256:261|209:247,1,100,8|8,0:0|0:0,0:0:0:0:
120,119,66196,2,0,P|168:105|215:119,1,100
209,246,66583,2,0,P|161:260|114:246,1,100,8|0,0:0|0:0,0:0:0:0:
215,120,66970,6,0,P|263:106|310:120,1,100
368,188,67357,1,8,0:0:0:0:
428,336,67551,1,8,0:0:0:0:
272,312,67744,1,0,0:0:0:0:
368,188,67938,1,0,0:0:0:0:
368,188,68035,1,0,0:0:0:0:
368,188,68131,1,8,0:0:0:0:
480,100,68325,6,0,P|420:56|292:72,1,200,4|0,0:0|0:0,0:0:0:0:
236,132,68906,1,8,0:0:0:0:
148,264,69099,1,8,0:0:0:0:
72,124,69293,2,0,P|80:60|124:20,2,100,0|0|8,0:0|0:0|0:0,0:0:0:0:
148,264,69873,6,0,P|192:316|328:300,1,200
341,160,70454,2,0,P|385:112|433:104,1,100,8|0,0:0|0:0,0:0:0:0:
482,226,70841,2,0,B|438:274|386:274|386:274|352:227|302:236,2,200,2|0|4,0:0|0:0|0:0,0:0:0:0:
256,192,71712,12,2,74712,0:0:0:0:
256,96,84002,6,0,P|312:64|436:96,1,200,4|8,0:0|0:0,0:0:0:0:
492,168,84583,1,0,0:0:0:0:
256,288,84777,2,0,P|200:320|76:288,1,200,0|8,0:0|0:0,0:0:0:0:
20,216,85357,1,0,0:0:0:0:
72,144,85551,6,0,L|136:56,1,100
324,132,85938,2,0,L|260:220,1,100,8|0,0:0|0:0,0:0:0:0:
108,152,86325,2,0,L|188:80,1,100
288,124,86712,2,0,L|208:196,1,100,8|0,0:0|0:0,0:0:0:0:
156,260,87099,6,0,P|152:312|196:364,1,100
348,280,87486,2,0,P|352:228|308:176,1,100,8|0,0:0|0:0,0:0:0:0:
192,256,87873,2,0,P|188:308|232:360,1,100
388,272,88260,2,0,P|392:220|348:168,1,100,8|0,0:0|0:0,0:0:0:0:
296,124,88648,5,0,0:0:0:0:
208,124,88841,1,0,0:0:0:0:
128,164,89035,1,8,0:0:0:0:
100,248,89228,1,0,0:0:0:0:
124,336,89422,1,0,0:0:0:0:
304,312,89615,1,0,0:0:0:0:
304,312,89712,1,0,0:0:0:0:
304,312,89809,2,0,P|348:264|408:268,1,100,4|0,0:0|0:0,0:0:0:0:
424,266,90098,1,0,0:0:0:0:
472,264,90196,6,0,P|504:208|496:148,1,100,4|0,0:0|0:0,0:0:0:0:
360,52,90583,2,0,P|328:108|336:168,1,100,8|0,0:0|0:0,0:0:0:0:
440,252,90970,2,0,P|472:196|464:136,1,100
328,44,91357,2,0,P|296:100|304:160,1,100,8|0,0:0|0:0,0:0:0:0:
336,216,91744,5,0,0:0:0:0:
360,304,91938,1,0,0:0:0:0:
288,356,92131,1,8,0:0:0:0:
216,300,92325,1,0,0:0:0:0:
248,216,92519,1,0,0:0:0:0:
184,156,92712,1,0,0:0:0:0:
104,200,92906,1,8,0:0:0:0:
120,288,93099,1,0,0:0:0:0:
216,300,93293,6,0,P|276:300|320:268,1,100
184,156,93680,2,0,P|124:156|80:188,1,100,8|0,0:0|0:0,0:0:0:0:
208,272,94067,2,0,P|268:272|312:240,1,100
176,128,94454,2,0,P|116:128|72:160,1,100,8|0,0:0|0:0,0:0:0:0:
32,220,94841,6,0,P|20:296|144:348,1,200,4|8,0:0|0:0,0:0:0:0:
200,328,95422,1,0,0:0:0:0:
324,136,95615,1,0,0:0:0:0:
145,81,95809,1,0,0:0:0:0:
133,124,95906,1,0,0:0:0:0:
143,167,96002,1,8,0:0:0:0:
232,128,96196,1,0,0:0:0:0:
320,260,96389,6,0,B|352:279|397:254|436:272,1,100,4|0,0:0|0:0,0:0:0:0:
488,320,96777,2,0,P|504:252|396:176,1,200,8|0,0:0|0:0,0:0:0:0:
324,184,97357,1,0,0:0:0:0:
244,312,97551,1,8,0:0:0:0:
120,228,97744,1,0,0:0:0:0:
48,172,97938,6,0,P|28:224|40:272,1,100,4|0,0:0|0:0,0:0:0:0:
108,320,98325,2,0,P|184:296|192:180,1,200,8|0,0:0|0:0,0:0:0:0:
132,124,98906,2,0,P|96:80|96:32,2,100,0|8|0,0:0|0:0|0:0,0:0:0:0:
292,184,99486,6,0,P|371:176|414:71,1,200,4|8,0:0|0:0,0:0:0:0:
324,96,100067,1,0,0:0:0:0:
180,48,100260,1,0,0:0:0:0:
208,196,100454,1,0,0:0:0:0:
364,264,100648,2,0,P|412:304|420:352,1,100,8|0,0:0|0:0,0:0:0:0:
332,352,101035,6,0,P|271:263|328:177,1,200,2|8,0:0|0:0,0:0:0:0:
364,264,101615,1,2,0:0:0:0:
329,73,101809,1,0,0:0:0:0:
372,58,101906,1,0,0:0:0:0:
417,62,102003,1,0,0:0:0:0:
452,90,102099,1,0,0:0:0:0:
469,133,102196,1,8,0:0:0:0:
232,180,102389,1,0,0:0:0:0:
232,180,102486,1,0,0:0:0:0:
232,180,102583,6,0,P|192:224|140:228,1,100,4|0,0:0|0:0,0:0:0:0:
24,128,102970,2,0,P|64:84|116:80,1,100,8|0,0:0|0:0,0:0:0:0:
188,108,103357,1,0,0:0:0:0:
312,204,103551,1,0,0:0:0:0:
152,188,103744,1,8,0:0:0:0:
348,124,103938,1,0,0:0:0:0:
208,264,104131,6,0,P|196:320|224:380,1,100,4|0,0:0|0:0,0:0:0:0:
449,260,104519,2,0,B|429:320|373:320|373:320|325:284|269:320,1,200,8|0,0:0|0:0,0:0:0:0:
208,360,105099,1,0,0:0:0:0:
92,232,105293,1,8,0:0:0:0:
240,52,105680,6,0,P|256:88|320:104,1,100,4|8,0:0|0:0,0:0:0:0:
392,88,106260,1,2,0:0:0:0:
456,140,106454,1,0,0:0:0:0:
476,220,106648,1,0,0:0:0:0:
444,296,106841,1,8,0:0:0:0:
276,340,107035,1,0,0:0:0:0:
276,340,107131,1,0,0:0:0:0:
276,340,107228,6,0,P|264:272|240:248,1,100,2|4,0:0|0:0,0:0:0:0:
88,164,108002,1,0,0:0:0:0:
80,120,108099,1,0,0:0:0:0:
104,80,108196,1,0,0:0:0:0:
144,60,108293,1,0,0:0:0:0:
188,68,108389,1,8,0:0:0:0:
296,160,108583,6,0,P|387:210|466:169,1,200,4|0,0:0|0:0,0:0:0:0:
384,108,109164,2,0,P|344:72|288:56,1,100,8|0,0:0|0:0,0:0:0:0:
160,172,109551,2,0,P|200:208|256:224,1,100
332,224,109938,1,8,0:0:0:0:
460,156,110131,1,0,0:0:0:0:
456,304,110325,6,0,P|420:348|368:360,1,100
256,280,110712,2,0,P|292:236|344:224,1,100,8|8,0:0|0:0,0:0:0:0:
420,228,111099,1,0,0:0:0:0:
336,88,111293,1,0,0:0:0:0:
496,80,111486,1,8,0:0:0:0:
216,160,111680,6,0,P|129:209|34:148,1,200,4|0,0:0|0:0,0:0:0:0:
128,108,112260,2,0,P|168:72|224:56,1,100,8|8,0:0|0:0,0:0:0:0:
352,172,112648,2,0,P|312:208|256:224,1,100
180,224,113035,1,8,0:0:0:0:
46,168,113228,1,0,0:0:0:0:
56,304,113422,6,0,P|92:348|144:360,1,100
256,280,113809,2,0,P|220:236|168:224,1,100,8|8,0:0|0:0,0:0:0:0:
92,228,114196,1,0,0:0:0:0:
176,88,114389,1,0,0:0:0:0:
16,80,114583,1,8,0:0:0:0:
292,156,114777,6,0,B|336:180|388:132|388:132|364:64|396:32,1,200,4|0,0:0|0:0,0:0:0:0:
464,88,115357,1,8,0:0:0:0:
416,216,115551,1,0,0:0:0:0:
416,216,115648,1,0,0:0:0:0:
416,216,115744,1,4,0:0:0:0:
356,332,115938,2,0,P|312:304|292:252,1,100,0|8,0:0|0:0,0:0:0:0:
220,156,116325,6,0,B|176:180|124:132|124:132|148:64|116:32,1,200,4|0,0:0|0:0,0:0:0:0:
48,88,116906,1,8,0:0:0:0:
96,216,117099,1,0,0:0:0:0:
96,216,117196,1,0,0:0:0:0:
96,216,117293,1,4,0:0:0:0:
156,332,117486,2,0,P|200:304|220:252,1,100,0|8,0:0|0:0,0:0:0:0:
274,128,117873,6,0,B|321:119|374:135|374:135|433:151|475:139,1,200,4|0,0:0|0:0,0:0:0:0:
409,60,118454,2,0,P|352:45|296:44,1,100,8|0,0:0|0:0,0:0:0:0:
144,104,118841,2,0,B|88:132|108:192|108:192|168:216|164:272,1,200,0|8,0:0|0:0,0:0:0:0:
76,284,119422,6,0,P|108:332|240:312,1,200,4|0,0:0|0:0,0:0:0:0:
292,248,120002,1,8,0:0:0:0:
416,124,120196,1,0,0:0:0:0:
440,276,120389,1,2,0:0:0:0:
424,320,120486,1,0,0:0:0:0:
393,351,120583,1,0,0:0:0:0:
349,364,120680,1,0,0:0:0:0:
304,360,120777,1,8,0:0:0:0:
212,276,120970,6,0,B|168:232|168:232|168:156|168:156|112:104,1,200,4|0,0:0|0:0,0:0:0:0:
48,64,121551,2,0,B|0:80|0:80|0:140,1,100,8|0,0:0|0:0,0:0:0:0:
120,260,121938,2,0,B|168:244|168:244|168:184,1,100
224,116,122325,2,0,B|224:66|224:66|272:50,1,100,8|0,0:0|0:0,0:0:0:0:
384,190,122712,6,0,B|384:240|384:240|336:256,1,100
248,136,123099,2,0,B|248:86|248:86|296:70,1,100,8|8,0:0|0:0,0:0:0:0:
384,60,123486,1,0,0:0:0:0:
484,176,123680,1,0,0:0:0:0:
408,308,123873,1,8,0:0:0:0:
248,244,124067,6,0,P|201:184|83:216,1,200,4|0,0:0|0:0,0:0:0:0:
160,268,124648,2,0,P|188:316|248:336,1,100,8|0,0:0|0:0,0:0:0:0:
304,160,125035,2,0,P|276:112|216:92,1,100
148,104,125422,1,8,0:0:0:0:
28,200,125615,1,0,0:0:0:0:
160,268,125809,6,0,L|268:268,1,100
416,100,126196,2,0,L|312:100,1,100,8|0,0:0|0:0,0:0:0:0:
248,160,126583,1,0,0:0:0:0:
300,332,126777,1,0,0:0:0:0:
428,212,126970,1,8,0:0:0:0:
308,88,127164,6,0,P|223:69|155:160,1,200,4|0,0:0|0:0,0:0:0:0:
171,235,127744,2,0,P|211:299|259:311,1,100,8|8,0:0|0:0,0:0:0:0:
380,252,128131,1,0,0:0:0:0:
385,134,128325,1,0,0:0:0:0:
272,104,128519,1,8,0:0:0:0:
176,184,128712,6,0,B|132:220|76:200|76:200|40:228|56:292,1,200
104,360,129293,2,0,P|164:380|204:364,1,100,8|0,0:0|0:0,0:0:0:0:
315,244,129679,1,0,0:0:0:0:
256,312,129873,1,8,0:0:0:0:
256,183,130067,1,2,0:0:0:0:
256,192,130454,12,2,133551,0:0:0:0:
306,89,142841,6,0,P|363:81|418:94,1,100,4|0,0:0|0:0,0:0:0:0:
206,295,143228,2,0,P|149:303|94:290,1,100
159,221,143615,1,0,0:0:0:0:
352,291,143809,1,0,0:0:0:0:
352,291,143906,1,0,0:0:0:0:
352,291,144002,1,8,0:0:0:0:
246,148,144196,1,0,0:0:0:0:
281,337,144389,5,2,0:0:0:0:
316,99,144583,1,0,0:0:0:0:
281,337,144777,2,0,P|269:278|396:218,1,200,8|0,0:0|0:0,0:0:0:0:
478,115,145357,1,0,0:0:0:0:
480,69,145454,1,0,0:0:0:0:
455,31,145551,1,8,0:0:0:0:
414,10,145648,1,0,0:0:0:0:
369,9,145744,1,0,0:0:0:0:
213,156,145938,6,0,P|160:183|16:147,1,200,2|8,0:0|0:0,0:0:0:0:
215,73,146519,1,0,0:0:0:0:
215,73,146615,1,0,0:0:0:0:
215,73,146712,2,0,P|268:93|294:139,1,100,2|0,0:0|0:0,0:0:0:0:
303,171,147002,1,0,0:0:0:0:
311,215,147099,2,0,P|350:262|403:268,1,100,8|0,0:0|0:0,0:0:0:0:
475,264,147486,5,0,0:0:0:0:
432,109,147680,1,0,0:0:0:0:
432,333,147873,1,8,0:0:0:0:
475,178,148067,1,0,0:0:0:0:
358,301,148260,2,0,P|298:291|250:309,1,100,2|0,0:0|0:0,0:0:0:0:
220,320,148551,1,0,0:0:0:0:
177,333,148648,1,8,0:0:0:0:
132,329,148744,1,0,0:0:0:0:
89,313,148841,1,0,0:0:0:0:
42,117,149035,6,0,P|65:69|198:70,1,200,4|8,0:0|0:0,0:0:0:0:
255,134,149615,1,0,0:0:0:0:
470,267,149809,2,0,P|447:315|314:314,1,200,2|8,0:0|0:0,0:0:0:0:
255,250,150389,1,0,0:0:0:0:
348,104,150583,6,0,P|402:95|450:108,1,100,2|0,0:0|0:0,0:0:0:0:
255,191,150970,2,0,P|201:200|153:187,1,100,8|0,0:0|0:0,0:0:0:0:
93,125,151357,1,2,0:0:0:0:
175,307,151551,1,0,0:0:0:0:
132,322,151648,1,0,0:0:0:0:
88,329,151744,1,8,0:0:0:0:
43,322,151841,1,0,0:0:0:0:
0,307,151938,1,0,0:0:0:0:
93,125,152131,6,0,P|148:103|300:132,1,200,2|8,0:0|0:0,0:0:0:0:
366,158,152712,1,0,0:0:0:0:
480,327,152906,2,0,P|425:349|273:320,1,200,2|8,0:0|0:0,0:0:0:0:
218,273,153486,1,0,0:0:0:0:
366,158,153680,5,2,0:0:0:0:
289,331,153873,1,2,0:0:0:0:
284,121,154067,1,8,0:0:0:0:
373,296,154260,1,0,0:0:0:0:
206,162,154454,2,0,P|196:106|235:51,1,100,2|0,0:0|0:0,0:0:0:0:
251,43,154744,1,0,0:0:0:0:
295,37,154841,1,8,0:0:0:0:
336,55,154938,1,0,0:0:0:0:
360,92,155035,1,0,0:0:0:0:
373,296,155228,6,0,P|401:344|518:292,1,200,4|8,0:0|0:0,0:0:0:0:
256,190,155809,1,0,0:0:0:0:
139,88,156002,2,0,P|111:40|-6:92,1,200,0|8,0:0|0:0,0:0:0:0:
167,172,156583,2,0,P|218:138|228:88,1,100,0|2,0:0|0:0,0:0:0:0:
73,144,156970,6,0,P|22:178|12:228,1,100,0|8,0:0|0:0,0:0:0:0:
206,334,157357,2,0,P|263:349|316:323,1,100,2|0,0:0|0:0,0:0:0:0:
466,179,157744,1,0,0:0:0:0:
466,179,157841,1,0,0:0:0:0:
466,179,157938,2,0,P|483:236|461:372,1,200,8|4,0:0|0:0,0:0:0:0:
390,140,158519,6,0,P|432:100|486:96,1,100,2|8,0:0|0:0,0:0:0:0:
394,220,158906,2,0,P|337:202|311:160,1,100,2|0,0:0|0:0,0:0:0:0:
185,67,159293,1,0,0:0:0:0:
185,67,159389,1,0,0:0:0:0:
185,67,159486,2,0,P|125:56|77:72,1,100,8|0,0:0|0:0,0:0:0:0:
142,239,159873,5,2,0:0:0:0:
257,318,160067,1,0,0:0:0:0:
135,152,160260,1,8,0:0:0:0:
340,278,160454,1,0,0:0:0:0:
177,280,160648,6,0,P|259:231|340:283,1,200,8|0,0:0|0:0,0:0:0:0:
38,344,161228,1,0,0:0:0:0:
38,344,161325,1,0,0:0:0:0:
38,344,161422,6,0,P|22:285|36:242,1,100,4|0,0:0|0:0,0:0:0:0:
139,57,161809,2,0,P|155:116|141:159,1,100,8|0,0:0|0:0,0:0:0:0:
64,86,162196,2,0,P|118:61|272:84,1,200,2|8,0:0|0:0,0:0:0:0:
297,88,162680,1,0,0:0:0:0:
336,110,162777,1,0,0:0:0:0:
482,297,162970,2,0,P|423:306|375:291,1,100,8|0,0:0|0:0,0:0:0:0:
424,80,163357,6,0,P|483:71|531:86,1,100,0|0,0:0|0:0,0:0:0:0:
299,267,163744,2,0,P|218:258|95:275,1,200,2|8,0:0|0:0,0:0:0:0:
57,285,164228,1,0,0:0:0:0:
27,250,164325,1,0,0:0:0:0:
290,121,164519,6,0,P|276:174|215:216,1,100,4|0,0:0|0:0,0:0:0:0:
31,162,164906,2,0,P|45:109|102:81,1,100,8|0,0:0|0:0,0:0:0:0:
336,190,165293,2,0,P|288:202|241:187,1,100,2|0,0:0|0:0,0:0:0:0:
434,109,165680,1,8,0:0:0:0:
434,109,165777,1,0,0:0:0:0:
434,109,165873,1,0,0:0:0:0:
210,312,166067,6,0,P|149:319|100:299,1,100,0|0,0:0|0:0,0:0:0:0:
278,269,166454,2,0,P|288:317|271:364,1,100,8|0,0:0|0:0,0:0:0:0:
110,108,166841,2,0,P|148:62|192:56,1,100,2|0,0:0|0:0,0:0:0:0:
261,175,167228,1,8,0:0:0:0:
365,76,167422,1,0,0:0:0:0:
408,65,167519,1,0,0:0:0:0:
449,47,167615,6,0,P|479:93|479:159,1,100,4|0,0:0|0:0,0:0:0:0:
365,313,168002,2,0,P|335:267|335:201,1,100,8|0,0:0|0:0,0:0:0:0:
450,47,168389,1,2,0:0:0:0:
425,238,168583,1,0,0:0:0:0:
425,238,168680,1,0,0:0:0:0:
425,238,168777,1,8,0:0:0:0:
256,150,168970,1,0,0:0:0:0:
63,337,169164,6,0,P|33:291|33:225,1,100,2|0,0:0|0:0,0:0:0:0:
147,71,169551,2,0,P|177:117|177:183,1,100,8|0,0:0|0:0,0:0:0:0:
62,337,169938,1,2,0:0:0:0:
87,146,170132,1,0,0:0:0:0:
87,146,170229,1,0,0:0:0:0:
87,146,170326,1,8,0:0:0:0:
256,234,170519,1,0,0:0:0:0:
419,351,170712,6,0,P|462:304|438:153,1,200,4|8,0:0|0:0,0:0:0:0:
358,45,171293,1,0,0:0:0:0:
358,45,171389,1,0,0:0:0:0:
358,45,171486,2,0,P|317:96|174:91,1,200,2|8,0:0|0:0,0:0:0:0:
113,54,172067,1,0,0:0:0:0:
180,208,172260,6,0,L|229:305,1,100,2|0,0:0|0:0,0:0:0:0:
483,287,172648,2,0,L|434:190,1,100,8|0,0:0|0:0,0:0:0:0:
417,157,172938,1,0,0:0:0:0:
395,117,173035,2,0,P|343:130|283:115,1,100,2|0,0:0|0:0,0:0:0:0:
213,90,173422,1,8,0:0:0:0:
122,270,173615,1,2,0:0:0:0:
30,90,173809,5,4,0:0:0:0:
184,120,180002,5,4,0:0:0:0:
328,264,180389,1,2,0:0:0:0:
328,120,180777,1,2,0:0:0:0:
184,264,181164,1,2,0:0:0:0:
256,192,181551,5,4,0:0:0:0:
384,192,181744,1,0,0:0:0:0:
128,192,181938,1,8,0:0:0:0:
256,64,182131,1,0,0:0:0:0:
256,320,182325,1,8,0:0:0:0:
144,84,182519,1,0,0:0:0:0:
368,300,182712,1,8,0:0:0:0:
144,300,182906,1,0,0:0:0:0:
144,300,183002,1,0,0:0:0:0:
144,300,183099,6,0,P|80:292|36:248,1,100
144,84,183486,2,0,P|208:92|252:136,1,100,4|0,0:0|0:0,0:0:0:0:
280,192,183873,2,0,P|320:240|372:248,1,100
427,67,184260,1,8,0:0:0:0:
237,123,184453,1,4,0:0:0:0:
264,44,184648,5,0,0:0:0:0:
160,200,184841,1,0,0:0:0:0:
108,92,185035,1,8,0:0:0:0:
312,112,185228,1,8,0:0:0:0:
24,56,185422,2,0,P|20:112|48:160,1,100
24,56,185809,1,8,0:0:0:0:
208,112,186002,6,0,P|232:176|128:252,1,200,4|0,0:0|0:0,0:0:0:0:
60,288,186583,2,0,P|44:344|56:384,1,100,8|0,0:0|0:0,0:0:0:0:
252,316,186970,2,0,P|268:260|256:220,1,100
255,39,187356,1,8,0:0:0:0:
257,220,187550,1,4,0:0:0:0:
428,108,187744,6,0,P|444:52|432:12,1,100
356,60,188131,1,8,0:0:0:0:
292,168,188325,1,0,0:0:0:0:
416,228,188519,2,0,P|480:224|520:184,2,100,0|0|8,0:0|0:0|0:0,0:0:0:0:
292,168,189099,6,0,B|248:104|208:104|208:104|176:152|112:140,1,200,4|0,0:0|0:0,0:0:0:0:
136,52,189680,1,8,0:0:0:0:
80,208,189873,1,0,0:0:0:0:
216,212,190067,2,0,P|256:252|308:256,2,100,0|0|8,0:0|0:0|0:0,0:0:0:0:
136,52,190648,6,0,B|80:72|64:128|64:128|112:120|144:160,1,200,4|0,0:0|0:0,0:0:0:0:
80,208,191228,1,8,0:0:0:0:
200,308,191422,1,0,0:0:0:0:
292,168,191615,2,0,P|328:104|376:88,2,100,0|0|8,0:0|0:0|0:0,0:0:0:0:
288,308,192196,6,0,P|320:348|460:308,1,200,4|0,0:0|0:0,0:0:0:0:
484,240,192777,2,0,P|496:176|476:136,1,100,8|0,0:0|0:0,0:0:0:0:
348,92,193164,2,0,B|296:128|248:120|248:120|228:64|164:52,1,200,0|8,0:0|0:0,0:0:0:0:
168,144,193744,6,0,B|188:200|188:200|264:220|340:196,1,200,4|0,0:0|0:0,0:0:0:0:
416,212,194325,2,0,B|432:272|412:332|412:332|356:308|316:328,1,200,8|2,0:0|0:0,0:0:0:0:
292,336,194809,1,0,0:0:0:0:
248,348,194906,1,0,0:0:0:0:
203,347,195002,1,0,0:0:0:0:
159,336,195099,1,8,0:0:0:0:
43,255,195293,6,0,B|66:199|24:155|24:155|25:91|87:69,1,200,4|0,0:0|0:0,0:0:0:0:
144,36,195873,2,0,P|196:20|252:40,1,100,8|8,0:0|0:0,0:0:0:0:
352,188,196260,2,0,P|300:204|244:184,1,100
144,64,196648,2,0,P|196:48|252:68,1,100,8|0,0:0|0:0,0:0:0:0:
356,224,197035,6,0,P|304:240|248:220,1,100
192,168,197422,1,8,0:0:0:0:
132,320,197615,1,0,0:0:0:0:
288,344,197809,1,0,0:0:0:0:
456,192,198002,1,0,0:0:0:0:
456,192,198099,1,0,0:0:0:0:
456,192,198196,1,8,0:0:0:0:
356,56,198389,6,0,B|301:38|258:69|258:69|216:41|158:55,1,200,4|0,0:0|0:0,0:0:0:0:
92,108,198970,2,0,P|48:156|48:212,1,100,8|0,0:0|0:0,0:0:0:0:
272,244,199357,2,0,P|316:196|316:140,1,100
120,120,199744,2,0,P|76:168|76:224,1,100,8|0,0:0|0:0,0:0:0:0:
296,264,200131,6,0,P|340:216|340:160,1,100
312,80,200519,6,0,P|264:40|184:56,1,119.999996337891,8|8,0:0|0:0,0:0:0:0:
120,228,200906,6,0,P|184:284|252:276,2,139.999995727539,0|0|8,0:0|0:0|0:0,0:0:0:0:
88,60,201486,6,0,B|152:52|192:76|192:76|176:124|216:172,1,200,4|0,0:0|0:0,0:0:0:0:
292,200,202067,1,8,0:0:0:0:
436,256,202260,1,8,0:0:0:0:
448,92,202454,1,0,0:0:0:0:
304,36,202648,1,0,0:0:0:0:
163,101,202841,1,8,0:0:0:0:
38,172,203035,6,0,B|57:229|125:241|125:241|97:285|116:320,1,200
308,296,203615,2,0,L|208:296,1,100,8|0,0:0|0:0,0:0:0:0:
320,176,204002,2,0,L|427:176,1,100
476,64,204389,1,8,0:0:0:0:
320,176,204583,6,0,B|300:116|232:100|232:100|256:60|232:4,1,200,4|0,0:0|0:0,0:0:0:0:
152,56,205164,2,0,L|40:56,1,100,8|8,0:0|0:0,0:0:0:0:
12,260,205551,2,0,L|116:260,1,100
184,312,205938,1,8,0:0:0:0:
288,224,206131,1,0,0:0:0:0:
304,316,206325,6,0,P|352:296|372:232,1,100,8|2,0:0|0:0,0:0:0:0:
208,68,206712,2,0,P|160:88|140:152,1,100,0|0,0:0|0:0,0:0:0:0:
372,129,207099,2,0,P|349:85|304:68,1,100,8|8,0:0|0:0,0:0:0:0:
139,254,207486,2,0,P|162:298|208:316,1,100,8|0,0:0|0:0,0:0:0:0:
256,192,207874,5,2,0:0:0:0:
256,192,207970,12,4,210970,0:0:0:0:
