osu file format v14

[General]
AudioFilename: ------PV-------+---------------.mp3
AudioLeadIn: 0
PreviewTime: 166209
Countdown: 0
SampleSet: Soft
StackLeniency: 0.7
Mode: 0
LetterboxInBreaks: 0
WidescreenStoryboard: 0

[Editor]
Bookmarks: 11253,34505,45291,56077,66864,81695,88437,123475,134262,145048,155835,166621,190891,215161,225947,242127,247520,255610,259655,294711,316284
DistanceSpacing: 2
BeatDivisor: 4
GridSize: 4
TimelineZoom: 1.8

[Metadata]
Title:Sakura no Zenya
TitleUnicode:サクラノ前夜
Artist:Kano
ArtistUnicode:鹿乃
Creator:Mei
Version:Miao
Source:
Tags:
BeatmapID:580851
BeatmapSetID:252945

[Difficulty]
HPDrainRate:7
CircleSize:4
OverallDifficulty:7
ApproachRate:9
SliderMultiplier:1.7
SliderTickRate:1

[Events]
//Background and Video events
0,0,"bgww.jpg",0,0
//Break Periods
2,115585,117482
2,193787,213391
//Storyboard Layer 0 (Background)
//Storyboard Layer 1 (Fail)
//Storyboard Layer 2 (Pass)
//Storyboard Layer 3 (Foreground)
//Storyboard Sound Samples

[TimingPoints]
779,337.078651685393,4,2,0,50,1,0
45273,-133.333333333333,4,2,0,50,0,0
56060,-100,4,2,0,50,0,0
88419,-83.3333333333333,4,2,0,50,0,1
112689,-100,4,2,0,50,0,0
123475,-133.333333333333,4,2,0,50,0,0
134262,-100,4,2,0,50,0,0
166621,-83.3333333333333,4,2,0,50,0,1
190891,-100,4,2,0,50,0,0
247520,-166.666666666667,4,2,0,50,0,0
258138,-100,4,2,0,50,0,0
259655,-83.3333333333333,4,2,0,50,0,1
294711,-100,4,2,0,50,0,0
323026,-200,4,2,0,50,0,0

[Colours]
Combo1 : 65,88,250
Combo2 : 248,86,207
Combo3 : 91,33,199
Combo4 : 196,204,38

[HitObjects]
268,88,34487,5,0,0:0:0:0:
132,104,34655,1,0,0:0:0:0:
268,88,34823,2,0,P|320:92|392:96,1,85,8|0,0:0|0:0,0:0:0:0:
480,184,35161,2,0,P|488:248|488:324,1,127.5,0|0,0:0|0:0,0:0:0:0:
472,340,35498,2,0,L|372:348,1,85,8|0,0:0|0:0,0:0:0:0:
168,352,35835,6,0,P|164:300|252:284,1,127.5,0|0,0:0|0:0,0:0:0:0:
264,284,36172,2,0,L|256:184,1,85,8|0,0:0|0:0,0:0:0:0:
152,60,36509,2,0,P|144:124|124:200,1,127.5,0|0,0:0|0:0,0:0:0:0:
108,216,36846,2,0,L|8:224,1,85,8|0,0:0|0:0,0:0:0:0:
168,352,37183,5,0,0:0:0:0:
232,240,37352,1,0,0:0:0:0:
296,368,37520,1,8,0:0:0:0:
356,280,37689,2,0,L|456:272,1,85,0|0,0:0|0:0,0:0:0:0:
376,100,38026,1,0,0:0:0:0:
240,216,38194,2,0,L|156:223,1,85,8|0,0:0|0:0,0:0:0:0:
296,104,38531,6,0,P|320:156|428:160,1,170,0|8,0:0|0:0,0:0:0:0:
292,12,39037,1,0,0:0:0:0:
196,68,39205,2,0,P|148:92|104:92,1,85,0|8,0:0|0:0,0:0:0:0:
12,168,39543,1,8,0:0:0:0:
104,208,39711,1,8,0:0:0:0:
48,292,39880,6,0,P|32:360|32:380,1,85,4|0,0:0|0:0,0:0:0:0:
300,360,40217,2,0,L|148:348,1,127.5,8|0,0:0|0:0,0:0:0:0:
132,348,40554,1,0,0:0:0:0:
240,240,40722,1,0,0:0:0:0:
140,128,40891,2,0,L|48:132,1,85,8|0,0:0|0:0,0:0:0:0:
240,144,41228,6,0,P|272:192|360:176,1,127.5,0|0,0:0|0:0,0:0:0:0:
376,168,41565,2,0,L|472:160,1,85,8|0,0:0|0:0,0:0:0:0:
404,72,41902,1,0,0:0:0:0:
404,72,42071,1,8,0:0:0:0:
432,256,42239,1,8,0:0:0:0:
432,256,42408,1,8,0:0:0:0:
236,172,42576,6,0,L|132:184,1,85,4|0,0:0|0:0,0:0:0:0:
244,344,42913,2,0,L|348:332,1,85,8|8,0:0|0:0,0:0:0:0:
160,288,43250,1,0,0:0:0:0:
68,356,43419,1,8,0:0:0:0:
60,224,43587,2,0,P|48:160|72:76,1,127.5,12|0,0:0|0:0,0:0:0:0:
80,64,43925,5,0,0:0:0:0:
256,44,44093,1,8,0:0:0:0:
188,192,44262,1,8,0:0:0:0:
184,16,44430,1,8,0:0:0:0:
352,152,44599,6,0,L|256:148,1,85,8|0,0:0|0:0,0:0:0:0:
392,56,44936,2,0,L|488:52,1,85,8|0,0:0|0:0,0:0:0:0:
472,176,45273,6,0,P|488:228|484:320,1,127.500004863739,4|0,0:0|0:0,0:0:0:0:
380,356,45778,1,0,0:0:0:0:
380,356,45947,2,0,L|312:340,1,63.7500024318696,0|0,0:0|0:0,0:0:0:0:
208,344,46284,1,0,0:0:0:0:
152,244,46453,1,0,0:0:0:0:
256,184,46621,6,0,P|272:136|256:44,1,127.500004863739
136,116,47127,1,0,0:0:0:0:
80,192,47295,2,0,P|64:240|80:332,1,127.500004863739
164,356,47801,1,0,0:0:0:0:
256,300,47970,6,0,L|328:292,1,63.7500024318696
484,212,48307,2,0,L|412:204,1,63.7500024318696
288,176,48644,2,0,P|280:120|292:20,1,127.500004863739
168,64,49149,1,0,0:0:0:0:
192,168,49318,6,0,L|52:176,1,127.500004863739
232,264,49823,1,0,0:0:0:0:
288,176,49992,2,0,L|368:192,2,63.7500024318696
256,356,50498,1,0,0:0:0:0:
160,328,50666,6,0,P|108:320|40:356,1,127.500004863739,4|0,0:0|0:0,0:0:0:0:
112,228,51172,1,0,0:0:0:0:
196,164,51340,2,0,P|212:112|200:24,1,127.500004863739
248,256,51846,1,0,0:0:0:0:
332,320,52014,6,0,L|476:316,1,127.500004863739
504,216,52520,1,0,0:0:0:0:
432,152,52689,2,0,P|416:112|416:64,1,63.7500024318696,0|0,0:0|0:0,0:0:0:0:
308,8,53026,2,0,P|302:39|289:68,1,63.7500024318696
208,152,53363,6,0,L|144:158,1,63.7500024318696,0|0,0:0|0:0,0:0:0:0:
8,56,53700,2,0,P|40:40|104:104,1,127.500004863739
32,340,54374,1,0,0:0:0:0:
140,372,54543,1,0,0:0:0:0:
32,340,54711,6,0,L|32:192,1,127.500004863739
104,160,55217,1,0,0:0:0:0:
220,336,55385,5,0,0:0:0:0:
120,284,55554,1,0,0:0:0:0:
280,188,55722,1,0,0:0:0:0:
104,160,55891,1,0,0:0:0:0:
232,64,56059,6,0,L|300:60,1,63.7500024318696,0|0,0:0|0:0,0:0:0:0:
464,28,56396,1,8,0:0:0:0:
360,112,56565,1,0,0:0:0:0:
464,28,56734,2,0,P|480:80|480:112,1,85,0|0,0:0|0:0,0:0:0:0:
460,312,57071,1,8,0:0:0:0:
444,208,57239,1,0,0:0:0:0:
360,256,57408,6,0,P|304:248|256:248,1,85,0|0,0:0|0:0,0:0:0:0:
128,360,57745,2,0,P|168:324|192:280,1,85,8|0,0:0|0:0,0:0:0:0:
132,192,58082,1,0,0:0:0:0:
236,136,58250,2,0,L|228:32,2,85,0|8|0,0:0|0:0|0:0,0:0:0:0:
288,292,58756,6,0,P|332:336|428:296,1,170,0|8,0:0|0:0,0:0:0:0:
500,144,59262,1,0,0:0:0:0:
500,144,59430,2,0,L|400:124,1,85,0|0,0:0|0:0,0:0:0:0:
452,40,59767,1,8,0:0:0:0:
352,192,59936,1,0,0:0:0:0:
232,64,60104,6,0,L|336:56,1,85,0|0,0:0|0:0,0:0:0:0:
212,144,60441,2,0,P|164:112|156:40,1,127.5,8|0,0:0|0:0,0:0:0:0:
104,16,60778,2,0,L|96:124,1,85,0|0,0:0|0:0,0:0:0:0:
20,188,61116,1,8,0:0:0:0:
152,240,61284,1,8,0:0:0:0:
76,300,61453,5,0,0:0:0:0:
128,148,61621,1,0,0:0:0:0:
168,344,61790,2,0,P|196:352|256:348,1,85,8|0,0:0|0:0,0:0:0:0:
308,184,62127,2,0,P|236:184|212:268,1,170,0|8,0:0|0:0,0:0:0:0:
344,352,62632,1,0,0:0:0:0:
432,268,62801,6,0,L|520:264,1,85,0|0,0:0|0:0,0:0:0:0:
472,92,63138,1,8,0:0:0:0:
392,184,63307,1,0,0:0:0:0:
340,12,63475,2,0,L|348:96,1,85,0|0,0:0|0:0,0:0:0:0:
216,164,63812,2,0,L|224:80,1,85,8|0,0:0|0:0,0:0:0:0:
140,188,64149,6,0,P|172:232|288:184,1,170,0|8,0:0|0:0,0:0:0:0:
84,76,64655,1,0,0:0:0:0:
16,184,64823,2,0,P|31:223|39:265,1,85
120,336,65161,2,0,P|160:352|201:358,1,85,8|8,0:0|0:0,0:0:0:0:
404,296,65498,6,0,L|212:264,1,170,0|8,0:0|0:0,0:0:0:0:
344,144,66003,2,0,P|332:92|344:44,2,85,0|0|8,0:0|0:0|0:0,0:0:0:0:
416,92,66509,1,8,0:0:0:0:
264,164,66677,1,8,0:0:0:0:
404,296,66846,6,0,P|412:240|416:204,1,85,0|0,0:0|0:0,0:0:0:0:
284,308,67183,1,8,0:0:0:0:
284,308,67520,1,0,0:0:0:0:
284,308,67857,1,8,0:0:0:0:
96,168,68194,5,0,0:0:0:0:
168,96,68363,1,0,0:0:0:0:
184,188,68531,2,0,P|192:248|192:304,1,85,8|0,0:0|0:0,0:0:0:0:
40,304,68868,2,0,P|87:267|136:239,1,85,0|0,0:0|0:0,0:0:0:0:
208,376,69205,2,0,P|152:352|103:324,1,85,8|0,0:0|0:0,0:0:0:0:
288,232,69543,6,0,P|348:268|316:372,1,170,0|8,0:0|0:0,0:0:0:0:
284,308,70048,1,0,0:0:0:0:
440,264,70217,2,0,L|432:352,1,85,0|0,0:0|0:0,0:0:0:0:
320,128,70554,2,0,L|412:116,1,85,8|0,0:0|0:0,0:0:0:0:
496,184,70891,5,0,0:0:0:0:
456,64,71059,1,0,0:0:0:0:
392,204,71228,2,0,P|380:264|376:304,1,85,8|0,0:0|0:0,0:0:0:0:
468,340,71565,5,0,0:0:0:0:
120,208,71902,1,8,0:0:0:0:
424,20,72239,1,0,0:0:0:0:
300,352,72576,5,8,0:0:0:0:
204,276,72745,2,0,P|132:264|96:264,2,85,0|0|0,0:0|0:0|0:0,0:0:0:0:
312,232,73250,1,8,0:0:0:0:
16,40,73587,6,0,L|4:232,1,170,0|8,0:0|0:0,0:0:0:0:
92,344,74093,1,0,0:0:0:0:
136,232,74262,2,0,P|188:196|280:260,1,170,0|8,0:0|0:0,0:0:0:0:
308,352,74767,1,0,0:0:0:0:
274,241,74936,6,0,P|268:180|272:132,2,85,0|0|8,0:0|0:0|0:0,0:0:0:0:
356,328,75441,1,0,0:0:0:0:
416,196,75610,2,0,L|504:192,2,85,0|0|8,0:0|0:0|0:0,0:0:0:0:
324,60,76116,1,0,0:0:0:0:
200,192,76284,6,0,P|188:248|184:296,2,85,0|0|8,0:0|0:0|0:0,0:0:0:0:
336,148,76790,1,0,0:0:0:0:
216,68,76958,2,0,L|116:44,1,85,0|0,0:0|0:0,0:0:0:0:
16,176,77295,1,8,0:0:0:0:
16,176,77380,1,0,0:0:0:0:
16,176,77464,1,0,0:0:0:0:
16,176,77548,1,0,0:0:0:0:
16,176,77632,6,0,P|32:232|24:312,1,127.5,0|0,0:0|0:0,0:0:0:0:
20,336,77970,2,0,L|104:352,1,85,8|0,0:0|0:0,0:0:0:0:
248,372,78307,2,0,P|244:316|224:284,1,85,0|0,0:0|0:0,0:0:0:0:
256,156,78644,2,0,P|312:184|344:184,1,85,8|0,0:0|0:0,0:0:0:0:
484,128,78981,1,0,0:0:0:0:
156,192,79318,1,8,0:0:0:0:
432,36,79655,1,0,0:0:0:0:
360,324,79992,2,0,L|260:316,1,85,8|0,0:0|0:0,0:0:0:0:
156,192,80329,6,0,P|220:168|284:244,1,170,0|8,0:0|0:0,0:0:0:0:
80,240,80835,1,0,0:0:0:0:
80,240,81003,2,0,P|68:192|72:144,2,85,0|0|8,0:0|0:0|0:0,0:0:0:0:
96,356,81509,1,0,0:0:0:0:
200,296,81677,6,0,L|284:288,1,85,0|0,0:0|0:0,0:0:0:0:
312,88,82014,2,0,L|228:96,1,85,8|0,0:0|0:0,0:0:0:0:
392,240,82352,2,0,P|408:172|408:136,1,85,0|0,0:0|0:0,0:0:0:0:
120,144,82689,2,0,P|104:212|104:248,1,85,8|0,0:0|0:0,0:0:0:0:
300,356,83026,5,0,0:0:0:0:
232,164,83194,2,0,L|208:272,1,85,0|8,0:0|0:0,0:0:0:0:
344,280,83531,1,0,0:0:0:0:
120,240,83700,2,0,L|140:332,1,85,0|0,0:0|0:0,0:0:0:0:
120,240,84037,1,8,0:0:0:0:
232,164,84205,1,0,0:0:0:0:
112,24,84374,6,0,L|8:36,2,85,0|0|8,0:0|0:0|0:0,0:0:0:0:
232,164,84880,1,0,0:0:0:0:
224,72,85048,1,0,0:0:0:0:
152,208,85217,1,0,0:0:0:0:
320,184,85385,2,0,L|412:192,1,85,8|0,0:0|0:0,0:0:0:0:
244,264,85722,6,0,L|212:312,7,42.5,0|0|0|0|8|0|0|0,0:0|0:0|0:0|0:0|0:0|0:0|0:0|0:0,0:0:0:0:
152,368,86397,2,0,P|124:356|88:352,1,42.5,0|0,0:0|0:0,0:0:0:0:
0,224,86565,2,0,P|28:212|64:208,1,42.5,0|0,0:0|0:0,0:0:0:0:
212,124,86734,2,0,P|212:176|208:196,1,42.5,8|0,0:0|0:0,0:0:0:0:
124,260,86902,1,0,0:0:0:0:
148,68,87071,5,0,0:0:0:0:
28,128,87239,2,0,P|16:72|16:8,1,85,8|0,0:0|0:0,0:0:0:0:
252,44,87576,1,0,0:0:0:0:
220,236,87745,2,0,L|136:226,1,85,8|0,0:0|0:0,0:0:0:0:
251,44,88082,2,0,P|306:13|364:36,1,127.5,12|0,0:0|0:0,0:0:0:0:
368,52,88419,6,0,L|376:176,1,101.999996887207,4|0,0:0|0:0,0:0:0:0:
408,284,88756,1,8,0:0:0:0:
288,200,88925,1,0,0:0:0:0:
464,104,89093,2,0,L|472:228,1,101.999996887207,0|0,0:0|0:0,0:0:0:0:
324,344,89430,1,8,0:0:0:0:
392,204,89599,1,0,0:0:0:0:
248,284,89767,6,0,P|184:272|132:268,1,101.999996887207,0|0,0:0|0:0,0:0:0:0:
0,184,90104,2,0,P|64:172|116:168,1,101.999996887207,8|0,0:0|0:0,0:0:0:0:
248,48,90441,1,0,0:0:0:0:
184,204,90610,1,0,0:0:0:0:
136,72,90778,1,8,0:0:0:0:
312,112,90947,1,0,0:0:0:0:
136,72,91116,6,0,L|20:60,1,101.999996887207,0|0,0:0|0:0,0:0:0:0:
184,204,91453,1,8,0:0:0:0:
268,132,91621,1,0,0:0:0:0:
328,256,91790,2,0,L|440:252,1,101.999996887207,0|0,0:0|0:0,0:0:0:0:
240,316,92127,2,0,P|204:352|132:340,1,101.999996887207,8|0,0:0|0:0,0:0:0:0:
52,268,92464,6,0,B|64:208|64:208|56:168|56:168|64:104,1,152.999995330811,0|0,0:0|0:0,0:0:0:0:
72,80,92801,2,0,L|176:72,1,101.999996887207,8|0,0:0|0:0,0:0:0:0:
352,112,93138,1,0,0:0:0:0:
192,172,93307,1,0,0:0:0:0:
228,12,93475,1,8,0:0:0:0:
288,188,93644,6,0,B|320:272|304:340|304:340|288:292|252:288,1,203.999993774414,4|0,0:0|0:0,0:0:0:0:
156,276,94149,2,0,L|40:268,1,101.999996887207,8|0,0:0|0:0,0:0:0:0:
196,360,94486,1,0,0:0:0:0:
288,188,94655,1,0,0:0:0:0:
156,276,94823,1,8,0:0:0:0:
292,356,94992,2,0,L|504:344,1,203.999993774414,4|0,0:0|0:0,0:0:0:0:
377,273,95498,6,0,L|276:280,1,101.999996887207,8|0,0:0|0:0,0:0:0:0:
144,232,95835,1,0,0:0:0:0:
196,360,96003,1,0,0:0:0:0:
264,176,96172,1,8,0:0:0:0:
192,320,96340,1,0,0:0:0:0:
40,168,96509,6,0,L|160:152,1,101.999996887207,4|0,0:0|0:0,0:0:0:0:
268,344,96846,2,0,P|244:280|256:236,1,101.999996887207,8|0,0:0|0:0,0:0:0:0:
370,154,97183,2,0,L|472:168,1,101.999996887207,0|0,0:0|0:0,0:0:0:0:
432,28,97520,1,8,0:0:0:0:
316,48,97689,2,0,P|284:108|164:64,1,203.999993774414,4|0,0:0|0:0,0:0:0:0:
124,196,98194,6,0,L|132:304,1,101.999996887207,8|0,0:0|0:0,0:0:0:0:
304,356,98531,1,0,0:0:0:0:
304,356,98616,1,0,0:0:0:0:
304,356,98700,1,0,0:0:0:0:
304,356,98784,1,0,0:0:0:0:
304,356,98868,2,0,P|308:326|324:304,1,50.9999984436036,8|0,0:0|0:0,0:0:0:0:
384,240,99037,2,0,P|416:232|456:236,1,50.9999984436036,0|0,0:0|0:0,0:0:0:0:
508,144,99205,6,0,P|440:144|408:136,1,101.999996887207,4|0,0:0|0:0,0:0:0:0:
284,4,99543,2,0,P|318:62|327:94,1,101.999996887207,8|0,0:0|0:0,0:0:0:0:
240,288,99880,2,0,P|244:220|332:192,1,152.999995330811,0|0,0:0|0:0,0:0:0:0:
240,176,100217,2,0,L|120:160,1,101.999996887207,8|0,0:0|0:0,0:0:0:0:
40,212,100554,5,0,0:0:0:0:
112,96,100722,1,0,0:0:0:0:
109,312,100891,2,0,B|192:340|188:288|276:320,1,152.999995330811,8|0,0:0|0:0,0:0:0:0:
296,316,101228,2,0,L|428:320,1,101.999996887207,0|0,0:0|0:0,0:0:0:0:
472,248,101565,1,8,0:0:0:0:
360,200,101734,1,0,0:0:0:0:
452,32,101902,6,0,P|504:88|448:160,1,152.999995330811,0|0,0:0|0:0,0:0:0:0:
436,132,102239,2,0,L|312:116,1,101.999996887207,8|0,0:0|0:0,0:0:0:0:
172,92,102576,1,0,0:0:0:0:
280,20,102745,1,0,0:0:0:0:
252,196,102913,2,0,L|128:188,1,101.999996887207,8|0,0:0|0:0,0:0:0:0:
80,120,103250,5,0,0:0:0:0:
136,268,103419,1,0,0:0:0:0:
273,98,103587,2,0,L|172:92,1,101.999996887207,8|0,0:0|0:0,0:0:0:0:
326,168,103925,2,0,P|400:228|480:176,1,203.999993774414,0|8,0:0|0:0,0:0:0:0:
404,148,104430,1,4,0:0:0:0:
324,288,104599,5,0,0:0:0:0:
224,92,104767,2,0,L|344:84,1,101.999996887207,0|8,0:0|0:0,0:0:0:0:
184,168,105104,1,0,0:0:0:0:
184,168,105273,2,0,P|144:136|204:16,1,203.999993774414,0|8,0:0|0:0,0:0:0:0:
312,172,105778,1,4,0:0:0:0:
244,256,105947,6,0,L|24:240,1,203.999993774414,0|8,0:0|0:0,0:0:0:0:
284,360,106453,1,0,0:0:0:0:
348,272,106621,2,0,P|412:268|464:284,1,101.999996887207,0|0,0:0|0:0,0:0:0:0:
460,168,106958,2,0,L|448:60,1,101.999996887207,8|0,0:0|0:0,0:0:0:0:
236,100,107295,5,4,0:0:0:0:
372,164,107464,1,0,0:0:0:0:
244,256,107632,1,8,0:0:0:0:
280,172,107801,1,0,0:0:0:0:
320,332,107970,2,0,L|432:340,1,101.999996887207,0|0,0:0|0:0,0:0:0:0:
372,248,108307,1,8,0:0:0:0:
232,360,108475,6,0,P|148:368|92:264,1,203.999993774414,4|0,0:0|0:0,0:0:0:0:
176,176,108981,1,8,0:0:0:0:
32,152,109149,1,0,0:0:0:0:
32,152,109234,1,0,0:0:0:0:
32,152,109318,1,0,0:0:0:0:
216,100,109486,1,8,0:0:0:0:
112,48,109655,1,8,0:0:0:0:
160,260,109823,1,8,0:0:0:0:
272,168,109992,5,8,0:0:0:0:
272,168,110161,1,0,0:0:0:0:
108,136,110329,1,8,0:0:0:0:
108,136,110498,1,0,0:0:0:0:
264,24,110666,1,8,0:0:0:0:
264,24,110835,1,0,0:0:0:0:
288,252,111003,1,8,0:0:0:0:
288,252,111172,1,0,0:0:0:0:
376,192,111340,5,8,0:0:0:0:
132,184,111509,1,0,0:0:0:0:
132,184,111846,2,0,L|116:236,1,50.9999984436036
88,332,112014,5,8,0:0:0:0:
356,320,112183,1,0,0:0:0:0:
360,336,112689,5,4,0:0:0:0:
256,192,112857,12,0,115385,0:0:0:0:
92,93,118082,6,0,L|197:89,1,85
243,261,118419,2,0,P|172:259|155:157,1,170
242,127,118925,1,0,0:0:0:0:
461,184,119093,2,0,L|450:284,1,85
369,202,119430,5,0,0:0:0:0:
484,98,119599,1,0,0:0:0:0:
352,38,119767,2,0,L|239:36,1,85
62,91,120104,1,0,0:0:0:0:
62,91,120273,2,0,L|175:89,1,85
248,160,120610,1,0,0:0:0:0:
248,160,120778,6,0,B|286:197|273:280|273:280|219:261,1,170
36,223,121284,1,0,0:0:0:0:
36,223,121453,2,0,P|111:215|150:216,1,85
273,350,121790,2,0,P|230:348|188:341,1,85
247,265,122127,5,0,0:0:0:0:
394,320,122295,1,0,0:0:0:0:
448,175,122464,1,0,0:0:0:0:
306,119,122632,1,0,0:0:0:0:
306,119,122801,2,0,L|322:11,1,85
90,121,123138,5,8,0:0:0:0:
93,132,123222,1,0,0:0:0:0:
96,144,123307,1,0,0:0:0:0:
98,156,123391,1,0,0:0:0:0:
100,164,123475,6,0,L|249:177,1,127.500004863739,0|8,0:0|0:0,0:0:0:0:
320,60,123981,1,0,0:0:0:0:
364,176,124149,2,0,P|356:213|354:255,1,63.7500024318696,0|0,0:0|0:0,0:0:0:0:
372,336,124486,1,8,0:0:0:0:
260,272,124655,1,0,0:0:0:0:
440,220,124823,6,0,P|460:172|460:72,1,127.500004863739,0|8,0:0|0:0,0:0:0:0:
404,16,125329,1,0,0:0:0:0:
272,152,125498,2,0,L|352:148,1,63.7500024318696,0|0,0:0|0:0,0:0:0:0:
224,236,125835,1,8,0:0:0:0:
156,128,126003,1,0,0:0:0:0:
116,320,126172,6,0,L|36:324,1,63.7500024318696,0|0,0:0|0:0,0:0:0:0:
244,352,126509,2,0,L|307:359,1,63.7500024318696,8|0,0:0|0:0,0:0:0:0:
224,236,126846,2,0,P|216:180|228:80,1,127.500004863739,0|8,0:0|0:0,0:0:0:0:
308,64,127351,1,0,0:0:0:0:
448,184,127520,6,0,L|308:192,1,127.500004863739,0|8,0:0|0:0,0:0:0:0:
380,280,128025,1,0,0:0:0:0:
436,92,128194,2,0,L|516:108,2,63.7500024318696,0|0|8,0:0|0:0|0:0,0:0:0:0:
308,64,128700,1,0,0:0:0:0:
302,224,128868,6,0,P|357:193|420:200,1,127.500004863739,0|8,0:0|0:0,0:0:0:0:
268,312,129374,1,0,0:0:0:0:
228,160,129543,2,0,P|173:129|110:135,1,127.500004863739,0|8,0:0|0:0,0:0:0:0:
212,256,130048,1,0,0:0:0:0:
328,128,130216,6,0,L|472:124,1,127.500004863739,0|8,0:0|0:0,0:0:0:0:
264,180,130722,1,0,0:0:0:0:
264,180,130891,2,0,P|248:140|248:92,1,63.7500024318696,0|0,0:0|0:0,0:0:0:0:
152,136,131228,2,0,P|152:96|176:52,1,63.7500024318696,8|0,0:0|0:0,0:0:0:0:
188,232,131565,5,0,0:0:0:0:
88,220,131734,1,0,0:0:0:0:
188,232,131902,2,0,L|200:316,1,63.7500024318696,8|0,0:0|0:0,0:0:0:0:
296,364,132239,2,0,P|304:304|320:232,1,127.500004863739,0|8,0:0|0:0,0:0:0:0:
460,192,132745,1,0,0:0:0:0:
396,116,132913,2,0,P|340:128|264:116,1,127.500004863739,0|8,0:0|0:0,0:0:0:0:
440,36,133419,1,0,0:0:0:0:
368,208,133587,6,0,L|360:296,1,63.7500024318696,0|0,0:0|0:0,0:0:0:0:
248,264,133925,2,0,L|264:336,1,63.7500024318696,8|0,0:0|0:0,0:0:0:0:
156,240,134262,6,0,P|172:200|296:184,1,170,0|8,0:0|0:0,0:0:0:0:
140,88,134767,1,0,0:0:0:0:
52,152,134936,2,0,B|24:188|24:188|28:288,1,127.5,0|0,0:0|0:0,0:0:0:0:
28,304,135273,2,0,P|72:320|120:304,1,85,8|0,0:0|0:0,0:0:0:0:
240,360,135610,5,0,0:0:0:0:
156,240,135778,1,0,0:0:0:0:
316,288,135947,1,8,0:0:0:0:
316,288,136116,1,0,0:0:0:0:
252,168,136284,2,0,L|252:72,1,85,0|0,0:0|0:0,0:0:0:0:
332,80,136621,1,8,0:0:0:0:
168,140,136790,1,0,0:0:0:0:
320,264,136958,6,0,P|392:252|464:256,1,127.5,0|0,0:0|0:0,0:0:0:0:
464,256,137295,2,0,P|472:200|472:160,1,85,8|0,0:0|0:0,0:0:0:0:
420,32,137632,1,0,0:0:0:0:
380,144,137801,1,0,0:0:0:0:
248,92,137970,2,0,L|144:88,1,85,8|0,0:0|0:0,0:0:0:0:
68,24,138307,5,0,0:0:0:0:
104,180,138475,1,0,0:0:0:0:
104,180,138644,2,0,L|188:176,2,85,8|0|0,0:0|0:0|0:0,0:0:0:0:
40,304,139149,1,0,0:0:0:0:
140,288,139317,1,8,0:0:0:0:
240,268,139486,1,0,0:0:0:0:
312,168,139655,6,0,P|280:128|280:80,1,85,0|0,0:0|0:0,0:0:0:0:
424,208,139992,2,0,L|508:217,1,85,8|0,0:0|0:0,0:0:0:0:
328,288,140329,2,0,P|309:335|267:359,1,85,0|0,0:0|0:0,0:0:0:0:
240,268,140666,1,8,0:0:0:0:
380,384,140835,1,0,0:0:0:0:
424,208,141003,6,0,P|436:144|412:24,1,170,0|8,0:0|0:0,0:0:0:0:
304,8,141509,1,0,0:0:0:0:
256,132,141677,2,0,L|372:120,1,85,0|0,0:0|0:0,0:0:0:0:
128,60,142014,1,8,0:0:0:0:
192,188,142183,1,0,0:0:0:0:
60,164,142352,6,0,P|52:240|52:344,1,170,0|8,0:0|0:0,0:0:0:0:
208,368,142857,1,0,0:0:0:0:
208,368,143026,2,0,L|316:352,1,85,0|0,0:0|0:0,0:0:0:0:
276,164,143363,2,0,L|168:148,1,85,8|0,0:0|0:0,0:0:0:0:
312,260,143700,6,0,B|404:288|400:232|480:264,1,170,0|8,0:0|0:0,0:0:0:0:
352,108,144205,1,0,0:0:0:0:
236,200,144374,2,0,P|220:268|220:300,1,85,0|0,0:0|0:0,0:0:0:0:
276,360,144711,1,8,0:0:0:0:
128,244,144880,1,0,0:0:0:0:
319,144,145048,6,0,P|327:102|326:59,1,85,0|0,0:0|0:0,0:0:0:0:
228,92,145385,1,8,0:0:0:0:
228,92,145722,1,0,0:0:0:0:
228,92,146059,1,8,0:0:0:0:
48,236,146396,5,0,0:0:0:0:
120,296,146565,1,0,0:0:0:0:
220,196,146734,2,0,L|136:200,1,85,8|0,0:0|0:0,0:0:0:0:
264,308,147071,2,0,L|348:311,1,85,0|0,0:0|0:0,0:0:0:0:
328,208,147408,2,0,P|340:148|344:108,1,85,8|0,0:0|0:0,0:0:0:0:
424,84,147745,6,0,P|380:44|272:68,1,170,0|8,0:0|0:0,0:0:0:0:
184,40,148250,2,0,P|184:96|212:132,1,85,0|0,0:0|0:0,0:0:0:0:
184,256,148587,1,0,0:0:0:0:
304,180,148756,2,0,L|404:180,1,85,8|0,0:0|0:0,0:0:0:0:
280,280,149093,5,0,0:0:0:0:
212,144,149261,1,0,0:0:0:0:
108,284,149430,2,0,P|66:294|4:292,1,85,8|0,0:0|0:0,0:0:0:0:
36,200,149767,5,0,0:0:0:0:
256,368,150104,1,8,0:0:0:0:
476,200,150441,1,0,0:0:0:0:
256,36,150778,5,8,0:0:0:0:
208,120,150947,2,0,L|100:128,2,85,0|0|0,0:0|0:0|0:0,0:0:0:0:
212,212,151452,1,8,0:0:0:0:
300,128,151621,1,0,0:0:0:0:
68,76,151790,6,0,P|48:120|148:200,1,170,0|8,0:0|0:0,0:0:0:0:
264,320,152295,1,0,0:0:0:0:
264,320,152464,2,0,L|80:304,1,170,0|8,0:0|0:0,0:0:0:0:
340,364,152970,1,0,0:0:0:0:
340,364,153138,6,0,P|392:352|440:344,1,85,0|0,0:0|0:0,0:0:0:0:
300,236,153475,1,8,0:0:0:0:
424,264,153644,2,0,P|480:288|508:312,2,85,0|0|0,0:0|0:0|0:0,0:0:0:0:
360,144,154149,2,0,P|352:96|352:32,1,85,8|0,0:0|0:0,0:0:0:0:
161,59,154486,5,0,0:0:0:0:
161,59,154655,2,0,P|159:102|152:144,1,85,0|8,0:0|0:0,0:0:0:0:
72,100,154992,1,0,0:0:0:0:
248,84,155161,1,0,0:0:0:0:
164,244,155329,1,0,0:0:0:0:
316,208,155498,6,0,L|256:196,1,42.5,8|0,0:0|0:0,0:0:0:0:
160,336,155666,2,0,L|208:320,1,42.5,0|0,0:0|0:0,0:0:0:0:
320,348,155835,6,0,P|376:364|444:348,1,127.5,0|0,0:0|0:0,0:0:0:0:
456,336,156172,2,0,L|468:228,1,85,8|0,0:0|0:0,0:0:0:0:
336,100,156509,2,0,L|345:184,1,85,0|0,0:0|0:0,0:0:0:0:
360,276,156846,1,8,0:0:0:0:
428,124,157014,1,0,0:0:0:0:
240,144,157183,5,0,0:0:0:0:
496,248,157520,1,8,0:0:0:0:
236,360,157857,1,0,0:0:0:0:
56,172,158194,2,0,L|68:64,1,85,8|0,0:0|0:0,0:0:0:0:
136,196,158531,6,0,P|104:244|-16:224,1,170,0|8,0:0|0:0,0:0:0:0:
160,104,159037,1,0,0:0:0:0:
228,196,159205,2,0,P|240:256|244:300,1,85,0|0,0:0|0:0,0:0:0:0:
364,344,159543,1,8,0:0:0:0:
416,272,159711,1,0,0:0:0:0:
504,276,159880,5,0,0:0:0:0:
356,176,160048,1,0,0:0:0:0:
504,88,160217,2,0,P|496:164|488:196,1,85,8|0,0:0|0:0,0:0:0:0:
328,84,160554,2,0,P|336:8|344:-24,1,85,0|0,0:0|0:0,0:0:0:0:
408,200,160891,2,0,L|296:188,1,85,8|0,0:0|0:0,0:0:0:0:
156,92,161228,5,0,0:0:0:0:
172,288,161396,2,0,P|184:236|184:180,1,85,0|8,0:0|0:0,0:0:0:0:
80,164,161734,1,0,0:0:0:0:
276,220,161902,2,0,P|260:168|232:132,1,85,0|0,0:0|0:0,0:0:0:0:
64,304,162239,1,8,0:0:0:0:
152,376,162408,1,0,0:0:0:0:
264,328,162576,5,0,0:0:0:0:
264,328,162745,2,0,L|376:316,2,85,0|8|0,0:0|0:0|0:0,0:0:0:0:
152,376,163250,1,0,0:0:0:0:
248,220,163419,1,0,0:0:0:0:
108,128,163587,1,8,0:0:0:0:
176,292,163756,1,0,0:0:0:0:
320,180,163925,6,0,L|328:124,7,42.5,0|0|0|0|8|0|0|0,0:0|0:0|0:0|0:0|0:0|0:0|0:0|0:0,0:0:0:0:
256,76,164599,2,0,L|252:4,1,42.5,0|0,0:0|0:0,0:0:0:0:
396,28,164767,2,0,L|384:76,1,42.5,0|0,0:0|0:0,0:0:0:0:
248,220,164936,2,0,L|244:148,1,42.5,8|0,0:0|0:0,0:0:0:0:
168,124,165104,1,0,0:0:0:0:
108,292,165273,5,0,0:0:0:0:
4,184,165441,2,0,L|88:190,1,85,0|8,0:0|0:0,0:0:0:0:
248,220,165778,1,0,0:0:0:0:
140,88,166621,6,0,P|136:168|136:220,1,101.999996887207,4|0,0:0|0:0,0:0:0:0:
292,360,166958,1,8,0:0:0:0:
232,260,167127,1,0,0:0:0:0:
356,208,167295,2,0,P|408:232|472:216,1,101.999996887207,0|0,0:0|0:0,0:0:0:0:
416,152,167632,1,8,0:0:0:0:
336,296,167801,1,0,0:0:0:0:
348,84,167969,6,0,P|284:72|232:68,1,101.999996887207,0|0,0:0|0:0,0:0:0:0:
140,220,168307,2,0,P|188:160|204:120,1,101.999996887207,8|0,0:0|0:0,0:0:0:0:
48,172,168643,1,0,0:0:0:0:
88,336,168812,1,0,0:0:0:0:
0,272,168980,1,8,0:0:0:0:
140,220,169149,1,0,0:0:0:0:
176,360,169318,6,0,P|248:352|292:360,1,101.999996887207,0|0,0:0|0:0,0:0:0:0:
340,216,169655,1,8,0:0:0:0:
368,360,169823,1,0,0:0:0:0:
340,216,169992,2,0,L|352:92,1,101.999996887207,0|0,0:0|0:0,0:0:0:0:
172,168,170329,2,0,L|160:292,1,101.999996887207,8|0,0:0|0:0,0:0:0:0:
80,216,170666,5,0,0:0:0:0:
260,164,170835,1,0,0:0:0:0:
132,44,171003,2,0,L|4:48,1,101.999996887207,8|0,0:0|0:0,0:0:0:0:
172,168,171340,1,0,0:0:0:0:
264,68,171509,1,0,0:0:0:0:
340,216,171677,1,8,0:0:0:0:
172,168,171846,6,0,B|96:192|40:136|40:136|64:184|52:224,1,203.999993774414,4|0,0:0|0:0,0:0:0:0:
120,316,172352,2,0,L|252:320,1,101.999996887207,8|0,0:0|0:0,0:0:0:0:
452,364,172689,2,0,L|320:368,1,101.999996887207,0|0,0:0|0:0,0:0:0:0:
432,256,173026,1,8,0:0:0:0:
244,216,173194,6,0,P|232:152|240:8,1,203.999993774414,4|0,0:0|0:0,0:0:0:0:
340,108,173700,2,0,L|464:124,1,101.999996887207,8|0,0:0|0:0,0:0:0:0:
320,236,174037,2,0,P|288:280|224:288,1,101.999996887207,0|0,0:0|0:0,0:0:0:0:
70,121,174374,2,0,L|172:108,1,101.999996887207,8|0,0:0|0:0,0:0:0:0:
248,28,174711,5,4,0:0:0:0:
148,208,174880,1,0,0:0:0:0:
148,208,175048,1,8,0:0:0:0:
124,20,175217,1,0,0:0:0:0:
264,112,175385,1,0,0:0:0:0:
44,224,175554,1,0,0:0:0:0:
172,92,175722,1,8,0:0:0:0:
251,241,175891,2,0,P|205:303|83:293,1,203.999993774414,4|0,0:0|0:0,0:0:0:0:
200,164,176396,6,0,P|268:160|308:164,1,101.999996887207,8|0,0:0|0:0,0:0:0:0:
460,288,176734,1,0,0:0:0:0:
460,288,176818,1,0,0:0:0:0:
460,288,176902,1,0,0:0:0:0:
460,288,176986,1,0,0:0:0:0:
460,288,177071,2,0,P|452:240|456:216,1,50.9999984436036,8|0,0:0|0:0,0:0:0:0:
344,184,177239,2,0,P|363:139|379:121,1,50.9999984436036,0|0,0:0|0:0,0:0:0:0:
452,108,177408,5,4,0:0:0:0:
332,20,177576,1,0,0:0:0:0:
332,20,177745,2,0,L|200:28,1,101.999996887207,8|0,0:0|0:0,0:0:0:0:
240,164,178082,2,0,P|172:148|72:164,1,152.999995330811,0|0,0:0|0:0,0:0:0:0:
68,180,178419,2,0,L|56:292,1,101.999996887207,8|0,0:0|0:0,0:0:0:0:
240,336,178756,5,0,0:0:0:0:
168,228,178924,1,0,0:0:0:0:
124,348,179093,2,0,B|207:376|203:324|291:356,1,152.999995330811,8|0,0:0|0:0,0:0:0:0:
320,328,179430,2,0,P|336:272|336:212,1,101.999996887207,0|0,0:0|0:0,0:0:0:0:
296,40,179767,2,0,P|280:96|280:156,1,101.999996887207,8|0,0:0|0:0,0:0:0:0:
484,32,180104,6,0,P|488:136|488:188,1,152.999995330811,0|0,0:0|0:0,0:0:0:0:
488,184,180441,2,0,L|364:192,1,101.999996887207,8|0,0:0|0:0,0:0:0:0:
212,112,180778,1,0,0:0:0:0:
328,28,180947,1,0,0:0:0:0:
284,200,181116,2,0,P|272:264|272:320,1,101.999996887207,8|0,0:0|0:0,0:0:0:0:
360,264,181452,5,0,0:0:0:0:
192,212,181621,1,0,0:0:0:0:
336,128,181790,2,0,P|348:64|348:8,1,101.999996887207,8|0,0:0|0:0,0:0:0:0:
224,76,182127,2,0,L|16:88,1,203.999993774414,0|8,0:0|0:0,0:0:0:0:
16,244,182632,1,4,0:0:0:0:
16,244,182801,6,0,P|8:308|8:360,1,101.999996887207
192,248,183138,2,0,P|200:184|200:132,1,101.999996887207,8|0,0:0|0:0,0:0:0:0:
108,260,183475,2,0,P|132:312|264:280,1,203.999993774414,0|8,0:0|0:0,0:0:0:0:
380,316,183980,1,4,0:0:0:0:
380,316,184149,6,0,L|372:112,1,203.999993774414,0|8,0:0|0:0,0:0:0:0:
256,144,184655,1,0,0:0:0:0:
320,48,184823,2,0,P|388:40|440:56,1,101.999996887207,0|0,0:0|0:0,0:0:0:0:
204,72,185161,2,0,P|136:80|84:64,1,101.999996887207,8|0,0:0|0:0,0:0:0:0:
248,8,185498,5,4,0:0:0:0:
332,164,185666,1,0,0:0:0:0:
248,8,185835,1,8,0:0:0:0:
208,248,186003,1,0,0:0:0:0:
84,136,186172,2,0,L|208:120,1,101.999996887207,0|0,0:0|0:0,0:0:0:0:
264,304,186509,1,8,0:0:0:0:
264,304,186677,6,0,P|180:324|136:216,1,203.999993774414,4|0,0:0|0:0,0:0:0:0:
372,216,187183,1,8,0:0:0:0:
344,368,187351,1,0,0:0:0:0:
344,368,187436,1,0,0:0:0:0:
344,368,187520,5,0,0:0:0:0:
264,304,187688,1,0,0:0:0:0:
448,260,187857,1,8,0:0:0:0:
296,124,188025,1,0,0:0:0:0:
340,240,188194,5,4,0:0:0:0:
340,240,188363,1,0,0:0:0:0:
408,100,188531,1,8,0:0:0:0:
408,100,188700,1,0,0:0:0:0:
220,168,188868,1,0,0:0:0:0:
220,168,189037,1,0,0:0:0:0:
304,32,189205,1,8,0:0:0:0:
304,32,189374,1,0,0:0:0:0:
380,176,189542,5,0,0:0:0:0:
212,84,189711,1,0,0:0:0:0:
180,96,190048,2,0,L|164:148,1,50.9999984436036,0|0,0:0|0:0,0:0:0:0:
112,280,190216,5,0,0:0:0:0:
68,72,190385,1,0,0:0:0:0:
256,192,190891,12,0,193587,0:0:0:0:
231,278,214149,6,0,L|216:224,1,56.6666666666667,8|0,3:0|0:0,0:0:0:0:
299,42,214374,2,0,L|260:84,1,56.6666666666667,0|0,0:0|0:0,0:0:0:0:
57,102,214599,2,0,L|112:116,1,56.6666666666667,0|0,0:0|0:0,0:0:0:0:
196,144,214823,1,8,3:0:0:0:
196,144,214936,1,0,3:0:0:0:
196,144,215048,1,0,3:0:0:0:
195,143,215161,6,0,P|273:171|340:125,1,170
80,88,215666,1,0,0:0:0:0:
96,200,215835,2,0,B|132:236|132:236|112:372,1,170,8|0,0:0|0:0,0:0:0:0:
397,353,216509,2,0,B|380:236|380:236|416:200,1,170
329,124,217014,1,0,0:0:0:0:
329,124,217183,6,0,B|256:168|256:168|184:124,1,170,8|0,0:0|0:0,0:0:0:0:
40,244,217857,2,0,L|56:356,1,85,0|0,0:0|0:0,0:0:0:0:
160,360,218194,1,0,0:0:0:0:
412,72,218531,2,0,L|396:184,1,85,8|0,0:0|0:0,0:0:0:0:
292,188,218868,1,0,0:0:0:0:
84,64,219205,6,0,P|40:52|-12:52,2,85
388,340,219880,1,8,0:0:0:0:
290,308,220048,1,0,0:0:0:0:
290,206,220217,1,0,0:0:0:0:
388,174,220385,1,0,0:0:0:0:
447,257,220554,6,0,P|460:328|464:368,1,85,0|0,0:0|0:0,0:0:0:0:
360,256,220891,1,0,0:0:0:0:
488,168,221059,1,0,0:0:0:0:
352,80,221228,6,0,L|152:88,1,170,8|0,0:0|0:0,0:0:0:0:
240,4,221734,1,0,0:0:0:0:
245,169,221902,6,0,L|76:176,1,170
182,86,222408,1,0,0:0:0:0:
186,254,222576,6,0,L|356:248,1,170,8|0,0:0|0:0,0:0:0:0:
245,169,223082,1,0,0:0:0:0:
396,176,223250,6,0,P|440:236|376:320,1,170,8|0,0:0|0:0,0:0:0:0:
172,78,223756,2,0,P|202:10|306:24,1,170,8|8,0:0|0:0,0:0:0:0:
199,321,224262,2,0,P|125:329|85:231,1,170
320,136,224767,5,8,0:0:0:0:
212,240,224936,1,8,0:0:0:0:
136,156,225104,1,0,0:0:0:0:
136,156,225189,1,0,0:0:0:0:
136,156,225273,5,8,0:0:0:0:
300,268,225441,1,8,0:0:0:0:
320,136,225610,2,0,L|320:64,2,56.6666666666667,0|0|0,3:0|3:0|3:0,3:0:0:0:
296,188,225947,6,0,P|368:212|372:320,1,170
272,368,226453,1,0,0:0:0:0:
272,368,226621,2,0,L|96:356,1,170,8|0,0:0|0:0,0:0:0:0:
216,260,227127,1,0,0:0:0:0:
360,347,227295,6,0,P|373:264|372:179,1,170
296,124,227801,1,0,0:0:0:0:
216,260,227970,2,0,L|224:168,1,85,8|0,0:0|0:0,0:0:0:0:
88,60,228307,2,0,P|104:88|156:108,1,85
375,111,228644,6,0,P|324:49|244:62,2,170,0|0|8,0:0|0:0|0:0,0:0:0:0:
476,184,229486,1,0,0:0:0:0:
368,228,229655,2,0,P|364:292|364:344,1,85
248,344,229992,6,0,P|256:264|260:144,1,170
336,64,230498,1,0,0:0:0:0:
336,64,230666,2,0,P|352:116|352:156,1,85,8|0,0:0|0:0,0:0:0:0:
152,168,231003,2,0,P|154:125|168:85,1,85
352,146,231340,5,0,0:0:0:0:
352,146,231509,1,0,0:0:0:0:
352,146,231677,2,0,L|328:328,1,170,0|8,0:0|0:0,0:0:0:0:
12,104,232352,2,0,L|116:96,1,85
64,184,232689,5,0,0:0:0:0:
164,32,232857,1,0,0:0:0:0:
228,192,233026,2,0,P|236:264|236:284,1,85
16,268,233363,2,0,P|72:204|152:232,1,170,8|0,0:0|0:0,0:0:0:0:
152,336,233868,1,0,0:0:0:0:
152,336,234037,6,0,L|56:344,2,85,8|0|0,0:0|0:0|0:0,0:0:0:0:
280,340,234543,2,0,B|316:276|316:276|424:272,1,170,8|8,0:0|0:0,0:0:0:0:
115,138,235048,2,0,B|153:201|153:201|102:297,1,170,8|8,0:0|0:0,0:0:0:0:
372,97,235554,2,0,B|298:98|298:98|241:6,1,170,8|8,0:0|0:0,0:0:0:0:
472,160,236059,2,0,L|468:232,2,56.6666666666667,8|0|0,0:0|0:0|0:0,0:0:0:0:
376,196,236396,2,0,L|380:268,2,56.6666666666667,8|0|0,0:0|0:0|0:0,0:0:0:0:
272,168,236734,6,0,P|284:232|296:348,1,170
176,124,237239,1,0,0:0:0:0:
176,124,237408,2,0,P|164:188|152:304,1,170,8|0,0:0|0:0,0:0:0:0:
408,124,238082,6,0,P|361:97|322:82,1,85,0|0,0:0|0:0,0:0:0:0:
176,124,238419,2,0,P|223:97|262:82,1,85
300,252,238756,1,8,0:0:0:0:
264,168,238925,1,0,0:0:0:0:
264,168,239093,1,0,0:0:0:0:
396,212,239262,1,0,0:0:0:0:
208,242,239430,6,0,P|150:300|168:380,1,170
404,356,239936,1,0,0:0:0:0:
405,357,240104,2,0,B|380:336|380:336|244:324,1,170,8|0,0:0|0:0,0:0:0:0:
0,168,240778,2,0,B|25:146|25:146|161:134,1,170
212,204,241284,1,0,0:0:0:0:
276,56,241453,2,0,L|288:160,1,85,8|0,0:0|0:0,0:0:0:0:
389,240,241790,2,0,L|380:156,1,85
284,248,242127,6,0,P|240:288|136:220,1,170
284,248,242632,1,0,0:0:0:0:
52,168,242801,2,0,L|236:160,1,170,8|0,0:0|0:0,0:0:0:0:
180,80,243307,1,0,0:0:0:0:
336,132,243475,6,0,P|320:188|312:224,2,85
420,76,243981,1,0,0:0:0:0:
320,28,244149,2,0,L|228:24,1,85,8|0,0:0|0:0,0:0:0:0:
83,99,244486,2,0,L|168:96,1,85
256,188,244823,6,0,L|256:372,1,170,8|8,0:0|0:0,0:0:0:0:
120,332,245329,2,0,P|84:296|120:184,1,170,8|8,0:0|0:0,0:0:0:0:
402,190,245835,2,0,P|436:264|392:332,1,170,8|0,0:0|0:0,0:0:0:0:
184,268,246340,5,8,0:0:0:0:
324,172,246509,1,8,0:0:0:0:
264,304,246677,1,0,0:0:0:0:
216,136,246846,1,8,0:0:0:0:
328,248,247014,1,8,0:0:0:0:
360,64,247183,1,8,0:0:0:0:
252,224,247352,1,0,0:0:0:0:
216,48,247520,6,0,L|4:40,2,203.999993774414,0|0|0,0:0|0:0|0:0,0:0:0:0:
236,336,249543,2,0,L|448:344,2,203.999993774414,0|0|0,0:0|0:0|0:0,0:0:0:0:
208,132,251565,1,0,0:0:0:0:
331,180,252239,1,0,0:0:0:0:
228,263,252913,1,2,0:0:0:0:
256,192,253250,12,0,255610,0:0:0:0:
360,108,258138,5,0,0:0:0:0:
360,108,258222,1,0,0:0:0:0:
360,108,258307,1,0,0:0:0:0:
436,52,258475,1,0,0:0:0:0:
488,208,258644,2,0,L|368:200,1,85,8|0,0:0|0:0,0:0:0:0:
288,140,258981,1,0,0:0:0:0:
332,272,259149,1,8,0:0:0:0:
156,364,259318,1,8,0:0:0:0:
216,208,259486,1,8,0:0:0:0:
372,368,259655,6,0,L|252:356,1,101.999996887207,4|0,0:0|0:0,0:0:0:0:
144,264,259992,1,8,0:0:0:0:
288,176,260161,1,0,0:0:0:0:
288,176,260329,2,0,P|288:232|252:280,1,101.999996887207,0|0,0:0|0:0,0:0:0:0:
144,72,260666,1,8,0:0:0:0:
216,208,260835,1,0,0:0:0:0:
268,100,261003,5,0,0:0:0:0:
268,100,261172,1,0,0:0:0:0:
40,168,261340,2,0,L|152:160,1,101.999996887207,8|0,0:0|0:0,0:0:0:0:
344,92,261677,2,0,P|316:40|272:24,1,101.999996887207,0|0,0:0|0:0,0:0:0:0:
216,208,262014,2,0,L|216:320,1,101.999996887207,8|0,0:0|0:0,0:0:0:0:
452,260,262352,6,0,P|400:216|300:288,1,203.999993774414,0|8,0:0|0:0,0:0:0:0:
380,296,262857,1,0,0:0:0:0:
452,112,263026,2,0,L|340:100,1,101.999996887207,0|0,0:0|0:0,0:0:0:0:
164,132,263363,2,0,P|128:184|128:240,1,101.999996887207,8|0,0:0|0:0,0:0:0:0:
256,360,263700,6,0,P|208:316|152:300,1,101.999996887207,0|0,0:0|0:0,0:0:0:0:
76,316,264037,1,8,0:0:0:0:
264,244,264205,1,0,0:0:0:0:
272,204,264290,1,0,0:0:0:0:
280,164,264374,1,0,0:0:0:0:
188,212,264543,1,0,0:0:0:0:
368,184,264711,1,8,0:0:0:0:
260,40,264880,1,4,0:0:0:0:
260,40,265048,6,0,L|56:60,2,203.999993774414,0|8|0,0:0|0:0|0:0,0:0:0:0:
328,152,265891,1,0,0:0:0:0:
392,56,266059,1,8,0:0:0:0:
224,128,266228,6,0,P|204:184|224:336,1,203.999993774414,4|0,0:0|0:0,0:0:0:0:
396,328,266734,2,0,P|344:308|280:304,1,101.999996887207,8|0,0:0|0:0,0:0:0:0:
160,240,267071,1,0,0:0:0:0:
328,152,267239,1,0,0:0:0:0:
233,22,267408,2,0,L|224:124,1,101.999996887207,8|0,0:0|0:0,0:0:0:0:
84,188,267745,6,0,L|74:86,1,101.999996887207,4|0,0:0|0:0,0:0:0:0:
32,280,268082,1,8,0:0:0:0:
160,240,268250,1,0,0:0:0:0:
96,352,268419,1,0,0:0:0:0:
84,188,268587,1,0,0:0:0:0:
84,188,268672,1,0,0:0:0:0:
84,188,268756,5,8,0:0:0:0:
176,320,268925,1,0,0:0:0:0:
352,252,269093,2,0,L|228:248,1,101.999996887207,0|0,0:0|0:0,0:0:0:0:
360,156,269430,2,0,L|236:152,1,101.999996887207,8|0,0:0|0:0,0:0:0:0:
40,80,269767,1,0,0:0:0:0:
65,76,269851,1,0,0:0:0:0:
90,73,269935,1,0,0:0:0:0:
115,70,270019,1,0,0:0:0:0:
140,68,270104,2,0,L|204:60,1,50.9999984436036,8|0,0:0|0:0,0:0:0:0:
372,28,270273,2,0,L|308:20,1,50.9999984436036,0|0,0:0|0:0,0:0:0:0:
260,128,270441,6,0,P|248:196|244:240,1,101.999996887207,4|0,0:0|0:0,0:0:0:0:
200,348,270778,1,8,0:0:0:0:
332,240,270947,1,0,0:0:0:0:
128,152,271116,2,0,P|136:224|140:328,1,152.999995330811,0|0,0:0|0:0,0:0:0:0:
128,328,271453,6,0,L|8:340,1,101.999996887207,8|0,0:0|0:0,0:0:0:0:
248,256,271790,2,0,L|368:268,1,101.999996887207,0|0,0:0|0:0,0:0:0:0:
192,136,272127,2,0,P|112:160|36:152,1,152.999995330811,8|0,0:0|0:0,0:0:0:0:
24,132,272464,2,0,P|16:80|16:28,2,101.999996887207,0|0|8,0:0|0:0|0:0,0:0:0:0:
164,232,272970,1,0,0:0:0:0:
344,24,273138,2,0,P|356:104|360:200,1,152.999995330811,0|0,0:0|0:0,0:0:0:0:
360,200,273475,6,0,P|296:208|228:232,1,101.999996887207,8|0,0:0|0:0,0:0:0:0:
216,372,273812,1,0,0:0:0:0:
316,278,273981,1,0,0:0:0:0:
156,256,274149,1,8,0:0:0:0:
296,360,274318,1,0,0:0:0:0:
296,360,274402,1,0,0:0:0:0:
296,360,274486,5,0,0:0:0:0:
252,184,274655,1,0,0:0:0:0:
216,372,274823,1,8,0:0:0:0:
380,332,274992,1,0,0:0:0:0:
252,184,275161,2,0,P|204:185|124:180,2,101.999996887207,0|0|8,0:0|0:0|0:0,0:0:0:0:
88,116,275666,1,4,0:0:0:0:
88,116,275835,6,0,P|60:172|148:268,1,203.999993774414,0|8,0:0|0:0,0:0:0:0:
344,176,276340,1,0,0:0:0:0:
236,272,276509,2,0,P|244:340|244:384,1,101.999996887207,0|0,0:0|0:0,0:0:0:0:
156,332,276846,1,8,0:0:0:0:
392,364,277014,6,0,P|384:296|392:144,1,203.999993774414,4|0,0:0|0:0,0:0:0:0:
452,64,277520,1,8,0:0:0:0:
280,40,277689,1,0,0:0:0:0:
388,160,277857,5,0,0:0:0:0:
376,28,278026,1,0,0:0:0:0:
208,128,278194,1,8,0:0:0:0:
336,100,278363,1,0,0:0:0:0:
268,248,278531,6,0,P|188:244|120:244,1,101.999996887207,4|0,0:0|0:0,0:0:0:0:
12,112,278868,2,0,P|62:110|113:107,1,101.999996887207,8|0,0:0|0:0,0:0:0:0:
64,204,279205,1,0,0:0:0:0:
176,36,279374,1,0,0:0:0:0:
176,36,279458,1,0,0:0:0:0:
176,36,279543,1,8,0:0:0:0:
144,276,279711,6,0,B|184:264|220:288|220:288|260:276|260:276|296:304|356:268,1,203.999993774414,4|0,0:0|0:0,0:0:0:0:
456,308,280217,1,8,0:0:0:0:
304,204,280385,1,0,0:0:0:0:
460,132,280554,2,0,L|464:188,1,50.9999984436036,0|0,0:0|0:0,0:0:0:0:
348,134,280722,2,0,L|352:84,1,50.9999984436036,0|0,0:0|0:0,0:0:0:0:
452,28,280891,1,8,0:0:0:0:
452,28,280975,1,0,0:0:0:0:
452,28,281059,1,0,0:0:0:0:
452,28,281144,1,0,0:0:0:0:
452,28,281228,6,0,P|392:60|288:48,1,152.999995330811,4|0,0:0|0:0,0:0:0:0:
288,40,281565,2,0,P|228:32|164:36,1,101.999996887207,8|0,0:0|0:0,0:0:0:0:
100,168,281902,1,0,0:0:0:0:
100,168,282071,1,0,0:0:0:0:
68,64,282239,5,8,0:0:0:0:
32,236,282408,1,0,0:0:0:0:
200,168,282576,2,0,P|240:160|312:152,1,101.999996887207,0|0,0:0|0:0,0:0:0:0:
140,260,282913,2,0,P|124:324|36:340,1,152.999995330811,8|0,0:0|0:0,0:0:0:0:
16,320,283250,6,0,L|12:212,1,101.999996887207,0|0,0:0|0:0,0:0:0:0:
152,76,283587,1,8,0:0:0:0:
84,184,283756,1,0,0:0:0:0:
200,324,283925,2,0,P|220:268|216:212,1,101.999996887207,0|0,0:0|0:0,0:0:0:0:
72,88,284262,5,8,0:0:0:0:
140,260,284430,1,0,0:0:0:0:
300,144,284599,2,0,L|184:140,1,101.999996887207,0|0,0:0|0:0,0:0:0:0:
0,192,284936,2,0,L|116:188,1,101.999996887207,8|0,0:0|0:0,0:0:0:0:
228,28,285273,5,4,0:0:0:0:
228,28,285441,1,0,0:0:0:0:
316,240,285610,1,8,0:0:0:0:
316,240,285778,1,0,0:0:0:0:
388,96,285947,5,0,0:0:0:0:
352,320,286116,1,0,0:0:0:0:
248,160,286284,1,8,0:0:0:0:
256,356,286453,1,0,0:0:0:0:
164,184,286621,6,0,P|172:120|300:88,2,203.999993774414,4|8|0,0:0|0:0|0:0,0:0:0:0:
160,340,287464,2,0,P|96:356|36:352,1,101.999996887207,0|8,0:0|0:0,0:0:0:0:
232,264,287801,1,4,0:0:0:0:
232,264,287970,6,0,P|296:248|440:272,1,203.999993774414,0|8,0:0|0:0,0:0:0:0:
252,364,288475,1,0,0:0:0:0:
148,248,288644,2,0,L|140:136,1,101.999996887207,0|0,0:0|0:0,0:0:0:0:
336,164,288981,2,0,L|344:52,1,101.999996887207,8|0,0:0|0:0,0:0:0:0:
140,20,289318,5,4,0:0:0:0:
216,184,289486,1,0,0:0:0:0:
256,80,289655,1,8,0:0:0:0:
52,172,289823,1,0,0:0:0:0:
268,248,289992,1,0,0:0:0:0:
140,120,290161,1,0,0:0:0:0:
112,328,290329,5,8,0:0:0:0:
268,248,290498,2,0,B|172:296|172:212|48:256,1,203.999993774414,0|0,0:0|0:0,0:0:0:0:
304,332,291003,2,0,P|348:272|352:232,1,101.999996887207,8|0,0:0|0:0,0:0:0:0:
292,28,291340,1,0,0:0:0:0:
288,36,291425,1,0,0:0:0:0:
284,44,291509,1,0,0:0:0:0:
280,52,291593,1,0,0:0:0:0:
276,60,291677,1,8,0:0:0:0:
272,68,291762,1,0,0:0:0:0:
268,76,291846,1,0,0:0:0:0:
264,84,291930,1,0,0:0:0:0:
260,92,292014,6,0,L|144:104,1,101.999996887207,4|0,0:0|0:0,0:0:0:0:
40,56,292352,1,8,0:0:0:0:
40,56,292520,1,0,0:0:0:0:
140,216,292689,1,0,0:0:0:0:
140,216,292857,1,0,0:0:0:0:
48,268,293026,1,8,0:0:0:0:
158,102,293194,1,0,0:0:0:0:
200,320,293363,6,0,P|152:336|72:336,1,101.999996887207,2|0,0:0|0:0,0:0:0:0:
364,276,293700,2,0,P|401:309|441:378,1,101.999996887207,10|0,0:0|0:0,0:0:0:0:
240,124,294037,2,0,P|250:74|290:5,1,101.999996887207,2|0,0:0|0:0,0:0:0:0:
260,232,294374,1,10,0:0:0:0:
260,232,294458,1,0,0:0:0:0:
260,232,294543,1,0,0:0:0:0:
260,232,294627,1,0,0:0:0:0:
260,232,294711,6,0,L|144:244,1,85,4|0,0:0|0:0,0:0:0:0:
24,128,295048,2,0,P|112:144|172:72,1,170,8|0,0:0|0:0,0:0:0:0:
80,60,295554,1,0,0:0:0:0:
240,128,295722,2,0,P|248:76|248:24,1,85,8|0,0:0|0:0,0:0:0:0:
80,60,296059,6,0,P|68:136|80:260,1,170,0|8,0:0|0:0,0:0:0:0:
152,356,296565,1,0,0:0:0:0:
224,252,296734,1,0,0:0:0:0:
304,348,296902,2,0,L|420:352,2,85,0|8|0,0:0|0:0|0:0,0:0:0:0:
224,252,297408,6,0,L|400:240,1,170,0|8,0:0|0:0,0:0:0:0:
152,200,297913,1,0,0:0:0:0:
152,200,298082,2,0,P|136:248|144:296,1,85,0|0,0:0|0:0,0:0:0:0:
276,160,298419,2,0,P|278:117|263:78,1,85,8|0,0:0|0:0,0:0:0:0:
72,80,298756,6,0,P|84:128|200:128,1,170,0|8,0:0|0:0,0:0:0:0:
224,252,299262,1,0,0:0:0:0:
304,64,299430,2,0,L|219:53,1,85,0|0,0:0|0:0,0:0:0:0:
16,176,299767,2,0,L|100:165,1,85,8|0,0:0|0:0,0:0:0:0:
124,260,300104,5,0,0:0:0:0:
216,116,300273,1,0,0:0:0:0:
288,316,300441,2,0,P|300:264|316:216,1,85,8|0,0:0|0:0,0:0:0:0:
176,320,300778,2,0,P|120:344|52:256,1,170,0|8,0:0|0:0,0:0:0:0:
236,232,301284,1,4,0:0:0:0:
120,180,301453,6,0,B|112:128|112:128|124:100|124:100|120:20,1,127.5
116,32,301790,2,0,P|52:44|12:44,1,85,8|0,0:0|0:0,0:0:0:0:
232,72,302127,2,0,P|264:152|268:168,1,85,0|0,0:0|0:0,0:0:0:0:
140,272,302464,1,8,0:0:0:0:
263,150,302632,1,0,0:0:0:0:
256,356,302801,5,4,0:0:0:0:
256,356,302970,1,0,0:0:0:0:
184,196,303138,1,8,0:0:0:0:
184,196,303307,1,0,0:0:0:0:
336,292,303475,1,0,0:0:0:0:
160,296,303644,1,0,0:0:0:0:
372,204,303812,1,8,0:0:0:0:
116,144,303981,6,0,P|96:220|88:332,1,170,4|0,0:0|0:0,0:0:0:0:
256,356,304486,2,0,P|312:348|368:344,1,85,8|0,0:0|0:0,0:0:0:0:
476,236,304823,2,0,L|484:288,1,42.5,0|0,0:0|0:0,0:0:0:0:
372,204,304992,2,0,L|378:161,1,42.5,0|0,0:0|0:0,0:0:0:0:
480,76,305161,1,8,0:0:0:0:
480,76,305245,1,0,0:0:0:0:
480,76,305329,1,0,0:0:0:0:
480,76,305413,1,0,0:0:0:0:
480,76,305498,6,0,L|292:72,1,170,0|8,0:0|0:0,0:0:0:0:
64,248,306172,1,0,0:0:0:0:
120,316,306340,2,0,P|172:308|224:304,2,85,0|8|0,0:0|0:0|0:0,0:0:0:0:
36,360,306846,6,0,L|32:188,1,170,0|8,0:0|0:0,0:0:0:0:
392,216,307520,2,0,P|416:260|424:308,1,85,0|0,0:0|0:0,0:0:0:0:
264,352,307857,2,0,P|292:304|332:280,1,85,8|0,0:0|0:0,0:0:0:0:
348,120,308194,6,0,P|308:188|224:180,2,170,0|8|0,0:0|0:0|0:0,0:0:0:0:
300,36,309037,1,0,0:0:0:0:
300,36,309205,2,0,L|192:28,1,85,8|0,0:0|0:0,0:0:0:0:
52,140,309543,5,0,0:0:0:0:
116,52,309711,1,0,0:0:0:0:
152,192,309880,1,8,0:0:0:0:
152,192,310048,1,0,0:0:0:0:
284,132,310217,2,0,L|184:116,1,85,0|0,0:0|0:0,0:0:0:0:
80,240,310554,2,0,P|120:272|180:268,1,85,8|0,0:0|0:0,0:0:0:0:
256,276,310891,6,0,P|328:264|444:264,1,170,0|8,0:0|0:0,0:0:0:0:
152,32,311565,2,0,L|140:136,1,85,0|0,0:0|0:0,0:0:0:0:
44,64,311902,2,0,L|32:168,1,85,8|0,0:0|0:0,0:0:0:0:
148,252,312239,6,0,P|116:300|12:260,1,170,0|8,0:0|0:0,0:0:0:0:
400,44,312913,2,0,L|512:36,1,85,0|0,0:0|0:0,0:0:0:0:
428,116,313250,2,0,L|540:108,1,85,8|0,0:0|0:0,0:0:0:0:
308,88,313587,5,4,0:0:0:0:
308,88,313756,1,0,0:0:0:0:
240,260,313925,1,8,0:0:0:0:
240,260,314093,1,0,0:0:0:0:
404,192,314262,1,0,0:0:0:0:
404,192,314430,1,0,0:0:0:0:
156,116,314599,1,8,0:0:0:0:
156,116,314767,1,0,0:0:0:0:
128,316,314936,6,0,L|120:376,2,42.5,2|0|0,0:0|0:0|0:0,0:0:0:0:
228,88,315273,2,0,L|222:45,2,42.5,10|0|0,0:0|0:0|0:0,0:0:0:0:
240,260,315610,1,2,0:0:0:0:
280,276,315694,1,2,0:0:0:0:
324,280,315778,1,2,0:0:0:0:
364,272,315863,1,2,0:0:0:0:
392,240,315947,2,0,P|400:216|404:184,1,42.5,8|0,0:0|0:0,0:0:0:0:
320,84,316116,5,4,0:0:0:0:
256,192,316200,12,0,322689,0:0:0:0:
128,71,323026,5,0,0:0:0:0:
82,142,323363,1,0,0:0:0:0:
129,212,323700,1,0,0:0:0:0:
179,143,324037,1,0,0:0:0:0:
188,154,324374,5,0,0:0:0:0:
340,79,324711,1,0,0:0:0:0:
475,181,325048,1,0,0:0:0:0:
244,342,325722,5,0,0:0:0:0:
181,283,326059,1,0,0:0:0:0:
299,179,326396,1,0,0:0:0:0:
264,257,326734,1,0,0:0:0:0:
210,185,327071,5,0,0:0:0:0:
375,129,327408,1,0,0:0:0:0:
219,24,327745,2,0,P|224:56|228:76,1,42.5
312,32,328082,1,0,0:0:0:0:
90,127,328419,5,0,0:0:0:0:
101,257,328756,1,0,0:0:0:0:
42,197,329093,1,0,0:0:0:0:
52,326,329430,1,0,0:0:0:0:
57,340,329767,5,0,0:0:0:0:
195,298,330104,1,0,0:0:0:0:
340,331,330441,1,0,0:0:0:0:
464,68,331116,5,0,0:0:0:0:
388,104,331453,1,0,0:0:0:0:
304,84,331790,1,0,0:0:0:0:
268,8,332127,1,0,0:0:0:0:
36,96,332464,5,0,0:0:0:0:
112,60,332801,1,0,0:0:0:0:
196,80,333138,2,0,L|200:136,1,42.5
124,232,333475,6,0,P|116:176|116:132,1,85
328,32,334149,2,0,P|336:88|336:132,1,85
232,272,334823,1,0,0:0:0:0:
248,288,335161,1,0,0:0:0:0:
264,304,335498,1,0,0:0:0:0:
104,252,335835,1,0,0:0:0:0:
16,360,336172,1,0,0:0:0:0:
172,360,336509,6,0,P|180:312|184:264,1,85
0,152,337183,2,0,P|4:194|11:236,1,85
132,184,337857,2,0,L|148:4,1,170
147,14,338700,1,0,0:0:0:0:
147,14,338868,1,0,0:0:0:0:
456,208,339205,5,0,0:0:0:0:
264,200,339543,1,0,0:0:0:0:
240,296,339712,1,0,0:0:0:0:
328,268,339881,1,0,0:0:0:0:
368,20,340217,1,0,0:0:0:0:
376,48,340554,5,0,0:0:0:0:
224,28,340891,1,0,0:0:0:0:
120,128,341228,1,0,0:0:0:0:
280,168,341565,6,0,L|284:112,2,42.5
200,324,342239,2,0,L|192:232,2,85
356,336,343250,2,0,P|392:308|516:324,1,170
509,318,344093,1,0,0:0:0:0:
509,318,344262,1,0,0:0:0:0:
200,356,344599,6,0,L|212:262,1,85
124,295,345104,1,0,0:0:0:0:
124,295,345273,2,0,L|119:197,1,85
157,44,345947,1,0,0:0:0:0:
322,81,346284,2,0,P|371:76|417:72,2,85
259,138,347127,1,0,0:0:0:0:
318,197,347295,6,0,L|323:297,1,85
171,351,347970,2,0,L|175:266,1,85
182,95,348644,6,0,P|166:155|68:186,1,170
97,105,349486,1,0,0:0:0:0:
97,105,349655,1,0,0:0:0:0:
277,45,349992,6,0,B|321:40|321:40|369:49,1,85
470,167,350666,2,0,L|481:258,1,85
257,343,351340,1,0,0:0:0:0:
374,211,351677,1,0,0:0:0:0:
166,173,352014,1,0,0:0:0:0:
258,248,352352,1,0,0:0:0:0:
258,248,352689,5,0,0:0:0:0:
351,149,353026,1,0,0:0:0:0:
251,56,353363,1,0,0:0:0:0:
158,156,353700,1,0,0:0:0:0:
257,151,354037,5,0,0:0:0:0:
257,151,354374,1,0,0:0:0:0:
256,192,354711,12,0,356396,0:0:0:0:
