osu file format v14

[General]
AudioFilename: primastella.mp3
AudioLeadIn: 0
PreviewTime: 55192
Countdown: 0
SampleSet: Normal
StackLeniency: 0.7
Mode: 2
LetterboxInBreaks: 0
WidescreenStoryboard: 1

[Editor]
Bookmarks: 859,6192,23525,34192,44859,55525,66192,76859,87525,98192,108859,119525,130192,140859,151525,159525,170192,180859,195525,206192,216859,227525
DistanceSpacing: 0.8
BeatDivisor: 4
GridSize: 8
TimelineZoom: 2

[Metadata]
Title:Prima Stella
TitleUnicode:プリマステラ
Artist:Kano
ArtistUnicode:鹿乃
Creator:mingmichael
Version:Rain
Source:
Tags:nowhere samfree
BeatmapID:1022493
BeatmapSetID:478793

[Difficulty]
HPDrainRate:6
CircleSize:4
OverallDifficulty:9
ApproachRate:9
SliderMultiplier:1.6
SliderTickRate:1

[Events]
//Background and Video events
0,0,"prima stella.jpg",0,0
//Break Periods
2,125059,126925
//Storyboard Layer 0 (Background)
//Storyboard Layer 1 (Fail)
//Storyboard Layer 2 (Pass)
//Storyboard Layer 3 (Foreground)
//Storyboard Sound Samples

[TimingPoints]
-474,333.333333333333,4,2,0,60,1,0
859,-125,4,2,0,60,0,0
6192,-100,4,1,2,60,0,0
22797,-125,4,2,2,80,0,0
34192,-100,4,1,2,80,0,0
55525,-100,4,1,2,80,0,1
76859,-100,4,1,2,80,0,0
96859,-100,4,1,2,40,0,0
97192,-100,4,1,2,50,0,0
97525,-100,4,1,2,60,0,0
97859,-100,4,1,2,80,0,0
129025,-100,4,2,0,70,0,0
130192,-100,4,1,2,80,0,1
151525,-100,4,1,2,80,0,0
197484,-100,4,3,2,70,0,0
198109,-100,4,1,2,80,0,0
212859,-90.9090909090909,4,1,2,80,0,0
216859,-100,4,1,2,80,0,1
238192,-100,4,1,2,80,0,0

[Colours]
Combo1 : 83,83,255
Combo2 : 170,170,255
Combo3 : 184,148,252
Combo4 : 0,0,193

[HitObjects]
248,72,693,5,0,0:0:0:0:
296,72,776,1,0,0:0:0:0:
344,72,859,2,0,P|432:72|288:232,1,512
80,72,2859,1,0,0:0:0:0:
256,72,3526,6,0,P|168:72|312:232,1,512
440,72,5526,2,0,L|416:272,1,192
416,296,6109,1,0,0:0:0:0:
176,72,6193,1,0,0:0:0:0:
336,72,6859,5,0,0:0:0:0:
160,72,7526,5,0,0:0:0:0:
352,72,8193,5,0,0:0:0:0:
88,192,8859,5,0,0:0:0:0:
200,192,9193,1,0,0:0:0:0:
312,192,9526,1,0,0:0:0:0:
424,192,9859,1,0,0:0:0:0:
176,72,10193,6,0,L|160:176,1,80
336,72,10526,2,0,L|352:176,1,80
112,192,10859,2,0,L|128:280,1,80
384,192,11193,2,0,L|400:232,3,40
176,72,11526,6,0,P|128:72|184:112,1,160
376,72,12192,1,0,0:0:0:0:
208,72,12359,1,0,0:0:0:0:
120,72,12525,2,0,L|208:112,1,80
328,192,12859,6,0,L|104:192,1,160
376,72,13442,1,0,0:0:0:0:
432,72,13525,2,0,L|416:176,1,80
256,192,13859,2,0,L|344:224,1,80
80,72,14192,6,0,L|104:256,1,160
272,72,14859,1,0,0:0:0:0:
128,72,15025,1,0,0:0:0:0:
48,72,15192,2,0,L|88:144,1,80
312,192,15525,6,0,L|296:320,1,80
128,72,15859,2,0,L|208:96,1,80
360,72,16192,1,0,0:0:0:0:
256,192,16359,1,0,0:0:0:0:
152,72,16525,2,0,L|160:200,1,80
440,192,16859,6,0,L|424:296,1,80
352,192,17192,1,0,0:0:0:0:
192,80,17359,1,0,0:0:0:0:
272,80,17525,1,0,0:0:0:0:
352,80,17692,1,0,0:0:0:0:
184,192,17859,2,0,L|200:280,1,80
432,80,18192,6,0,L|256:80,1,160
128,80,18692,1,0,0:0:0:0:
304,192,18859,1,0,0:0:0:0:
200,192,19025,1,0,0:0:0:0:
96,192,19192,2,0,L|128:312,1,80
432,80,19525,6,0,L|416:240,1,160
256,80,20025,1,0,0:0:0:0:
128,192,20192,1,0,0:0:0:0:
288,192,20359,1,0,0:0:0:0:
368,192,20525,2,0,L|272:192,1,80
160,80,20859,6,0,L|176:168,1,80
424,80,21192,2,0,L|400:272,1,160
120,80,21692,2,0,L|72:120,2,40
176,192,21942,2,0,L|216:232,1,40
264,192,22109,1,0,0:0:0:0:
440,80,22192,6,0,P|440:208|272:256,1,320
216,192,23192,1,0,0:0:0:0:
72,80,23359,1,0,0:0:0:0:
80,192,23525,5,0,0:0:0:0:
296,80,23859,2,0,L|288:192,1,64
288,200,24192,1,0,0:0:0:0:
144,80,24359,2,0,L|152:232,1,128
296,80,24859,5,0,0:0:0:0:
144,80,25192,1,0,0:0:0:0:
384,80,25525,1,0,0:0:0:0:
256,80,25859,1,0,0:0:0:0:
168,80,26025,1,0,0:0:0:0:
80,80,26192,6,0,L|88:216,1,128
240,192,26692,2,0,L|232:304,1,64
384,80,27025,2,0,L|392:152,1,64
392,192,27359,1,0,0:0:0:0:
256,80,27525,5,0,0:0:0:0:
400,80,27859,1,0,0:0:0:0:
184,80,28192,1,0,0:0:0:0:
296,80,28359,1,0,0:0:0:0:
400,80,28525,2,0,L|392:192,1,64
224,192,28859,5,0,0:0:0:0:
104,192,29192,2,0,L|112:256,1,64
256,80,29525,2,0,L|248:176,1,64
248,192,29859,1,0,0:0:0:0:
240,272,30025,1,0,0:0:0:0:
408,80,30192,6,0,L|424:248,1,128
208,80,30859,2,0,L|192:248,1,128
192,272,31359,1,0,0:0:0:0:
336,80,31525,6,0,L|344:224,1,128
160,80,32025,2,0,L|152:192,1,64
336,80,32359,2,0,L|344:168,1,64
344,184,32692,1,0,0:0:0:0:
376,192,32859,6,0,P|368:304|176:304,1,320
152,256,33859,1,0,0:0:0:0:
168,136,34025,1,0,0:0:0:0:
440,192,34192,5,0,0:0:0:0:
256,80,34525,2,0,L|240:216,1,80
96,192,34859,2,0,L|112:328,1,80
304,192,35192,1,0,0:0:0:0:
408,192,35359,1,0,0:0:0:0:
224,192,35525,6,0,L|304:192,1,80
208,80,35859,1,0,0:0:0:0:
312,80,36025,1,0,0:0:0:0:
128,80,36192,1,0,0:0:0:0:
48,80,36359,2,0,L|119:115,1,80
408,80,36692,1,0,0:0:0:0:
472,80,36859,6,0,L|328:192,1,160
280,192,37359,1,0,0:0:0:0:
128,80,37525,2,0,L|200:152,1,80
352,192,37859,2,0,L|360:88,1,80
192,80,38192,5,0,0:0:0:0:
112,192,38359,1,0,0:0:0:0:
280,192,38525,1,0,0:0:0:0:
352,192,38692,2,0,L|344:312,1,80
192,80,39025,2,0,L|208:168,1,80
352,80,39359,1,0,0:0:0:0:
64,80,39525,6,0,L|216:240,1,160
328,80,40025,2,0,L|288:160,1,80
96,80,40359,2,0,L|120:192,1,80
192,80,40692,1,0,0:0:0:0:
352,80,40859,6,0,L|336:176,1,80
192,192,41192,2,0,L|232:288,1,80
400,80,41525,1,0,0:0:0:0:
256,80,41692,1,0,0:0:0:0:
328,80,41859,1,0,0:0:0:0:
80,80,42025,1,0,0:0:0:0:
48,80,42192,6,0,L|192:232,1,160
272,192,42692,1,0,0:0:0:0:
376,192,42859,2,0,L|304:240,1,80
64,80,43192,2,0,L|80:168,1,80
216,80,43525,5,0,0:0:0:0:
144,80,43692,1,0,0:0:0:0:
296,80,43859,2,0,L|280:168,1,80
176,80,44192,1,0,0:0:0:0:
424,192,44359,2,0,L|432:232,5,40
256,80,44859,5,0,0:0:0:0:
336,80,45025,1,0,0:0:0:0:
416,80,45192,1,0,0:0:0:0:
184,192,45359,2,0,L|264:192,2,80
440,80,45859,6,0,L|416:328,1,240
408,320,46442,1,0,0:0:0:0:
400,320,46525,1,0,0:0:0:0:
112,80,46859,5,0,0:0:0:0:
256,80,47025,1,0,0:0:0:0:
400,80,47192,1,0,0:0:0:0:
256,80,47525,5,0,0:0:0:0:
176,80,47691,1,0,0:0:0:0:
96,80,47858,1,0,0:0:0:0:
328,192,48025,2,0,L|248:192,2,80
72,80,48525,6,0,L|96:328,1,240
104,320,49108,1,0,0:0:0:0:
112,320,49191,1,0,0:0:0:0:
232,192,49359,1,0,0:0:0:0:
328,192,49525,1,0,0:0:0:0:
352,192,49692,1,0,0:0:0:0:
128,80,49859,2,0,L|136:184,1,80
368,80,50192,5,0,0:0:0:0:
88,192,50526,2,0,L|80:296,1,80
248,192,50859,2,0,L|256:320,1,80
416,80,51193,2,0,L|408:192,1,80
248,72,51525,6,0,L|312:136,1,80
136,192,51859,2,0,L|80:256,1,80
248,192,52192,2,0,L|184:256,1,80
352,80,52525,2,0,L|424:152,1,80
160,192,52859,6,0,L|168:272,1,80
352,192,53192,2,0,L|344:272,1,80
120,192,53525,6,0,L|128:272,1,80
392,192,53859,2,0,L|384:272,1,80
120,72,54192,1,0,0:0:0:0:
120,72,55525,6,0,P|136:152|224:144,1,160,4|8,0:0|0:0,0:0:0:0:
368,72,56025,2,0,L|376:136,2,40,0|0|2,0:0|0:0|0:0,0:0:0:0:
256,192,56359,1,2,0:0:0:0:
400,192,56525,2,0,L|384:272,1,80,8|0,0:0|0:0,0:0:0:0:
216,72,56859,6,0,L|320:72,1,80,2|0,0:0|0:0,0:0:0:0:
200,192,57192,1,8,0:0:0:0:
72,192,57359,1,0,0:0:0:0:
112,192,57442,1,0,0:0:0:0:
152,192,57525,1,2,0:0:0:0:
328,72,57692,2,0,L|312:184,1,80,2|8,0:0|0:0,0:0:0:0:
216,72,58025,1,0,0:0:0:0:
456,72,58192,6,0,L|464:272,1,160,2|8,0:0|0:0,0:0:0:0:
304,192,58692,2,0,L|320:232,2,40,0|0|2,0:0|0:0|0:0,0:0:0:0:
152,72,59025,1,2,0:0:0:0:
56,72,59192,2,0,L|72:184,1,80,8|0,0:0|0:0,0:0:0:0:
256,72,59525,6,0,L|352:72,1,80,2|0,0:0|0:0,0:0:0:0:
160,192,59859,1,8,0:0:0:0:
64,192,60025,1,0,0:0:0:0:
72,192,60109,1,0,0:0:0:0:
80,192,60192,1,2,0:0:0:0:
256,192,60359,1,2,0:0:0:0:
144,128,60525,1,8,0:0:0:0:
88,128,60692,1,2,0:0:0:0:
376,72,60859,6,0,L|392:264,1,160,4|8,0:0|0:0,0:0:0:0:
256,192,61359,1,0,0:0:0:0:
288,192,61442,1,0,0:0:0:0:
320,192,61525,1,2,0:0:0:0:
200,72,61692,1,2,0:0:0:0:
376,72,61859,2,0,L|368:176,1,80,8|0,0:0|0:0,0:0:0:0:
176,192,62192,6,0,L|96:248,1,80,2|0,0:0|0:0,0:0:0:0:
280,72,62525,2,0,L|360:128,1,80,8|0,0:0|0:0,0:0:0:0:
176,192,62859,1,2,0:0:0:0:
320,192,63025,1,2,0:0:0:0:
400,192,63192,2,0,L|312:192,1,80,8|2,0:0|0:0,0:0:0:0:
72,72,63525,6,0,L|128:240,1,160,2|8,0:0|0:0,0:0:0:0:
288,72,64025,2,0,L|302:109,2,40,0|0|2,0:0|0:0|0:0,0:0:0:0:
176,72,64359,1,2,0:0:0:0:
312,72,64525,2,0,L|408:72,1,80,8|0,0:0|0:0,0:0:0:0:
160,192,64859,6,0,L|166:112,1,80,8|0,0:0|0:0,0:0:0:0:
352,192,65192,1,8,0:0:0:0:
176,72,65359,6,0,L|216:88,1,40
392,80,65525,2,0,L|440:104,1,40,8|0,0:0|0:0,0:0:0:0:
432,192,65692,1,0,0:0:0:0:
384,192,65775,1,0,0:0:0:0:
192,192,65859,2,0,L|168:144,2,40,8|8|8,0:0|0:0|0:0,0:0:0:0:
240,72,66109,1,0,0:0:0:0:
408,80,66192,6,0,L|384:272,1,160,4|8,0:0|0:0,0:0:0:0:
240,72,66692,2,0,L|256:112,1,40
216,192,66859,1,2,0:0:0:0:
96,72,67025,1,2,0:0:0:0:
272,72,67192,2,0,L|224:160,1,80,8|0,0:0|0:0,0:0:0:0:
88,192,67525,6,0,L|152:280,1,80,2|0,0:0|0:0,0:0:0:0:
304,192,67859,1,8,0:0:0:0:
208,192,68025,1,0,0:0:0:0:
272,72,68109,1,0,0:0:0:0:
336,72,68192,1,2,0:0:0:0:
456,72,68359,2,0,L|440:176,1,80,2|8,0:0|0:0,0:0:0:0:
304,72,68692,1,0,0:0:0:0:
72,72,68859,6,0,L|224:128,1,160,2|8,0:0|0:0,0:0:0:0:
368,72,69359,1,0,0:0:0:0:
320,72,69442,1,0,0:0:0:0:
272,72,69525,1,2,0:0:0:0:
400,192,69692,1,2,0:0:0:0:
232,192,69859,2,0,L|304:272,1,80,8|0,0:0|0:0,0:0:0:0:
112,72,70192,6,0,L|48:144,1,80,2|0,0:0|0:0,0:0:0:0:
224,72,70525,1,8,0:0:0:0:
88,72,70692,1,0,0:0:0:0:
100,72,70775,1,0,0:0:0:0:
112,72,70859,1,2,0:0:0:0:
232,192,71025,1,2,0:0:0:0:
400,192,71192,2,0,L|320:232,1,80,8|2,0:0|0:0,0:0:0:0:
72,72,71525,6,0,L|88:264,1,160,4|8,0:0|0:0,0:0:0:0:
256,72,72025,1,0,0:0:0:0:
208,72,72109,1,0,0:0:0:0:
160,72,72192,1,2,0:0:0:0:
280,192,72359,1,2,0:0:0:0:
392,72,72525,2,0,L|304:112,1,80,8|0,0:0|0:0,0:0:0:0:
136,72,72859,6,0,L|152:176,1,80,2|0,0:0|0:0,0:0:0:0:
288,72,73192,1,8,0:0:0:0:
120,192,73359,1,0,0:0:0:0:
168,192,73442,1,0,0:0:0:0:
216,192,73525,1,2,0:0:0:0:
312,192,73692,1,2,0:0:0:0:
168,192,73859,2,0,L|184:296,1,80,8|2,0:0|0:0,0:0:0:0:
184,192,74109,1,0,0:0:0:0:
376,72,74192,6,0,P|432:96|448:200,1,160,2|8,0:0|0:0,0:0:0:0:
272,192,74692,2,0,L|264:248,2,40,0|0|2,0:0|0:0|0:0,0:0:0:0:
160,72,75025,1,2,0:0:0:0:
344,72,75192,2,0,L|386:139,1,80,8|0,0:0|0:0,0:0:0:0:
128,192,75525,5,8,0:0:0:0:
256,72,75692,1,0,0:0:0:0:
384,192,75859,2,0,L|376:296,1,80,8|0,0:0|0:0,0:0:0:0:
128,192,76192,6,0,L|104:144,3,40,8|8|8|0,0:0|0:0|0:0|0:0,0:0:0:0:
200,72,76525,2,0,L|224:120,3,40,8|8|8|0,0:0|0:0|0:0|0:0,0:0:0:0:
448,72,76859,5,4,0:0:0:0:
272,192,77192,1,2,0:0:0:0:
312,192,77275,2,0,L|328:240,2,40,0|8|8,0:0|0:0|0:0,0:0:0:0:
248,72,77525,2,0,L|264:160,1,80,2|0,0:0|0:0,0:0:0:0:
400,192,77859,1,8,0:0:0:0:
312,192,78025,1,0,0:0:0:0:
80,192,78192,5,2,0:0:0:0:
320,72,78525,1,2,0:0:0:0:
200,192,78692,1,8,0:0:0:0:
256,192,78775,1,8,0:0:0:0:
312,192,78859,2,0,L|288:304,1,80,2|0,0:0|0:0,0:0:0:0:
152,72,79192,2,0,L|136:128,2,40,8|8|8,0:0|0:0|0:0,0:0:0:0:
192,72,79442,1,0,0:0:0:0:
384,72,79525,5,2,0:0:0:0:
200,192,79859,2,0,L|176:256,3,40,2|0|0|0,0:0|0:0|0:0|0:0,0:0:0:0:
256,72,80192,2,0,L|344:72,1,80
200,192,80525,1,0,0:0:0:0:
312,192,80692,1,0,0:0:0:0:
384,192,80859,5,0,0:0:0:0:
136,72,81025,2,0,L|128:112,2,40
384,72,81359,6,0,L|408:112,2,40
288,192,81609,2,0,L|264:152,2,40
384,192,81859,2,0,L|392:248,3,40
200,192,82192,5,4,0:0:0:0:
384,72,83525,5,10,0:0:0:0:
128,72,83692,1,10,0:0:0:0:
128,72,84192,5,10,0:0:0:0:
384,72,84359,1,10,0:0:0:0:
216,72,84525,2,0,L|152:72,1,40
176,72,84692,2,0,L|216:72,1,40
360,72,84859,6,0,L|328:152,1,80,2|0,0:0|0:0,0:0:0:0:
152,72,85192,2,0,L|184:152,1,80,2|0,0:0|0:0,0:0:0:0:
384,72,85525,2,0,L|392:160,1,80
128,72,85859,2,0,L|120:160,1,80
376,192,86192,5,0,0:0:0:0:
256,192,86359,1,0,0:0:0:0:
136,192,86525,1,0,0:0:0:0:
360,72,86692,1,0,0:0:0:0:
152,72,86859,6,0,L|131:106,3,40
256,192,87192,2,0,L|288:232,3,40
456,72,87525,6,0,L|448:264,1,160,4|8,0:0|0:0,0:0:0:0:
152,72,88192,1,2,0:0:0:0:
312,72,88359,1,2,0:0:0:0:
392,72,88525,2,0,L|384:208,1,80,8|0,0:0|0:0,0:0:0:0:
200,192,88859,6,0,P|128:192|88:112,1,160,2|8,0:0|0:0,0:0:0:0:
328,72,89442,1,0,0:0:0:0:
392,72,89525,2,0,L|400:160,1,80,2|2,0:0|0:0,0:0:0:0:
256,192,89859,2,0,L|336:192,1,80,8|2,0:0|0:0,0:0:0:0:
112,72,90192,6,0,L|240:208,1,160,2|8,0:0|0:0,0:0:0:0:
392,72,90859,1,2,0:0:0:0:
240,72,91025,1,2,0:0:0:0:
120,192,91192,2,0,L|144:288,1,80,8|0,0:0|0:0,0:0:0:0:
376,192,91525,6,0,L|360:96,1,80,2|0,0:0|0:0,0:0:0:0:
136,72,91859,2,0,L|232:72,1,80,4|0,0:0|0:0,0:0:0:0:
384,72,92192,2,0,L|352:120,3,40
256,192,92525,2,0,L|264:136,3,40
424,192,92859,6,0,L|328:192,2,80,2|2|8,0:0|0:0|0:0,0:0:0:0:
128,72,93359,2,0,P|88:104|80:208,1,160,4|2,0:0|0:0,0:0:0:0:
260,72,93859,2,0,L|196:136,1,80,8|2,0:0|0:0,0:0:0:0:
384,72,94192,6,0,P|424:104|432:208,1,160,2|8,0:0|0:0,0:0:0:0:
256,192,94692,1,0,0:0:0:0:
120,192,94859,2,0,L|200:248,1,80,2|2,0:0|0:0,0:0:0:0:
352,72,95192,2,0,L|336:160,1,80,8|0,0:0|0:0,0:0:0:0:
336,192,95442,1,0,0:0:0:0:
160,72,95525,6,0,L|176:152,1,80,2|0,0:0|0:0,0:0:0:0:
440,72,95859,6,0,L|424:264,1,160,4|0,0:0|0:0,0:0:0:0:
424,192,96275,1,0,0:0:0:0:
416,192,96359,1,0,0:0:0:0:
392,192,96442,1,0,0:0:0:0:
152,192,96525,6,0,L|128:264,1,40
160,72,96692,2,0,L|184:136,1,40,0|0,0:0|0:0,0:0:0:0:
376,72,96859,6,0,L|408:112,3,40
296,192,97192,6,0,L|256:232,3,40
376,192,97525,6,0,L|408:160,3,40
232,72,97859,6,0,L|320:80,1,80
80,72,98192,5,0,0:0:0:0:
256,72,98525,2,0,L|176:104,1,80
368,72,99025,1,0,0:0:0:0:
464,72,99192,2,0,L|456:176,1,80
288,192,99525,5,0,0:0:0:0:
328,192,99692,1,0,0:0:0:0:
376,192,99859,1,0,0:0:0:0:
184,72,100025,2,0,L|200:240,1,160
376,72,100525,1,0,0:0:0:0:
368,72,100692,1,0,0:0:0:0:
360,72,100859,5,0,0:0:0:0:
112,192,101192,2,0,L|200:200,1,80
440,72,101692,1,0,0:0:0:0:
464,72,101859,2,0,L|448:160,1,80
264,72,102192,6,0,L|288:240,1,160
112,192,102692,2,0,L|104:296,1,80
104,192,103025,1,0,0:0:0:0:
280,72,103192,2,0,L|288:152,1,80
288,168,103525,5,0,0:0:0:0:
56,72,103859,2,0,L|152:72,1,80
320,192,104359,1,0,0:0:0:0:
256,192,104525,1,0,0:0:0:0:
192,192,104692,1,0,0:0:0:0:
392,72,104859,6,0,L|384:240,1,160
192,192,105359,2,0,L|200:360,1,160
392,72,105859,1,0,0:0:0:0:
352,72,106025,1,0,0:0:0:0:
312,72,106192,5,0,0:0:0:0:
64,192,106525,2,0,L|160:264,1,80
392,192,107025,2,0,L|384:296,1,80
256,72,107359,1,0,0:0:0:0:
88,192,107525,5,0,0:0:0:0:
200,192,107692,1,0,0:0:0:0:
344,192,107859,1,0,0:0:0:0:
400,72,108025,2,0,L|384:248,1,160
376,192,108442,1,0,0:0:0:0:
368,192,108525,1,0,0:0:0:0:
216,72,108692,1,0,0:0:0:0:
448,72,108859,6,0,L|456:232,1,160
288,192,109359,2,0,L|360:232,1,80
184,72,109692,1,0,0:0:0:0:
88,72,109859,2,0,L|96:168,1,80
256,72,110192,5,0,0:0:0:0:
160,72,110359,1,0,0:0:0:0:
80,72,110525,1,0,0:0:0:0:
256,192,110692,1,0,0:0:0:0:
352,192,110859,2,0,L|344:288,1,80
184,72,111192,2,0,L|264:72,1,80
304,72,111442,1,0,0:0:0:0:
160,72,111525,6,0,P|176:176|232:192,1,160
392,72,112025,1,0,0:0:0:0:
264,72,112192,2,0,L|280:176,1,80
432,192,112525,2,0,L|360:272,1,80
128,192,112859,5,0,0:0:0:0:
264,72,113025,1,0,0:0:0:0:
352,72,113192,2,0,L|344:176,1,80
192,192,113525,2,0,L|272:200,1,80
112,72,113859,2,0,L|104:160,1,80
400,72,114192,6,0,L|408:248,1,160
224,72,114692,1,0,0:0:0:0:
128,192,114859,1,0,0:0:0:0:
272,192,115025,2,0,L|192:192,1,80
368,72,115359,1,0,0:0:0:0:
448,72,115525,6,0,L|432:160,1,80
272,192,115859,2,0,L|344:240,1,80
144,72,116192,2,0,L|56:112,1,80
312,72,116525,2,0,L|304:168,1,80
305,151,116775,1,0,0:0:0:0:
144,192,116859,6,0,P|160:296|216:312,1,160
352,192,117359,1,0,0:0:0:0:
224,192,117525,1,0,0:0:0:0:
144,192,117692,2,0,L|152:112,1,80
344,72,118025,1,0,0:0:0:0:
424,72,118192,6,0,L|432:176,1,80
256,192,118525,2,0,L|248:104,1,80
400,192,118859,1,0,0:0:0:0:
144,192,119025,6,0,L|120:248,5,40
304,192,119525,5,0,0:0:0:0:
208,192,119692,2,0,L|224:296,1,80
448,72,120025,2,0,L|432:240,1,160
144,72,120525,1,0,0:0:0:0:
304,72,121026,5,0,0:0:0:0:
256,72,121109,1,0,0:0:0:0:
208,72,121192,1,0,0:0:0:0:
320,192,121359,1,0,0:0:0:0:
128,192,121525,1,0,0:0:0:0:
256,192,121692,1,0,0:0:0:0:
384,192,121859,1,0,0:0:0:0:
208,192,122192,5,0,0:0:0:0:
304,192,122359,2,0,L|288:296,1,80
64,72,122692,2,0,L|80:240,1,160
368,72,123192,1,0,0:0:0:0:
192,72,123637,5,0,0:0:0:0:
256,72,123748,1,0,0:0:0:0:
320,72,123859,1,0,0:0:0:0:
160,192,124025,1,0,0:0:0:0:
256,192,124192,1,0,0:0:0:0:
352,192,124359,1,0,0:0:0:0:
112,72,124525,2,0,L|120:168,1,80
400,72,124859,1,0,0:0:0:0:
216,192,127525,5,2,0:0:0:0:
296,192,127692,1,0,0:0:0:0:
192,192,127859,1,2,0:0:0:0:
320,192,128026,1,0,0:0:0:0:
128,192,128192,6,0,L|144:296,1,80,2|0,0:0|0:0,0:0:0:0:
384,192,128525,2,0,L|368:296,1,80,2|0,0:0|0:0,0:0:0:0:
128,192,128859,1,2,0:0:0:0:
336,72,129192,5,2,0:0:0:0:
176,72,129525,5,2,0:0:0:0:
296,72,129859,5,2,0:0:0:0:
64,72,130192,6,0,L|224:104,1,160,4|8,0:0|0:0,0:0:0:0:
424,192,130692,2,0,L|432:248,2,40,0|0|2,0:0|0:0|0:0,0:0:0:0:
320,72,131025,1,2,0:0:0:0:
464,72,131192,2,0,L|376:112,1,80,8|0,0:0|0:0,0:0:0:0:
192,192,131525,6,0,L|296:192,1,80,2|0,0:0|0:0,0:0:0:0:
160,192,131859,1,8,0:0:0:0:
336,72,132025,1,0,0:0:0:0:
376,72,132109,1,0,0:0:0:0:
424,72,132192,2,0,L|328:72,1,80,2|2,0:0|0:0,0:0:0:0:
160,192,132525,2,0,L|168:104,1,80,8|2,0:0|0:0,0:0:0:0:
424,72,132859,6,0,L|400:248,1,160,2|8,0:0|0:0,0:0:0:0:
256,192,133359,1,0,0:0:0:0:
288,192,133442,1,0,0:0:0:0:
320,192,133525,1,2,0:0:0:0:
152,72,133692,1,2,0:0:0:0:
80,72,133859,2,0,L|88:168,1,80,8|0,0:0|0:0,0:0:0:0:
256,72,134192,6,0,L|336:72,1,80,2|0,0:0|0:0,0:0:0:0:
208,72,134525,1,8,0:0:0:0:
64,192,134692,1,0,0:0:0:0:
112,192,134775,1,0,0:0:0:0:
152,192,134859,1,2,0:0:0:0:
288,192,135025,2,0,L|224:256,1,80,2|8,0:0|0:0,0:0:0:0:
376,72,135359,1,2,0:0:0:0:
152,72,135525,6,0,P|104:88|64:200,1,160,4|8,0:0|0:0,0:0:0:0:
232,72,136025,1,0,0:0:0:0:
280,72,136109,1,0,0:0:0:0:
336,72,136192,2,0,L|320:160,1,80,2|2,0:0|0:0,0:0:0:0:
152,192,136525,2,0,L|168:80,1,80,8|0,0:0|0:0,0:0:0:0:
312,192,136859,6,0,L|408:192,1,80,2|0,0:0|0:0,0:0:0:0:
200,72,137192,2,0,L|216:168,1,80,8|0,0:0|0:0,0:0:0:0:
336,72,137525,1,2,0:0:0:0:
168,72,137692,1,2,0:0:0:0:
88,72,137859,2,0,L|104:184,1,80,8|2,0:0|0:0,0:0:0:0:
416,72,138192,6,0,L|400:264,1,160,2|8,0:0|0:0,0:0:0:0:
256,72,138692,2,0,L|248:112,1,40
272,192,138859,1,2,0:0:0:0:
152,192,139025,1,2,0:0:0:0:
320,72,139192,2,0,L|304:176,1,80,8|0,0:0|0:0,0:0:0:0:
72,192,139525,6,0,L|64:96,1,80,8|0,0:0|0:0,0:0:0:0:
440,192,139859,2,0,L|448:96,1,80,8|0,0:0|0:0,0:0:0:0:
440,72,140109,1,0,0:0:0:0:
368,192,140192,6,0,L|344:152,3,40
168,72,140525,2,0,L|176:120,3,40
376,72,140859,6,0,P|400:80|368:176,1,160,4|8,0:0|0:0,0:0:0:0:
192,192,141359,2,0,L|176:232,1,40
184,192,141525,1,2,0:0:0:0:
376,72,141692,1,2,0:0:0:0:
472,72,141859,2,0,L|392:104,1,80,8|0,0:0|0:0,0:0:0:0:
200,192,142192,6,0,L|240:104,1,80,2|0,0:0|0:0,0:0:0:0:
400,192,142525,1,8,0:0:0:0:
256,192,142692,1,0,0:0:0:0:
200,192,142775,1,0,0:0:0:0:
144,192,142859,2,0,L|216:232,1,80,2|2,0:0|0:0,0:0:0:0:
408,72,143192,2,0,L|392:160,1,80,8|2,0:0|0:0,0:0:0:0:
144,72,143525,6,0,L|304:112,1,160,2|8,0:0|0:0,0:0:0:0:
144,192,144025,2,0,L|112:224,2,40,0|0|2,0:0|0:0|0:0,0:0:0:0:
336,192,144359,1,2,0:0:0:0:
424,192,144525,2,0,L|416:96,1,80,8|0,0:0|0:0,0:0:0:0:
256,192,144859,6,0,L|344:192,1,80,2|0,0:0|0:0,0:0:0:0:
144,72,145192,1,8,0:0:0:0:
256,72,145359,1,0,0:0:0:0:
232,72,145442,1,0,0:0:0:0:
208,72,145525,1,2,0:0:0:0:
352,72,145692,1,2,0:0:0:0:
160,72,145859,2,0,L|176:168,1,80,8|2,0:0|0:0,0:0:0:0:
432,72,146192,6,0,L|400:256,1,160,4|8,0:0|0:0,0:0:0:0:
256,192,146692,2,0,L|272:256,1,40
232,192,146859,2,0,L|160:144,1,80,2|2,0:0|0:0,0:0:0:0:
352,72,147192,2,0,L|360:176,1,80,8|0,0:0|0:0,0:0:0:0:
176,72,147525,6,0,L|88:88,1,80,2|0,0:0|0:0,0:0:0:0:
256,72,147859,1,8,0:0:0:0:
368,72,148025,1,0,0:0:0:0:
312,72,148109,1,0,0:0:0:0:
256,72,148192,2,0,L|264:160,1,80,2|2,0:0|0:0,0:0:0:0:
456,192,148525,2,0,L|448:304,1,80,8|2,0:0|0:0,0:0:0:0:
192,192,148859,6,0,P|96:208|56:256,2,160,2|8|2,0:0|0:0|0:0,0:0:0:0:
368,72,149692,2,0,L|376:160,1,80,2|8,0:0|0:0,0:0:0:0:
232,72,150025,1,0,0:0:0:0:
368,192,150192,6,0,L|440:232,1,80,8|0,0:0|0:0,0:0:0:0:
232,72,150525,2,0,L|304:112,1,80,8|0,0:0|0:0,0:0:0:0:
96,192,150859,6,8,L|136:248,3,40,8|8|8|0,0:0|0:0|0:0|0:0,0:0:0:0:
176,192,151192,2,0,L|216:248,3,40,8|8|8|0,0:0|0:0|0:0|0:0,0:0:0:0:
368,72,151525,5,4,0:0:0:0:
152,192,151859,2,0,L|164:154,3,40,2|0|8|8,0:0|0:0|0:0|0:0,0:0:0:0:
232,72,152192,1,2,0:0:0:0:
392,192,152359,1,0,0:0:0:0:
256,192,152525,2,0,L|344:200,1,80,8|0,0:0|0:0,0:0:0:0:
104,72,152859,5,2,0:0:0:0:
324,192,153192,1,2,0:0:0:0:
208,72,153359,1,8,0:0:0:0:
256,72,153442,1,8,0:0:0:0:
304,72,153525,2,0,L|208:72,1,80,2|0,0:0|0:0,0:0:0:0:
328,72,153859,1,8,0:0:0:0:
176,192,154025,2,0,L|208:248,1,40,0|8,0:0|0:0,0:0:0:0:
392,192,154192,5,2,0:0:0:0:
208,72,154525,1,2,0:0:0:0:
240,72,154609,1,0,0:0:0:0:
272,72,154692,1,8,0:0:0:0:
304,72,154775,1,8,0:0:0:0:
336,72,154859,2,0,L|328:160,1,80,2|0,0:0|0:0,0:0:0:0:
200,192,155192,2,0,L|304:192,1,80,8|0,0:0|0:0,0:0:0:0:
176,192,155525,5,2,0:0:0:0:
336,304,155692,1,8,0:0:0:0:
296,304,155775,1,8,0:0:0:0:
256,304,155859,1,8,0:0:0:0:
424,192,156025,6,8,L|384:208,3,40,8|8|8|0,0:0|0:0|0:0|0:0,0:0:0:0:
320,192,156359,2,8,L|280:208,3,40
216,192,156692,2,0,L|232:248,1,40,8|0,0:0|0:0,0:0:0:0:
424,72,156859,1,4,0:0:0:0:
112,192,158192,5,8,0:0:0:0:
400,192,158359,1,8,0:0:0:0:
400,192,158859,5,8,0:0:0:0:
112,192,159026,1,8,0:0:0:0:
208,80,159192,2,0,L|240:112,3,40,2|2|2|0,0:0|0:0|0:0|0:0,0:0:0:0:
392,72,159525,6,0,L|376:248,1,160,4|0,0:0|0:0,0:0:0:0:
120,72,160025,2,0,L|136:248,1,160,4|0,0:0|0:0,0:0:0:0:
360,72,160525,1,4,0:0:0:0:
184,192,160692,1,0,0:0:0:0:
256,192,160775,1,0,0:0:0:0:
328,192,160859,1,0,0:0:0:0:
104,72,161025,6,0,L|96:232,1,160,4|0,0:0|0:0,0:0:0:0:
360,72,161525,2,0,L|368:184,1,80,4|0,0:0|0:0,0:0:0:0:
128,192,161859,2,0,L|120:304,1,80
360,72,162192,6,0,L|264:72,2,80,4|0|0,0:0|0:0|0:0,0:0:0:0:
80,192,162692,2,0,L|104:32,1,160,4|0,0:0|0:0,0:0:0:0:
360,72,163192,1,4,0:0:0:0:
448,72,163359,2,0,L|432:176,1,80
184,192,163692,6,0,L|200:104,1,80,4|0,0:0|0:0,0:0:0:0:
360,72,164025,1,0,0:0:0:0:
280,72,164192,1,4,0:0:0:0:
48,72,164359,1,8,0:0:0:0:
48,72,164442,1,8,0:0:0:0:
56,72,164525,1,8,0:0:0:0:
72,72,164609,1,0,0:0:0:0:
120,72,164692,1,0,0:0:0:0:
200,72,164775,1,0,0:0:0:0:
384,192,164859,6,0,P|432:208|464:304,1,160,4|0,0:0|0:0,0:0:0:0:
128,192,165359,2,0,P|80:176|48:80,1,160,4|0,0:0|0:0,0:0:0:0:
328,192,165859,1,4,0:0:0:0:
184,192,166025,2,0,L|120:192,2,40
448,72,166359,6,0,L|424:268,1,160,4|0,0:0|0:0,0:0:0:0:
160,72,166859,2,0,L|248:96,1,80,4|0,0:0|0:0,0:0:0:0:
472,192,167192,2,0,L|384:216,1,80
96,192,167525,6,0,L|80:296,1,80,2|0,0:0|0:0,0:0:0:0:
248,72,167859,2,0,L|232:184,1,80,2|0,0:0|0:0,0:0:0:0:
416,192,168192,2,0,L|400:304,1,80,2|0,0:0|0:0,0:0:0:0:
232,192,168525,1,2,0:0:0:0:
160,192,168692,1,0,0:0:0:0:
392,72,168859,6,0,L|464:136,1,80,2|2,0:0|0:0,0:0:0:0:
120,72,169192,2,0,L|48:136,1,80,2|2,0:0|0:0,0:0:0:0:
288,192,169525,2,0,L|320:152,3,40,2|0|0|0,0:0|0:0|0:0|0:0,0:0:0:0:
88,72,169859,2,0,L|32:72,1,40,8|8,0:0|0:0,0:0:0:0:
48,72,170025,2,0,L|104:72,1,40,8|0,0:0|0:0,0:0:0:0:
392,72,170192,6,0,P|432:112|424:216,1,160,4|8,0:0|0:0,0:0:0:0:
248,72,170692,1,0,0:0:0:0:
192,72,170775,1,0,0:0:0:0:
136,72,170859,2,0,L|168:176,1,80,2|2,0:0|0:0,0:0:0:0:
328,72,171192,2,0,L|232:72,1,80,8|0,0:0|0:0,0:0:0:0:
432,192,171525,5,2,0:0:0:0:
264,192,171692,1,0,0:0:0:0:
352,192,171859,1,8,0:0:0:0:
184,72,172025,1,0,0:0:0:0:
232,72,172109,1,0,0:0:0:0:
280,72,172192,1,2,0:0:0:0:
184,192,172359,1,2,0:0:0:0:
360,72,172525,2,0,L|320:168,1,80,8|2,0:0|0:0,0:0:0:0:
64,192,172859,6,0,L|216:288,1,160,2|8,0:0|0:0,0:0:0:0:
352,192,173359,1,0,0:0:0:0:
304,192,173442,1,0,0:0:0:0:
256,192,173525,1,2,0:0:0:0:
112,72,173692,1,2,0:0:0:0:
256,72,173859,2,0,L|224:168,1,80,8|0,0:0|0:0,0:0:0:0:
456,192,174192,6,0,L|360:192,1,80,2|0,0:0|0:0,0:0:0:0:
184,72,174525,2,0,L|200:176,1,80,8|0,0:0|0:0,0:0:0:0:
384,72,174859,1,2,0:0:0:0:
232,72,175025,1,2,0:0:0:0:
144,72,175192,2,0,L|160:160,1,80,8|2,0:0|0:0,0:0:0:0:
456,72,175525,6,0,L|336:256,1,160,2|8,0:0|0:0,0:0:0:0:
176,192,176025,2,0,L|168:248,1,40
208,72,176192,1,2,0:0:0:0:
336,72,176359,1,2,0:0:0:0:
200,192,176525,2,0,L|280:192,1,80,8|0,0:0|0:0,0:0:0:0:
80,72,176859,6,0,L|88:168,1,80,2|0,0:0|0:0,0:0:0:0:
256,72,177192,1,8,0:0:0:0:
376,72,177359,1,0,0:0:0:0:
336,72,177442,1,0,0:0:0:0:
296,72,177525,1,2,0:0:0:0:
176,192,177692,1,2,0:0:0:0:
352,192,177859,2,0,L|344:272,1,80,8|2,0:0|0:0,0:0:0:0:
104,72,178192,6,0,L|112:232,1,160,2|8,0:0|0:0,0:0:0:0:
296,72,178692,1,0,0:0:0:0:
336,72,178775,1,0,0:0:0:0:
376,72,178859,2,0,L|360:176,1,80,2|2,0:0|0:0,0:0:0:0:
192,192,179192,2,0,L|208:288,1,80,8|0,0:0|0:0,0:0:0:0:
400,192,179525,6,0,L|384:288,1,80,2|0,0:0|0:0,0:0:0:0:
104,72,179859,2,0,L|120:160,1,80,8|0,0:0|0:0,0:0:0:0:
296,72,180192,2,0,L|312:120,3,40,2|0|0|0,0:0|0:0|0:0|0:0,0:0:0:0:
464,192,180525,2,0,L|456:240,1,40,8|8,0:0|0:0,0:0:0:0:
296,192,180692,2,0,L|232:200,1,40,8|0,0:0|0:0,0:0:0:0:
80,72,180859,6,0,P|48:144|96:224,1,160,4|8,0:0|0:0,0:0:0:0:
256,72,181359,2,0,L|256:112,2,40,0|0|2,0:0|0:0|0:0,0:0:0:0:
408,72,181692,1,2,0:0:0:0:
216,192,181859,2,0,L|248:288,1,80,8|0,0:0|0:0,0:0:0:0:
432,72,182192,6,0,P|464:144|416:224,1,160,2|8,0:0|0:0,0:0:0:0:
256,192,182692,1,0,0:0:0:0:
296,192,182775,1,0,0:0:0:0:
336,192,182859,1,2,0:0:0:0:
176,72,183025,1,2,0:0:0:0:
56,72,183192,2,0,L|144:72,1,80,8|2,0:0|0:0,0:0:0:0:
176,72,183442,1,0,0:0:0:0:
352,72,183525,6,0,P|400:88|432:192,1,160,2|8,0:0|0:0,0:0:0:0:
216,72,184025,2,0,L|168:72,1,40
160,192,184192,1,2,0:0:0:0:
336,192,184359,1,2,0:0:0:0:
432,72,184525,2,0,L|352:80,1,80,8|0,0:0|0:0,0:0:0:0:
176,72,184859,6,0,L|192:176,1,80,2|0,0:0|0:0,0:0:0:0:
440,192,185192,2,0,L|432:104,1,80,8|0,0:0|0:0,0:0:0:0:
256,192,185525,2,0,L|336:184,1,80,2|2,0:0|0:0,0:0:0:0:
141,92,185859,2,0,L|175:71,3,40,8|8|8|0,0:0|0:0|0:0|0:0,0:0:0:0:
384,72,186192,6,0,L|392:232,1,160,4|0,0:0|0:0,0:0:0:0:
128,72,186692,2,0,L|120:232,1,160,4|0,0:0|0:0,0:0:0:0:
432,72,187192,6,0,L|344:120,2,80,4|0|0,0:0|0:0|0:0,0:0:0:0:
224,192,187748,1,0,0:0:0:0:
384,192,187970,1,0,0:0:0:0:
104,72,188192,1,2,0:0:0:0:
272,72,188414,1,2,0:0:0:0:
104,72,188637,2,0,L|120:128,1,53.3333333333333,2|0,0:0|0:0,0:0:0:0:
336,72,188859,5,2,0:0:0:0:
432,72,189025,1,0,0:0:0:0:
256,192,189192,1,2,0:0:0:0:
224,192,189359,1,0,0:0:0:0:
424,192,189525,2,0,L|344:248,1,80,2|0,0:0|0:0,0:0:0:0:
128,72,189859,1,2,0:0:0:0:
264,72,190025,1,0,0:0:0:0:
320,72,190109,1,0,0:0:0:0:
376,72,190192,5,2,0:0:0:0:
256,192,190359,2,0,L|344:224,1,80,0|2,0:0|0:0,0:0:0:0:
128,72,190692,2,0,L|120:160,1,80,0|2,0:0|0:0,0:0:0:0:
320,192,191025,2,0,L|328:104,1,80,0|2,0:0|0:0,0:0:0:0:
152,72,191359,1,0,0:0:0:0:
112,72,191442,1,0,0:0:0:0:
72,72,191525,6,0,L|160:128,1,80,2|0,0:0|0:0,0:0:0:0:
320,192,191859,1,2,0:0:0:0:
224,192,192025,1,0,0:0:0:0:
400,72,192192,2,0,L|384:176,1,80,2|0,0:0|0:0,0:0:0:0:
152,192,192525,2,0,L|164:271,1,80,2|0,0:0|0:0,0:0:0:0:
256,192,192859,12,0,194192,0:0:0:0:
360,192,195525,5,4,0:0:0:0:
176,192,197359,6,0,L|184:256,1,40
336,192,197525,1,4,0:0:0:0:
144,72,197748,1,4,0:0:0:0:
368,72,197970,1,4,0:0:0:0:
72,72,198192,1,4,0:0:0:0:
144,72,200025,5,2,0:0:0:0:
408,72,200192,2,0,L|400:168,1,80,8|0,0:0|0:0,0:0:0:0:
400,192,200525,1,0,0:0:0:0:
312,192,200692,1,2,0:0:0:0:
48,192,200859,5,4,0:0:0:0:
464,192,201525,1,0,0:0:0:0:
64,192,202192,5,0,0:0:0:0:
448,192,202859,1,0,0:0:0:0:
88,192,203359,6,0,L|96:280,1,80,2|2,0:0|0:0,0:0:0:0:
424,192,204192,1,0,0:0:0:0:
104,192,204692,6,0,L|112:280,1,80,2|2,0:0|0:0,0:0:0:0:
256,72,205025,1,0,0:0:0:0:
144,72,205192,2,0,L|152:176,1,80,0|2,0:0|0:0,0:0:0:0:
344,72,205526,2,0,L|440:112,1,80,8|8,0:0|0:0,0:0:0:0:
216,192,205859,2,0,L|208:288,1,80,2|0,0:0|0:0,0:0:0:0:
440,192,206192,5,4,0:0:0:0:
192,72,206525,1,2,0:0:0:0:
344,72,206692,1,0,0:0:0:0:
432,72,206859,2,0,L|336:112,1,80,2|0,0:0|0:0,0:0:0:0:
184,192,207192,2,0,L|192:280,1,80,2|0,0:0|0:0,0:0:0:0:
376,192,207525,6,0,L|368:104,1,80,2|0,0:0|0:0,0:0:0:0:
176,72,207859,2,0,L|72:96,1,80,2|0,0:0|0:0,0:0:0:0:
296,72,208192,1,2,0:0:0:0:
160,72,208359,1,0,0:0:0:0:
72,72,208525,2,0,L|88:160,1,80,2|0,0:0|0:0,0:0:0:0:
344,72,208859,6,0,L|424:72,1,80,2|0,0:0|0:0,0:0:0:0:
256,192,209192,2,0,L|248:272,1,80,2|0,0:0|0:0,0:0:0:0:
72,72,209525,2,0,L|80:160,1,80,2|0,0:0|0:0,0:0:0:0:
256,72,209859,2,0,L|168:72,1,80,2|0,0:0|0:0,0:0:0:0:
400,192,210192,6,0,L|472:256,1,80,2|0,0:0|0:0,0:0:0:0:
256,192,210525,2,0,L|272:88,1,80,2|0,0:0|0:0,0:0:0:0:
432,192,210859,2,0,L|360:128,1,80,2|0,0:0|0:0,0:0:0:0:
80,192,211192,2,0,L|152:128,1,80,2|0,0:0|0:0,0:0:0:0:
432,72,211525,6,0,L|392:72,3,40,2|0|0|0,0:0|0:0|0:0|0:0,0:0:0:0:
320,192,211859,2,0,L|280:192,3,40,2|0|0|0,0:0|0:0|0:0|0:0,0:0:0:0:
208,72,212192,6,0,L|176:112,1,40,2|0,0:0|0:0,0:0:0:0:
96,192,212359,2,0,L|104:256,1,40
200,192,212525,2,0,L|232:168,3,40,2|0|0|0,0:0|0:0|0:0|0:0,0:0:0:0:
80,192,212859,6,0,L|96:144,3,44.0000013427735,2|0|0|0,0:0|0:0|0:0|0:0,0:0:0:0:
184,72,213192,2,0,L|232:72,3,44.0000013427735,2|0|0|0,0:0|0:0|0:0|0:0,0:0:0:0:
416,72,213525,6,0,L|440:112,3,44.0000013427735,2|0|0|0,0:0|0:0|0:0|0:0,0:0:0:0:
320,192,213859,2,0,L|297:154,3,44.0000013427735,2|0|0|0,0:0|0:0|0:0|0:0,0:0:0:0:
128,72,214192,6,0,L|112:120,1,44.0000013427735,2|0,0:0|0:0,0:0:0:0:
184,192,214359,2,0,L|232:192,1,44.0000013427735
320,72,214525,2,0,L|360:136,1,44.0000013427735,2|0,0:0|0:0,0:0:0:0:
184,72,214692,2,0,L|152:112,1,44.0000013427735
376,192,214859,6,0,L|400:256,1,44.0000013427735,2|0,0:0|0:0,0:0:0:0:
184,192,215025,2,0,L|168:136,1,44.0000013427735
384,72,215192,2,0,L|392:128,1,44.0000013427735,2|0,0:0|0:0,0:0:0:0:
144,192,215359,2,0,L|140:144,1,44.0000013427735
376,192,215525,1,4,0:0:0:0:
112,72,216192,6,0,L|176:72,7,44.0000013427735,8|8|8|8|8|8|0|0,0:0|0:0|0:0|0:0|0:0|0:0|0:0|0:0,0:0:0:0:
384,72,216859,6,0,L|208:72,1,160,4|8,0:0|0:0,0:0:0:0:
56,192,217359,1,0,0:0:0:0:
112,192,217442,1,0,0:0:0:0:
168,192,217525,1,2,0:0:0:0:
360,192,217692,1,2,0:0:0:0:
224,72,217859,2,0,L|320:72,1,80,8|0,0:0|0:0,0:0:0:0:
136,72,218192,6,0,L|24:72,1,80,2|0,0:0|0:0,0:0:0:0:
256,192,218525,1,8,0:0:0:0:
432,72,218692,1,0,0:0:0:0:
360,72,218775,1,0,0:0:0:0:
288,72,218859,1,2,0:0:0:0:
432,192,219025,1,2,0:0:0:0:
256,72,219192,2,0,L|360:72,1,80,8|2,0:0|0:0,0:0:0:0:
80,72,219525,6,0,L|208:208,1,160,2|8,0:0|0:0,0:0:0:0:
360,72,220025,1,0,0:0:0:0:
288,72,220109,1,0,0:0:0:0:
216,72,220192,1,2,0:0:0:0:
360,192,220359,1,2,0:0:0:0:
189,188,220525,2,0,L|77:188,1,80,8|0,0:0|0:0,0:0:0:0:
360,72,220859,6,0,L|440:72,1,80,2|0,0:0|0:0,0:0:0:0:
256,192,221192,1,8,0:0:0:0:
424,192,221359,1,0,0:0:0:0:
352,192,221442,1,0,0:0:0:0:
280,192,221525,1,2,0:0:0:0:
108,72,221692,2,0,L|196:72,2,80,2|8|2,0:0|0:0|0:0,0:0:0:0:
424,72,222192,6,0,L|256:72,1,160,4|8,0:0|0:0,0:0:0:0:
80,192,222692,2,0,L|72:264,1,40
152,192,222859,1,2,0:0:0:0:
304,72,223025,1,2,0:0:0:0:
152,72,223192,2,0,L|232:72,1,80,8|0,0:0|0:0,0:0:0:0:
460,72,223525,6,0,L|348:72,1,80,2|0,0:0|0:0,0:0:0:0:
152,192,223859,2,0,L|248:192,1,80,8|0,0:0|0:0,0:0:0:0:
464,192,224192,1,2,0:0:0:0:
360,192,224359,1,2,0:0:0:0:
216,192,224525,2,0,L|304:192,1,80,8|0,0:0|0:0,0:0:0:0:
64,72,224859,6,0,L|240:72,2,160,2|8|2,0:0|0:0|0:0,0:0:0:0:
256,192,225692,1,2,0:0:0:0:
424,72,225859,2,0,L|312:72,1,80,8|2,0:0|0:0,0:0:0:0:
104,192,226192,5,8,0:0:0:0:
408,192,226359,2,0,L|328:192,2,80,0|8|0,0:0|0:0|0:0,0:0:0:0:
136,72,226859,2,0,L|72:72,1,40,8|8,0:0|0:0,0:0:0:0:
256,192,227025,2,0,L|328:192,1,40,8|0,0:0|0:0,0:0:0:0:
104,192,227192,2,0,L|32:192,1,40,8|8,0:0|0:0,0:0:0:0:
224,72,227359,2,0,L|272:72,1,40,8|0,0:0|0:0,0:0:0:0:
448,72,227525,6,0,L|288:72,1,160,4|8,0:0|0:0,0:0:0:0:
104,192,228025,2,0,L|160:192,2,40,0|0|2,0:0|0:0|0:0,0:0:0:0:
256,72,228359,1,2,0:0:0:0:
408,192,228525,2,0,L|304:192,1,80,8|0,0:0|0:0,0:0:0:0:
96,72,228859,6,0,L|192:72,1,80,2|0,0:0|0:0,0:0:0:0:
344,72,229192,1,8,0:0:0:0:
192,192,229359,1,0,0:0:0:0:
256,192,229442,1,0,0:0:0:0:
320,192,229525,1,2,0:0:0:0:
192,192,229692,1,2,0:0:0:0:
392,72,229859,2,0,L|288:72,1,80,8|2,0:0|0:0,0:0:0:0:
56,192,230192,6,0,L|232:192,1,160,2|8,0:0|0:0,0:0:0:0:
448,72,230692,1,0,0:0:0:0:
392,72,230775,1,0,0:0:0:0:
336,72,230859,1,2,0:0:0:0:
168,72,231025,1,2,0:0:0:0:
72,72,231192,2,0,L|176:72,1,80,8|0,0:0|0:0,0:0:0:0:
336,192,231525,6,0,L|232:192,1,80,2|0,0:0|0:0,0:0:0:0:
392,192,231859,1,8,0:0:0:0:
168,72,232025,2,0,L|160:136,1,40
248,72,232192,1,2,0:0:0:0:
392,72,232359,1,2,0:0:0:0:
136,192,232525,2,0,L|248:192,1,80,8|2,0:0|0:0,0:0:0:0:
448,192,232859,6,0,L|264:192,1,160,4|8,0:0|0:0,0:0:0:0:
104,72,233359,2,0,L|96:144,1,40
160,192,233525,1,2,0:0:0:0:
304,72,233692,1,2,0:0:0:0:
144,72,233859,2,0,L|248:72,1,80,8|0,0:0|0:0,0:0:0:0:
456,192,234192,6,0,L|368:192,1,80,2|0,0:0|0:0,0:0:0:0:
144,72,234525,1,8,0:0:0:0:
56,192,234692,1,0,0:0:0:0:
104,192,234775,1,0,0:0:0:0:
152,192,234859,1,2,0:0:0:0:
288,72,235025,1,2,0:0:0:0:
160,192,235192,1,8,0:0:0:0:
384,72,235359,1,2,0:0:0:0:
472,72,235525,6,0,L|296:72,2,160,2|8|2,0:0|0:0|0:0,0:0:0:0:
192,192,236359,1,2,0:0:0:0:
56,192,236525,2,0,L|168:192,1,80,8|0,0:0|0:0,0:0:0:0:
456,192,236859,6,0,L|344:192,1,80,8|0,0:0|0:0,0:0:0:0:
80,72,237192,2,0,L|96:160,1,80,8|0,0:0|0:0,0:0:0:0:
384,72,237525,6,0,L|344:72,3,40,8|8|8|0,0:0|0:0|0:0|0:0,0:0:0:0:
192,192,237859,2,0,L|232:192,3,40,8|8|8|0,0:0|0:0|0:0|0:0,0:0:0:0:
456,192,238192,5,4,0:0:0:0:
