osu file format v14

[General]
AudioFilename: primastella.mp3
AudioLeadIn: 0
PreviewTime: 55192
Countdown: 0
SampleSet: None
StackLeniency: 0.7
Mode: 1
LetterboxInBreaks: 0
WidescreenStoryboard: 1

[Editor]
Bookmarks: 12131,24131,34798,45464,56131,66798,77464,88131,98798,109464,120131,130798,141464,152131,160131,170798,196131
DistanceSpacing: 0.8
BeatDivisor: 4
GridSize: 32
TimelineZoom: 1.5

[Metadata]
Title:Prima Stella
TitleUnicode:プリマステラ
Artist:Kano
ArtistUnicode:鹿乃
Creator:mingmichael
Version:Oni
Source:
Tags:nowhere samfree
BeatmapID:1022492
BeatmapSetID:478793

[Difficulty]
HPDrainRate:6
CircleSize:3
OverallDifficulty:5
ApproachRate:5
SliderMultiplier:1.4
SliderTickRate:1

[Events]
//Background and Video events
0,0,"prima stella.jpg",0,0
//Break Periods
2,125058,126325
2,173392,187658
2,193058,194325
//Storyboard Layer 0 (Background)
//Storyboard Layer 1 (Fail)
//Storyboard Layer 2 (Pass)
//Storyboard Layer 3 (Foreground)
//Storyboard Sound Samples

[TimingPoints]
-474,333.333333333333,4,1,0,80,1,0
859,-125,4,1,0,80,0,0
6192,-100,4,1,0,80,0,0
22797,-125,4,1,0,60,0,0
34192,-100,4,1,0,80,0,0
55525,-100,4,1,0,100,0,1
76859,-100,4,1,0,80,0,0
130192,-100,4,1,0,100,0,1
151525,-100,4,1,0,80,0,0

[Colours]
Combo1 : 0,128,255
Combo2 : 223,0,112
Combo3 : 81,255,255
Combo4 : 255,89,255

[HitObjects]
192,96,5525,5,0,0:0:0:0:
192,96,6192,1,4,0:0:0:0:
192,96,6858,1,0,0:0:0:0:
192,96,7525,1,4,0:0:0:0:
192,96,8192,1,0,0:0:0:0:
192,96,8858,1,4,0:0:0:0:
192,96,9192,1,0,0:0:0:0:
192,96,9525,1,0,0:0:0:0:
192,96,9858,1,0,0:0:0:0:
192,96,10192,1,0,0:0:0:0:
192,96,10358,1,0,0:0:0:0:
192,96,10525,1,0,0:0:0:0:
192,96,10692,1,0,0:0:0:0:
192,96,10858,1,0,0:0:0:0:
192,96,11025,1,0,0:0:0:0:
192,96,11525,5,4,0:0:0:0:
192,96,11858,5,8,0:0:0:0:
320,96,12108,5,0,0:0:0:0:
192,96,12192,1,0,0:0:0:0:
192,96,12358,1,0,0:0:0:0:
192,96,12525,5,8,0:0:0:0:
192,96,12858,5,0,0:0:0:0:
192,96,13192,5,8,0:0:0:0:
320,96,13442,5,0,0:0:0:0:
192,96,13525,1,0,0:0:0:0:
192,96,13692,1,0,0:0:0:0:
192,96,13858,5,8,0:0:0:0:
192,96,14025,5,0,0:0:0:0:
320,96,14108,5,8,0:0:0:0:
192,96,14192,5,0,0:0:0:0:
192,96,14525,5,8,0:0:0:0:
320,96,14775,5,0,0:0:0:0:
192,96,14858,1,0,0:0:0:0:
192,96,15025,1,0,0:0:0:0:
192,96,15192,5,8,0:0:0:0:
192,96,15525,5,0,0:0:0:0:
192,96,15858,5,8,0:0:0:0:
320,96,16108,5,0,0:0:0:0:
192,96,16192,1,0,0:0:0:0:
192,96,16358,1,0,0:0:0:0:
192,96,16525,5,8,0:0:0:0:
192,96,16692,5,0,0:0:0:0:
320,96,16775,5,8,0:0:0:0:
192,96,16858,5,0,0:0:0:0:
192,96,17192,5,8,0:0:0:0:
320,96,17442,1,8,0:0:0:0:
192,96,17525,5,0,0:0:0:0:
192,96,17692,1,0,0:0:0:0:
192,96,17858,5,8,0:0:0:0:
192,96,18192,5,0,0:0:0:0:
192,96,18525,5,8,0:0:0:0:
320,96,18775,1,8,0:0:0:0:
192,96,18858,5,0,0:0:0:0:
192,96,19025,1,0,0:0:0:0:
192,96,19192,5,8,0:0:0:0:
192,96,19358,1,8,0:0:0:0:
320,96,19442,1,8,0:0:0:0:
192,96,19525,5,0,0:0:0:0:
192,96,19858,5,8,0:0:0:0:
320,96,20108,1,8,0:0:0:0:
192,96,20192,5,0,0:0:0:0:
192,96,20358,1,0,0:0:0:0:
192,96,20525,5,8,0:0:0:0:
192,96,20858,5,0,0:0:0:0:
192,96,21192,5,12,0:0:0:0:
192,96,21525,5,0,0:0:0:0:
192,96,21692,5,8,0:0:0:0:
320,96,21775,1,8,0:0:0:0:
192,96,21858,1,8,0:0:0:0:
320,96,21942,1,8,0:0:0:0:
192,96,22025,1,8,0:0:0:0:
192,96,22192,5,4,0:0:0:0:
192,96,23525,5,8,0:0:0:0:
192,96,24192,1,8,0:0:0:0:
192,96,24858,1,8,0:0:0:0:
192,96,25525,1,8,0:0:0:0:
192,96,25858,5,0,0:0:0:0:
192,96,26192,5,8,0:0:0:0:
192,96,26858,1,8,0:0:0:0:
192,96,27525,1,8,0:0:0:0:
192,96,28192,1,8,0:0:0:0:
192,96,28525,1,8,0:0:0:0:
192,96,28858,5,0,0:0:0:0:
192,96,29525,1,0,0:0:0:0:
192,96,30192,1,0,0:0:0:0:
192,96,30858,1,0,0:0:0:0:
192,96,31192,5,8,0:0:0:0:
192,96,31525,5,0,0:0:0:0:
192,96,32192,1,0,0:0:0:0:
256,192,32858,12,0,34025,0:0:0:0:
192,96,34192,5,4,0:0:0:0:
192,96,34525,1,0,0:0:0:0:
192,96,34692,5,8,0:0:0:0:
192,96,34858,5,0,0:0:0:0:
192,96,35025,5,8,0:0:0:0:
192,96,35192,5,0,0:0:0:0:
192,96,35358,5,8,0:0:0:0:
320,96,35442,1,8,0:0:0:0:
192,96,35525,5,0,0:0:0:0:
192,96,35858,1,0,0:0:0:0:
192,96,36025,5,8,0:0:0:0:
192,96,36192,5,0,0:0:0:0:
192,96,36358,5,8,0:0:0:0:
192,96,36525,5,0,0:0:0:0:
320,96,36608,1,0,0:0:0:0:
192,96,36692,5,8,0:0:0:0:
192,96,36858,5,0,0:0:0:0:
192,96,37192,1,0,0:0:0:0:
192,96,37358,5,8,0:0:0:0:
192,96,37525,5,0,0:0:0:0:
192,96,37692,5,8,0:0:0:0:
192,96,37858,5,0,0:0:0:0:
192,96,38025,5,8,0:0:0:0:
320,96,38108,1,8,0:0:0:0:
192,96,38192,5,0,0:0:0:0:
192,96,38525,1,0,0:0:0:0:
192,96,38692,5,8,0:0:0:0:
192,96,38858,5,0,0:0:0:0:
192,96,39025,5,8,0:0:0:0:
320,96,39108,1,8,0:0:0:0:
192,96,39192,5,0,0:0:0:0:
320,96,39275,1,0,0:0:0:0:
192,96,39358,5,8,0:0:0:0:
192,96,39525,5,4,0:0:0:0:
192,96,39858,1,0,0:0:0:0:
192,96,40025,5,8,0:0:0:0:
192,96,40192,5,0,0:0:0:0:
192,96,40358,5,8,0:0:0:0:
320,96,40442,1,8,0:0:0:0:
192,96,40525,5,0,0:0:0:0:
192,96,40692,5,8,0:0:0:0:
192,96,40858,5,0,0:0:0:0:
192,96,41192,1,0,0:0:0:0:
192,96,41358,5,8,0:0:0:0:
192,96,41525,5,0,0:0:0:0:
192,96,41692,5,8,0:0:0:0:
192,96,41858,5,0,0:0:0:0:
320,96,41942,1,0,0:0:0:0:
192,96,42025,5,8,0:0:0:0:
192,96,42192,5,0,0:0:0:0:
192,96,42525,1,0,0:0:0:0:
192,96,42692,5,8,0:0:0:0:
192,96,42858,5,0,0:0:0:0:
192,96,43025,5,8,0:0:0:0:
320,96,43108,1,8,0:0:0:0:
192,96,43192,5,0,0:0:0:0:
320,96,43275,1,0,0:0:0:0:
192,96,43358,5,8,0:0:0:0:
192,96,43525,5,0,0:0:0:0:
192,96,43858,5,0,0:0:0:0:
192,96,44025,5,8,0:0:0:0:
192,96,44192,5,0,0:0:0:0:
192,96,44358,5,8,0:0:0:0:
320,96,44442,1,8,0:0:0:0:
192,96,44525,5,0,0:0:0:0:
320,96,44608,1,0,0:0:0:0:
192,96,44692,1,0,0:0:0:0:
192,96,44858,5,4,0:0:0:0:
192,96,45025,5,8,0:0:0:0:
192,96,45192,1,8,0:0:0:0:
192,96,45358,5,4,0:0:0:0:
192,96,45525,5,8,0:0:0:0:
192,96,45692,1,8,0:0:0:0:
192,96,45858,5,4,0:0:0:0:
192,96,46358,1,0,0:0:0:0:
320,96,46442,1,0,0:0:0:0:
192,96,46525,5,8,0:0:0:0:
192,96,46858,5,0,0:0:0:0:
192,96,47025,1,0,0:0:0:0:
192,96,47192,1,0,0:0:0:0:
192,96,47525,1,4,0:0:0:0:
192,96,47692,5,8,0:0:0:0:
192,96,47858,1,8,0:0:0:0:
192,96,48025,5,4,0:0:0:0:
192,96,48192,5,8,0:0:0:0:
192,96,48358,1,8,0:0:0:0:
192,96,48525,5,4,0:0:0:0:
192,96,49025,5,8,0:0:0:0:
320,96,49108,1,8,0:0:0:0:
192,96,49192,5,0,0:0:0:0:
192,96,49358,1,0,0:0:0:0:
192,96,49525,1,0,0:0:0:0:
192,96,49692,1,0,0:0:0:0:
192,96,49858,5,12,0:0:0:0:
192,96,50192,5,4,0:0:0:0:
192,96,50525,1,0,0:0:0:0:
192,96,50692,5,8,0:0:0:0:
320,96,50775,1,8,0:0:0:0:
192,96,50858,5,0,0:0:0:0:
192,96,51025,5,8,0:0:0:0:
192,96,51192,5,0,0:0:0:0:
192,96,51358,5,8,0:0:0:0:
320,96,51442,1,8,0:0:0:0:
192,96,51525,5,0,0:0:0:0:
192,96,51858,1,0,0:0:0:0:
192,96,52025,5,8,0:0:0:0:
320,96,52108,1,8,0:0:0:0:
192,96,52192,5,0,0:0:0:0:
192,96,52358,5,8,0:0:0:0:
192,96,52525,5,0,0:0:0:0:
192,96,52692,5,8,0:0:0:0:
320,96,52775,1,8,0:0:0:0:
192,96,52858,5,0,0:0:0:0:
192,96,53025,1,0,0:0:0:0:
192,96,53192,1,0,0:0:0:0:
192,96,53358,1,0,0:0:0:0:
192,96,53525,5,8,0:0:0:0:
192,96,53692,1,8,0:0:0:0:
192,96,53858,1,8,0:0:0:0:
192,96,54025,1,8,0:0:0:0:
192,96,54192,1,8,0:0:0:0:
192,96,55525,5,4,0:0:0:0:
192,96,55858,5,8,0:0:0:0:
192,96,56025,5,0,0:0:0:0:
320,96,56108,5,8,0:0:0:0:
192,96,56192,5,0,0:0:0:0:
192,96,56358,1,0,0:0:0:0:
192,96,56525,1,8,0:0:0:0:
192,96,56692,1,0,0:0:0:0:
320,96,56775,1,0,0:0:0:0:
192,96,56858,1,0,0:0:0:0:
192,96,57025,1,0,0:0:0:0:
192,96,57192,1,8,0:0:0:0:
192,96,57358,1,0,0:0:0:0:
320,96,57442,1,8,0:0:0:0:
192,96,57525,1,0,0:0:0:0:
192,96,57692,1,0,0:0:0:0:
192,96,57858,1,8,0:0:0:0:
192,96,58025,1,8,0:0:0:0:
320,96,58108,1,8,0:0:0:0:
192,96,58192,1,0,0:0:0:0:
192,96,58525,1,8,0:0:0:0:
192,96,58692,1,0,0:0:0:0:
320,96,58775,1,8,0:0:0:0:
192,96,58858,1,0,0:0:0:0:
192,96,59025,1,0,0:0:0:0:
192,96,59192,1,8,0:0:0:0:
192,96,59358,1,0,0:0:0:0:
320,96,59442,1,0,0:0:0:0:
192,96,59525,1,8,0:0:0:0:
192,96,59692,1,0,0:0:0:0:
192,96,59858,1,8,0:0:0:0:
192,96,60025,1,8,0:0:0:0:
320,96,60108,1,8,0:0:0:0:
192,96,60192,1,0,0:0:0:0:
192,96,60358,1,0,0:0:0:0:
192,96,60525,1,8,0:0:0:0:
192,96,60692,1,0,0:0:0:0:
192,96,60858,1,4,0:0:0:0:
192,96,61192,1,8,0:0:0:0:
192,96,61358,1,0,0:0:0:0:
320,96,61442,1,0,0:0:0:0:
192,96,61525,1,0,0:0:0:0:
192,96,61692,1,0,0:0:0:0:
192,96,61858,1,8,0:0:0:0:
192,96,62025,1,8,0:0:0:0:
320,96,62108,1,8,0:0:0:0:
192,96,62192,1,0,0:0:0:0:
320,96,62275,1,0,0:0:0:0:
192,96,62358,1,0,0:0:0:0:
192,96,62525,1,8,0:0:0:0:
192,96,62692,1,0,0:0:0:0:
320,96,62775,1,0,0:0:0:0:
192,96,62858,1,8,0:0:0:0:
192,96,63025,1,0,0:0:0:0:
192,96,63192,1,8,0:0:0:0:
192,96,63358,1,8,0:0:0:0:
320,96,63442,1,8,0:0:0:0:
192,96,63525,1,0,0:0:0:0:
192,96,63858,1,8,0:0:0:0:
192,96,64025,1,0,0:0:0:0:
320,96,64108,1,8,0:0:0:0:
192,96,64192,1,0,0:0:0:0:
192,96,64358,1,8,0:0:0:0:
192,96,64525,1,8,0:0:0:0:
192,96,64692,1,0,0:0:0:0:
192,96,64858,1,0,0:0:0:0:
192,96,65025,1,0,0:0:0:0:
192,96,65192,1,0,0:0:0:0:
192,96,65358,1,0,0:0:0:0:
192,96,65525,1,8,0:0:0:0:
320,96,65608,1,8,0:0:0:0:
192,96,65692,1,0,0:0:0:0:
320,96,65775,1,0,0:0:0:0:
192,96,65858,1,8,0:0:0:0:
320,96,65942,1,8,0:0:0:0:
192,96,66025,1,8,0:0:0:0:
192,96,66192,1,4,0:0:0:0:
192,96,66525,1,8,0:0:0:0:
192,96,66692,1,0,0:0:0:0:
320,96,66775,1,8,0:0:0:0:
192,96,66858,1,0,0:0:0:0:
192,96,67025,1,0,0:0:0:0:
192,96,67192,1,8,0:0:0:0:
192,96,67358,1,0,0:0:0:0:
320,96,67442,1,0,0:0:0:0:
192,96,67525,1,0,0:0:0:0:
192,96,67692,1,0,0:0:0:0:
192,96,67858,1,8,0:0:0:0:
320,96,67942,1,0,0:0:0:0:
192,96,68025,1,8,0:0:0:0:
192,96,68192,1,0,0:0:0:0:
192,96,68358,1,0,0:0:0:0:
320,96,68442,1,0,0:0:0:0:
192,96,68525,1,8,0:0:0:0:
192,96,68692,1,0,0:0:0:0:
192,96,68858,1,0,0:0:0:0:
192,96,69192,1,8,0:0:0:0:
192,96,69358,1,0,0:0:0:0:
320,96,69442,1,8,0:0:0:0:
192,96,69525,1,0,0:0:0:0:
192,96,69692,1,0,0:0:0:0:
192,96,69858,1,8,0:0:0:0:
192,96,70025,1,0,0:0:0:0:
320,96,70108,1,0,0:0:0:0:
192,96,70192,1,8,0:0:0:0:
192,96,70358,1,0,0:0:0:0:
192,96,70525,1,8,0:0:0:0:
192,96,70692,1,8,0:0:0:0:
320,96,70775,1,8,0:0:0:0:
192,96,70858,1,0,0:0:0:0:
320,96,70942,1,0,0:0:0:0:
192,96,71025,1,0,0:0:0:0:
192,96,71192,1,8,0:0:0:0:
192,96,71358,1,0,0:0:0:0:
192,96,71525,1,4,0:0:0:0:
192,96,71858,1,8,0:0:0:0:
192,96,72025,1,0,0:0:0:0:
320,96,72108,1,0,0:0:0:0:
192,96,72192,1,0,0:0:0:0:
192,96,72358,1,0,0:0:0:0:
192,96,72525,1,8,0:0:0:0:
192,96,72692,1,8,0:0:0:0:
320,96,72775,1,8,0:0:0:0:
192,96,72858,1,0,0:0:0:0:
192,96,73025,1,0,0:0:0:0:
192,96,73192,1,8,0:0:0:0:
192,96,73358,1,0,0:0:0:0:
320,96,73442,1,8,0:0:0:0:
192,96,73525,1,0,0:0:0:0:
192,96,73692,1,0,0:0:0:0:
192,96,73858,1,8,0:0:0:0:
320,96,73942,1,8,0:0:0:0:
192,96,74025,1,0,0:0:0:0:
320,96,74108,1,0,0:0:0:0:
192,96,74192,1,0,0:0:0:0:
192,96,74525,1,8,0:0:0:0:
192,96,74692,1,0,0:0:0:0:
320,96,74775,1,0,0:0:0:0:
192,96,74858,1,0,0:0:0:0:
192,96,75025,1,8,0:0:0:0:
192,96,75192,1,8,0:0:0:0:
192,96,75358,1,0,0:0:0:0:
320,96,75442,1,0,0:0:0:0:
192,96,75525,1,8,0:0:0:0:
192,96,75692,1,0,0:0:0:0:
192,96,75858,1,8,0:0:0:0:
192,96,76025,1,0,0:0:0:0:
192,96,76192,1,8,0:0:0:0:
320,96,76275,1,8,0:0:0:0:
192,96,76358,1,0,0:0:0:0:
320,96,76442,1,0,0:0:0:0:
192,96,76525,1,8,0:0:0:0:
320,96,76608,1,8,0:0:0:0:
192,96,76692,1,8,0:0:0:0:
192,96,76858,1,4,0:0:0:0:
192,96,77192,1,0,0:0:0:0:
192,96,77358,1,8,0:0:0:0:
320,96,77442,1,8,0:0:0:0:
192,96,77525,1,0,0:0:0:0:
192,96,77692,1,8,0:0:0:0:
192,96,77858,1,0,0:0:0:0:
192,96,78025,1,8,0:0:0:0:
192,96,78192,1,0,0:0:0:0:
192,96,78525,1,0,0:0:0:0:
192,96,78692,1,8,0:0:0:0:
320,96,78775,1,8,0:0:0:0:
192,96,78858,1,0,0:0:0:0:
192,96,79025,1,8,0:0:0:0:
192,96,79192,1,0,0:0:0:0:
192,96,79358,1,8,0:0:0:0:
320,96,79442,1,8,0:0:0:0:
192,96,79525,1,0,0:0:0:0:
192,96,79858,1,0,0:0:0:0:
192,96,80025,1,8,0:0:0:0:
192,96,80192,1,0,0:0:0:0:
192,96,80358,1,8,0:0:0:0:
320,96,80442,1,8,0:0:0:0:
192,96,80525,1,0,0:0:0:0:
192,96,80692,1,8,0:0:0:0:
192,96,80858,1,0,0:0:0:0:
192,96,81025,1,0,0:0:0:0:
320,96,81108,1,0,0:0:0:0:
192,96,81192,1,0,0:0:0:0:
192,96,81358,1,0,0:0:0:0:
320,96,81442,1,0,0:0:0:0:
192,96,81525,1,0,0:0:0:0:
320,96,81608,1,0,0:0:0:0:
192,96,81692,1,0,0:0:0:0:
320,96,81775,1,0,0:0:0:0:
192,96,81858,1,8,0:0:0:0:
320,96,81942,1,8,0:0:0:0:
192,96,82025,1,8,0:0:0:0:
192,96,82192,1,4,0:0:0:0:
192,96,83525,1,4,0:0:0:0:
192,96,83692,1,4,0:0:0:0:
192,96,84192,1,4,0:0:0:0:
192,96,84358,1,4,0:0:0:0:
192,96,84525,1,8,0:0:0:0:
320,96,84608,1,8,0:0:0:0:
192,96,84692,1,8,0:0:0:0:
192,96,84858,1,4,0:0:0:0:
192,96,85192,1,0,0:0:0:0:
192,96,85358,1,0,0:0:0:0:
192,96,85525,1,0,0:0:0:0:
192,96,85692,1,0,0:0:0:0:
192,96,85858,1,0,0:0:0:0:
192,96,86025,1,0,0:0:0:0:
192,96,86192,1,0,0:0:0:0:
192,96,86358,1,0,0:0:0:0:
192,96,86525,1,0,0:0:0:0:
192,96,86692,1,0,0:0:0:0:
192,96,86858,1,0,0:0:0:0:
320,96,86942,1,0,0:0:0:0:
192,96,87025,1,0,0:0:0:0:
320,96,87108,1,0,0:0:0:0:
192,96,87192,1,8,0:0:0:0:
320,96,87275,1,8,0:0:0:0:
192,96,87358,1,8,0:0:0:0:
192,96,87525,1,4,0:0:0:0:
192,96,87858,1,8,0:0:0:0:
320,96,88108,1,0,0:0:0:0:
192,96,88192,1,0,0:0:0:0:
192,96,88358,1,0,0:0:0:0:
192,96,88525,1,8,0:0:0:0:
192,96,88858,1,0,0:0:0:0:
192,96,89192,1,8,0:0:0:0:
320,96,89442,1,0,0:0:0:0:
192,96,89525,1,0,0:0:0:0:
192,96,89692,1,0,0:0:0:0:
192,96,89858,1,8,0:0:0:0:
192,96,90025,1,0,0:0:0:0:
320,96,90108,1,8,0:0:0:0:
192,96,90192,1,0,0:0:0:0:
192,96,90525,1,8,0:0:0:0:
320,96,90775,1,0,0:0:0:0:
192,96,90858,1,0,0:0:0:0:
192,96,91025,1,0,0:0:0:0:
192,96,91192,1,8,0:0:0:0:
192,96,91525,1,0,0:0:0:0:
192,96,91692,1,0,0:0:0:0:
192,96,91858,1,8,0:0:0:0:
192,96,92025,1,0,0:0:0:0:
192,96,92192,1,0,0:0:0:0:
320,96,92275,1,0,0:0:0:0:
192,96,92358,1,0,0:0:0:0:
320,96,92442,1,0,0:0:0:0:
192,96,92525,1,8,0:0:0:0:
320,96,92608,1,8,0:0:0:0:
192,96,92692,1,8,0:0:0:0:
320,96,92775,1,8,0:0:0:0:
192,96,92858,1,0,0:0:0:0:
192,96,93025,1,0,0:0:0:0:
192,96,93358,1,0,0:0:0:0:
192,96,93692,1,0,0:0:0:0:
320,96,93775,1,0,0:0:0:0:
192,96,93858,1,8,0:0:0:0:
192,96,94192,1,0,0:0:0:0:
192,96,94525,1,8,0:0:0:0:
320,96,94775,1,0,0:0:0:0:
192,96,94858,1,0,0:0:0:0:
192,96,95025,1,0,0:0:0:0:
192,96,95192,1,8,0:0:0:0:
192,96,95358,1,0,0:0:0:0:
320,96,95442,1,8,0:0:0:0:
192,96,95525,1,0,0:0:0:0:
192,96,95858,1,12,0:0:0:0:
192,96,96192,1,0,0:0:0:0:
192,96,96358,1,8,0:0:0:0:
320,96,96442,1,8,0:0:0:0:
192,96,96525,1,0,0:0:0:0:
320,96,96608,1,0,0:0:0:0:
192,96,96692,1,8,0:0:0:0:
192,96,96858,1,4,0:0:0:0:
256,192,97025,12,0,98025,0:0:0:0:
192,96,98192,5,4,0:0:0:0:
192,96,98525,1,0,0:0:0:0:
192,96,98692,5,8,0:0:0:0:
192,96,99025,1,8,0:0:0:0:
192,96,99192,5,0,0:0:0:0:
192,96,99525,1,0,0:0:0:0:
192,96,99858,1,0,0:0:0:0:
192,96,100025,5,8,0:0:0:0:
192,96,100358,1,8,0:0:0:0:
320,96,100442,1,8,0:0:0:0:
192,96,100525,5,0,0:0:0:0:
192,96,100692,1,0,0:0:0:0:
192,96,100858,1,0,0:0:0:0:
192,96,101192,1,0,0:0:0:0:
192,96,101358,5,8,0:0:0:0:
192,96,101692,1,8,0:0:0:0:
192,96,101858,5,0,0:0:0:0:
192,96,102192,1,0,0:0:0:0:
192,96,102525,1,0,0:0:0:0:
192,96,102692,5,8,0:0:0:0:
192,96,103025,1,0,0:0:0:0:
192,96,103192,5,8,0:0:0:0:
192,96,103358,5,0,0:0:0:0:
192,96,103525,1,0,0:0:0:0:
192,96,103858,1,0,0:0:0:0:
192,96,104025,5,8,0:0:0:0:
192,96,104358,1,8,0:0:0:0:
192,96,104525,5,0,0:0:0:0:
192,96,104858,1,0,0:0:0:0:
192,96,105192,1,0,0:0:0:0:
192,96,105358,5,8,0:0:0:0:
192,96,105692,1,8,0:0:0:0:
320,96,105775,1,8,0:0:0:0:
192,96,105858,5,0,0:0:0:0:
192,96,106025,1,0,0:0:0:0:
192,96,106192,1,0,0:0:0:0:
192,96,106525,1,0,0:0:0:0:
192,96,106692,5,8,0:0:0:0:
192,96,107025,1,8,0:0:0:0:
192,96,107192,5,0,0:0:0:0:
192,96,107358,1,0,0:0:0:0:
192,96,107525,5,8,0:0:0:0:
192,96,107692,1,8,0:0:0:0:
192,96,107858,5,0,0:0:0:0:
192,96,108025,1,0,0:0:0:0:
192,96,108358,1,0,0:0:0:0:
320,96,108442,1,0,0:0:0:0:
192,96,108525,5,8,0:0:0:0:
192,96,108692,5,0,0:0:0:0:
192,96,108858,1,4,0:0:0:0:
192,96,109192,5,8,0:0:0:0:
192,96,109358,5,0,0:0:0:0:
320,96,109442,1,0,0:0:0:0:
192,96,109525,1,0,0:0:0:0:
192,96,109692,1,0,0:0:0:0:
192,96,109858,5,8,0:0:0:0:
192,96,110025,5,0,0:0:0:0:
192,96,110192,1,0,0:0:0:0:
192,96,110525,5,8,0:0:0:0:
192,96,110692,5,0,0:0:0:0:
320,96,110775,5,8,0:0:0:0:
192,96,110858,5,0,0:0:0:0:
192,96,111025,1,0,0:0:0:0:
192,96,111192,5,8,0:0:0:0:
192,96,111358,1,8,0:0:0:0:
320,96,111442,1,8,0:0:0:0:
192,96,111525,5,0,0:0:0:0:
192,96,111858,5,8,0:0:0:0:
192,96,112025,5,0,0:0:0:0:
320,96,112108,1,0,0:0:0:0:
192,96,112192,1,0,0:0:0:0:
192,96,112358,1,0,0:0:0:0:
192,96,112525,5,8,0:0:0:0:
192,96,112692,5,0,0:0:0:0:
320,96,112775,5,8,0:0:0:0:
192,96,112858,5,0,0:0:0:0:
192,96,113025,1,0,0:0:0:0:
192,96,113192,5,8,0:0:0:0:
192,96,113358,1,8,0:0:0:0:
320,96,113442,1,8,0:0:0:0:
192,96,113525,5,0,0:0:0:0:
192,96,113692,5,0,0:0:0:0:
192,96,113858,5,8,0:0:0:0:
192,96,114025,5,0,0:0:0:0:
192,96,114192,1,4,0:0:0:0:
192,96,114525,5,8,0:0:0:0:
192,96,114692,5,0,0:0:0:0:
320,96,114775,1,0,0:0:0:0:
192,96,114858,1,0,0:0:0:0:
192,96,115025,1,0,0:0:0:0:
192,96,115192,5,8,0:0:0:0:
192,96,115358,5,0,0:0:0:0:
192,96,115525,1,0,0:0:0:0:
192,96,115858,5,8,0:0:0:0:
192,96,116025,5,0,0:0:0:0:
320,96,116108,5,8,0:0:0:0:
192,96,116192,5,0,0:0:0:0:
192,96,116358,1,0,0:0:0:0:
192,96,116525,5,8,0:0:0:0:
192,96,116692,1,8,0:0:0:0:
320,96,116775,1,8,0:0:0:0:
192,96,116858,5,0,0:0:0:0:
192,96,117192,5,8,0:0:0:0:
192,96,117358,5,0,0:0:0:0:
320,96,117442,1,0,0:0:0:0:
192,96,117525,1,0,0:0:0:0:
192,96,117692,5,8,0:0:0:0:
192,96,117858,1,8,0:0:0:0:
192,96,118025,1,0,0:0:0:0:
320,96,118108,1,0,0:0:0:0:
192,96,118192,5,8,0:0:0:0:
192,96,118358,5,0,0:0:0:0:
192,96,118525,5,8,0:0:0:0:
192,96,118692,5,0,0:0:0:0:
320,96,118775,5,8,0:0:0:0:
192,96,118858,5,0,0:0:0:0:
192,96,119025,5,8,0:0:0:0:
320,96,119108,1,8,0:0:0:0:
192,96,119192,1,8,0:0:0:0:
320,96,119275,1,8,0:0:0:0:
192,96,119358,1,8,0:0:0:0:
192,96,119525,5,4,0:0:0:0:
192,96,119692,1,4,0:0:0:0:
192,96,120025,1,4,0:0:0:0:
192,96,120358,1,4,0:0:0:0:
192,96,120525,1,4,0:0:0:0:
192,96,121025,1,0,0:0:0:0:
320,96,121108,1,0,0:0:0:0:
192,96,121192,5,8,0:0:0:0:
192,96,121525,5,0,0:0:0:0:
192,96,121692,1,0,0:0:0:0:
192,96,121858,1,0,0:0:0:0:
192,96,122192,1,4,0:0:0:0:
192,96,122358,1,4,0:0:0:0:
192,96,122692,1,4,0:0:0:0:
192,96,123025,1,4,0:0:0:0:
192,96,123192,1,4,0:0:0:0:
192,96,123692,5,8,0:0:0:0:
320,96,123775,1,8,0:0:0:0:
192,96,123858,5,0,0:0:0:0:
192,96,124025,1,0,0:0:0:0:
192,96,124192,1,0,0:0:0:0:
192,96,124358,1,0,0:0:0:0:
192,96,124525,1,4,0:0:0:0:
192,96,124858,5,12,0:0:0:0:
192,96,127525,5,0,0:0:0:0:
192,96,127692,1,0,0:0:0:0:
192,96,127858,1,0,0:0:0:0:
192,96,128025,1,0,0:0:0:0:
192,96,128192,5,8,0:0:0:0:
192,96,128358,1,8,0:0:0:0:
192,96,128525,1,8,0:0:0:0:
192,96,128692,1,8,0:0:0:0:
192,96,128858,1,8,0:0:0:0:
192,96,129192,1,8,0:0:0:0:
192,96,129525,1,8,0:0:0:0:
192,96,129858,1,8,0:0:0:0:
192,96,130192,5,4,0:0:0:0:
192,96,130525,5,8,0:0:0:0:
192,96,130692,5,0,0:0:0:0:
320,96,130775,5,8,0:0:0:0:
192,96,130858,5,0,0:0:0:0:
192,96,131025,1,0,0:0:0:0:
192,96,131192,1,8,0:0:0:0:
192,96,131358,1,8,0:0:0:0:
320,96,131442,1,8,0:0:0:0:
192,96,131525,1,0,0:0:0:0:
192,96,131692,1,0,0:0:0:0:
192,96,131858,1,8,0:0:0:0:
192,96,132025,1,0,0:0:0:0:
320,96,132108,1,8,0:0:0:0:
192,96,132192,1,0,0:0:0:0:
192,96,132358,1,0,0:0:0:0:
192,96,132525,1,8,0:0:0:0:
192,96,132692,1,0,0:0:0:0:
320,96,132775,1,0,0:0:0:0:
192,96,132858,1,0,0:0:0:0:
192,96,133192,1,8,0:0:0:0:
192,96,133358,1,0,0:0:0:0:
320,96,133442,1,8,0:0:0:0:
192,96,133525,1,0,0:0:0:0:
192,96,133692,1,0,0:0:0:0:
192,96,133858,1,8,0:0:0:0:
192,96,134025,1,0,0:0:0:0:
320,96,134108,1,0,0:0:0:0:
192,96,134192,1,0,0:0:0:0:
192,96,134358,1,0,0:0:0:0:
192,96,134525,1,8,0:0:0:0:
320,96,134608,1,0,0:0:0:0:
192,96,134692,1,8,0:0:0:0:
192,96,134858,1,0,0:0:0:0:
192,96,135025,1,0,0:0:0:0:
320,96,135108,1,0,0:0:0:0:
192,96,135192,1,8,0:0:0:0:
192,96,135358,1,0,0:0:0:0:
192,96,135525,1,4,0:0:0:0:
192,96,135858,1,8,0:0:0:0:
192,96,136025,1,0,0:0:0:0:
320,96,136108,1,0,0:0:0:0:
192,96,136192,1,0,0:0:0:0:
192,96,136358,1,0,0:0:0:0:
192,96,136525,1,8,0:0:0:0:
192,96,136692,1,0,0:0:0:0:
320,96,136775,1,0,0:0:0:0:
192,96,136858,1,8,0:0:0:0:
192,96,137025,1,0,0:0:0:0:
192,96,137192,1,8,0:0:0:0:
192,96,137358,1,0,0:0:0:0:
320,96,137442,1,0,0:0:0:0:
192,96,137525,1,8,0:0:0:0:
192,96,137692,1,0,0:0:0:0:
192,96,137858,1,8,0:0:0:0:
320,96,137942,1,8,0:0:0:0:
192,96,138025,1,8,0:0:0:0:
192,96,138192,1,0,0:0:0:0:
192,96,138525,1,8,0:0:0:0:
192,96,138692,1,0,0:0:0:0:
320,96,138775,1,8,0:0:0:0:
192,96,138858,1,0,0:0:0:0:
192,96,139025,1,8,0:0:0:0:
192,96,139192,1,8,0:0:0:0:
192,96,139358,1,8,0:0:0:0:
320,96,139442,1,8,0:0:0:0:
192,96,139525,1,0,0:0:0:0:
192,96,139692,1,0,0:0:0:0:
320,96,139775,1,0,0:0:0:0:
192,96,139858,1,0,0:0:0:0:
192,96,140025,1,0,0:0:0:0:
192,96,140192,1,8,0:0:0:0:
320,96,140275,1,8,0:0:0:0:
192,96,140358,1,8,0:0:0:0:
320,96,140442,1,8,0:0:0:0:
192,96,140525,1,0,0:0:0:0:
320,96,140608,1,0,0:0:0:0:
192,96,140692,1,0,0:0:0:0:
192,96,140858,1,4,0:0:0:0:
192,96,141192,1,8,0:0:0:0:
192,96,141358,1,0,0:0:0:0:
320,96,141442,1,8,0:0:0:0:
192,96,141525,1,0,0:0:0:0:
192,96,141692,1,0,0:0:0:0:
192,96,141858,1,8,0:0:0:0:
192,96,142025,1,8,0:0:0:0:
320,96,142108,1,8,0:0:0:0:
192,96,142192,1,0,0:0:0:0:
192,96,142358,1,0,0:0:0:0:
192,96,142525,1,8,0:0:0:0:
192,96,142692,1,0,0:0:0:0:
320,96,142775,1,0,0:0:0:0:
192,96,142858,1,8,0:0:0:0:
192,96,143025,1,8,0:0:0:0:
192,96,143192,1,0,0:0:0:0:
192,96,143358,1,0,0:0:0:0:
320,96,143442,1,0,0:0:0:0:
192,96,143525,1,0,0:0:0:0:
192,96,143858,1,8,0:0:0:0:
192,96,144025,1,0,0:0:0:0:
320,96,144108,1,8,0:0:0:0:
192,96,144192,1,0,0:0:0:0:
192,96,144358,1,0,0:0:0:0:
192,96,144525,1,8,0:0:0:0:
192,96,144692,1,0,0:0:0:0:
320,96,144775,1,0,0:0:0:0:
192,96,144858,1,8,0:0:0:0:
192,96,145025,1,0,0:0:0:0:
192,96,145192,1,8,0:0:0:0:
192,96,145358,1,8,0:0:0:0:
320,96,145442,1,8,0:0:0:0:
192,96,145525,1,0,0:0:0:0:
320,96,145608,1,0,0:0:0:0:
192,96,145692,1,0,0:0:0:0:
192,96,145858,1,8,0:0:0:0:
192,96,146025,1,0,0:0:0:0:
192,96,146192,1,4,0:0:0:0:
192,96,146525,1,8,0:0:0:0:
192,96,146692,1,0,0:0:0:0:
320,96,146775,1,8,0:0:0:0:
192,96,146858,1,0,0:0:0:0:
192,96,147025,1,0,0:0:0:0:
192,96,147192,1,8,0:0:0:0:
192,96,147358,1,8,0:0:0:0:
320,96,147442,1,8,0:0:0:0:
192,96,147525,1,0,0:0:0:0:
192,96,147692,1,0,0:0:0:0:
192,96,147858,1,8,0:0:0:0:
192,96,148025,1,0,0:0:0:0:
320,96,148108,1,8,0:0:0:0:
192,96,148192,1,0,0:0:0:0:
192,96,148358,1,0,0:0:0:0:
192,96,148525,1,8,0:0:0:0:
192,96,148692,1,0,0:0:0:0:
320,96,148775,1,0,0:0:0:0:
192,96,148858,1,0,0:0:0:0:
192,96,149192,1,8,0:0:0:0:
192,96,149358,1,0,0:0:0:0:
320,96,149442,1,8,0:0:0:0:
192,96,149525,1,0,0:0:0:0:
192,96,149692,1,8,0:0:0:0:
192,96,149858,1,8,0:0:0:0:
192,96,150025,1,0,0:0:0:0:
320,96,150108,1,0,0:0:0:0:
192,96,150192,1,8,0:0:0:0:
192,96,150358,1,0,0:0:0:0:
192,96,150525,1,8,0:0:0:0:
192,96,150692,1,0,0:0:0:0:
192,96,150858,1,0,0:0:0:0:
320,96,150942,1,0,0:0:0:0:
192,96,151025,1,0,0:0:0:0:
320,96,151108,1,0,0:0:0:0:
192,96,151192,1,8,0:0:0:0:
320,96,151275,1,8,0:0:0:0:
192,96,151358,1,8,0:0:0:0:
192,96,151525,1,4,0:0:0:0:
192,96,151858,1,0,0:0:0:0:
192,96,152025,1,8,0:0:0:0:
320,96,152108,1,8,0:0:0:0:
192,96,152192,1,0,0:0:0:0:
192,96,152358,1,8,0:0:0:0:
192,96,152525,1,0,0:0:0:0:
192,96,152692,1,8,0:0:0:0:
192,96,152858,1,0,0:0:0:0:
192,96,153192,1,0,0:0:0:0:
192,96,153358,1,8,0:0:0:0:
320,96,153442,1,8,0:0:0:0:
192,96,153525,1,0,0:0:0:0:
192,96,153692,1,8,0:0:0:0:
192,96,153858,1,0,0:0:0:0:
192,96,154025,1,8,0:0:0:0:
320,96,154108,1,8,0:0:0:0:
192,96,154192,1,0,0:0:0:0:
192,96,154525,1,0,0:0:0:0:
192,96,154692,1,8,0:0:0:0:
320,96,154775,1,8,0:0:0:0:
192,96,154858,1,0,0:0:0:0:
192,96,155025,1,8,0:0:0:0:
192,96,155192,1,0,0:0:0:0:
192,96,155358,1,8,0:0:0:0:
192,96,155525,1,0,0:0:0:0:
192,96,155692,1,0,0:0:0:0:
320,96,155775,1,0,0:0:0:0:
192,96,155858,1,0,0:0:0:0:
192,96,156025,1,0,0:0:0:0:
320,96,156108,1,0,0:0:0:0:
192,96,156192,1,0,0:0:0:0:
320,96,156275,1,0,0:0:0:0:
192,96,156358,1,0,0:0:0:0:
320,96,156442,1,0,0:0:0:0:
192,96,156525,1,8,0:0:0:0:
320,96,156608,1,8,0:0:0:0:
192,96,156692,1,8,0:0:0:0:
192,96,156858,1,4,0:0:0:0:
192,96,158192,1,4,0:0:0:0:
192,96,158358,1,4,0:0:0:0:
192,96,158858,1,4,0:0:0:0:
192,96,159025,1,4,0:0:0:0:
192,96,159192,1,8,0:0:0:0:
320,96,159275,1,8,0:0:0:0:
192,96,159358,1,8,0:0:0:0:
192,96,159525,1,4,0:0:0:0:
192,96,160025,1,4,0:0:0:0:
192,96,160525,1,4,0:0:0:0:
192,96,161025,1,4,0:0:0:0:
192,96,161525,1,4,0:0:0:0:
192,96,161858,1,4,0:0:0:0:
192,96,162192,1,4,0:0:0:0:
192,96,162692,1,4,0:0:0:0:
192,96,163192,1,4,0:0:0:0:
192,96,163692,1,4,0:0:0:0:
192,96,164192,1,4,0:0:0:0:
192,96,164358,1,8,0:0:0:0:
320,96,164442,1,8,0:0:0:0:
192,96,164525,1,0,0:0:0:0:
320,96,164608,1,0,0:0:0:0:
192,96,164692,1,0,0:0:0:0:
192,96,164858,1,4,0:0:0:0:
192,96,165358,1,4,0:0:0:0:
192,96,165858,1,4,0:0:0:0:
192,96,166358,1,4,0:0:0:0:
192,96,166858,1,4,0:0:0:0:
192,96,167192,1,4,0:0:0:0:
192,96,167525,1,0,0:0:0:0:
192,96,167692,1,0,0:0:0:0:
192,96,167858,1,0,0:0:0:0:
192,96,168025,1,0,0:0:0:0:
192,96,168192,1,0,0:0:0:0:
192,96,168358,1,0,0:0:0:0:
192,96,168525,1,0,0:0:0:0:
192,96,168692,1,0,0:0:0:0:
192,96,168858,1,0,0:0:0:0:
192,96,169025,1,0,0:0:0:0:
192,96,169192,1,0,0:0:0:0:
192,96,169358,1,0,0:0:0:0:
192,96,169525,1,0,0:0:0:0:
320,96,169608,1,0,0:0:0:0:
192,96,169692,1,0,0:0:0:0:
320,96,169775,1,0,0:0:0:0:
192,96,169858,1,8,0:0:0:0:
320,96,169942,1,8,0:0:0:0:
192,96,170025,1,8,0:0:0:0:
192,96,170192,1,4,0:0:0:0:
192,96,170525,1,8,0:0:0:0:
320,96,170775,1,0,0:0:0:0:
192,96,170858,1,0,0:0:0:0:
192,96,171025,1,0,0:0:0:0:
192,96,171192,1,8,0:0:0:0:
192,96,171525,1,0,0:0:0:0:
192,96,171858,1,8,0:0:0:0:
320,96,172108,1,0,0:0:0:0:
192,96,172192,1,0,0:0:0:0:
192,96,172358,1,0,0:0:0:0:
192,96,172525,1,8,0:0:0:0:
192,96,172692,1,0,0:0:0:0:
320,96,172775,1,8,0:0:0:0:
192,96,172858,1,0,0:0:0:0:
192,96,173192,1,8,0:0:0:0:
192,96,188858,5,4,0:0:0:0:
192,96,189192,1,0,0:0:0:0:
192,96,189358,1,0,0:0:0:0:
192,96,189525,1,0,0:0:0:0:
192,96,189692,1,0,0:0:0:0:
192,96,189858,1,0,0:0:0:0:
192,96,190025,1,0,0:0:0:0:
192,96,190192,1,0,0:0:0:0:
192,96,190525,1,0,0:0:0:0:
192,96,190692,1,0,0:0:0:0:
192,96,190858,1,0,0:0:0:0:
192,96,191025,1,0,0:0:0:0:
192,96,191192,1,0,0:0:0:0:
192,96,191358,1,0,0:0:0:0:
192,96,191525,1,0,0:0:0:0:
192,96,191858,1,0,0:0:0:0:
192,96,192025,1,0,0:0:0:0:
192,96,192192,1,0,0:0:0:0:
192,96,192358,1,0,0:0:0:0:
192,96,192525,1,0,0:0:0:0:
192,96,192692,1,0,0:0:0:0:
192,96,192858,1,0,0:0:0:0:
192,96,195525,5,4,0:0:0:0:
192,96,197358,1,0,0:0:0:0:
320,96,197442,1,0,0:0:0:0:
192,96,197525,1,8,0:0:0:0:
256,96,197747,1,8,0:0:0:0:
256,96,197970,1,8,0:0:0:0:
192,96,198192,1,4,0:0:0:0:
192,96,200025,1,0,0:0:0:0:
192,96,200192,1,8,0:0:0:0:
192,96,200692,1,0,0:0:0:0:
192,96,200858,1,4,0:0:0:0:
192,96,201525,1,8,0:0:0:0:
192,96,202192,1,0,0:0:0:0:
192,96,202858,1,8,0:0:0:0:
192,96,203358,1,0,0:0:0:0:
192,96,203525,1,0,0:0:0:0:
192,96,204192,1,8,0:0:0:0:
192,96,204692,1,0,0:0:0:0:
192,96,204858,1,0,0:0:0:0:
192,96,205025,1,8,0:0:0:0:
192,96,205192,1,8,0:0:0:0:
192,96,205358,1,0,0:0:0:0:
192,96,205525,1,8,0:0:0:0:
192,96,205692,1,8,0:0:0:0:
192,96,205858,1,0,0:0:0:0:
192,96,206025,1,0,0:0:0:0:
192,96,206192,1,4,0:0:0:0:
192,96,206525,1,0,0:0:0:0:
192,96,206692,1,8,0:0:0:0:
192,96,206858,1,0,0:0:0:0:
192,96,207025,1,8,0:0:0:0:
192,96,207192,1,0,0:0:0:0:
192,96,207358,1,8,0:0:0:0:
320,96,207442,1,8,0:0:0:0:
192,96,207525,1,0,0:0:0:0:
192,96,207858,1,0,0:0:0:0:
192,96,208025,1,8,0:0:0:0:
192,96,208192,1,0,0:0:0:0:
192,96,208358,1,8,0:0:0:0:
192,96,208525,1,0,0:0:0:0:
320,96,208608,1,0,0:0:0:0:
192,96,208692,1,8,0:0:0:0:
192,96,208858,1,0,0:0:0:0:
192,96,209192,1,0,0:0:0:0:
192,96,209358,1,8,0:0:0:0:
192,96,209525,1,0,0:0:0:0:
192,96,209692,1,8,0:0:0:0:
192,96,209858,1,0,0:0:0:0:
192,96,210025,1,8,0:0:0:0:
320,96,210108,1,8,0:0:0:0:
192,96,210192,1,0,0:0:0:0:
192,96,210525,1,0,0:0:0:0:
192,96,210692,1,8,0:0:0:0:
192,96,210858,1,0,0:0:0:0:
192,96,211025,1,8,0:0:0:0:
192,96,211192,1,0,0:0:0:0:
320,96,211275,1,0,0:0:0:0:
192,96,211358,1,8,0:0:0:0:
192,96,211525,1,4,0:0:0:0:
192,96,211858,1,0,0:0:0:0:
192,96,212025,1,0,0:0:0:0:
192,96,212192,1,0,0:0:0:0:
192,96,212358,1,0,0:0:0:0:
192,96,212525,1,0,0:0:0:0:
192,96,212692,1,0,0:0:0:0:
320,96,212775,1,0,0:0:0:0:
192,96,212858,1,0,0:0:0:0:
192,96,213025,1,0,0:0:0:0:
320,96,213108,1,0,0:0:0:0:
192,96,213192,1,0,0:0:0:0:
192,96,213358,1,0,0:0:0:0:
320,96,213442,1,0,0:0:0:0:
192,96,213525,1,0,0:0:0:0:
192,96,213692,1,0,0:0:0:0:
320,96,213775,1,0,0:0:0:0:
192,96,213858,1,0,0:0:0:0:
192,96,214025,1,0,0:0:0:0:
320,96,214108,1,0,0:0:0:0:
192,96,214192,1,0,0:0:0:0:
320,96,214275,1,0,0:0:0:0:
192,96,214358,1,0,0:0:0:0:
320,96,214442,1,0,0:0:0:0:
192,96,214525,1,0,0:0:0:0:
320,96,214608,1,0,0:0:0:0:
192,96,214692,1,0,0:0:0:0:
320,96,214775,1,0,0:0:0:0:
192,96,214858,1,0,0:0:0:0:
320,96,214942,1,0,0:0:0:0:
192,96,215025,1,0,0:0:0:0:
320,96,215108,1,0,0:0:0:0:
192,96,215192,1,0,0:0:0:0:
320,96,215275,1,0,0:0:0:0:
192,96,215358,1,0,0:0:0:0:
192,96,215525,1,12,0:0:0:0:
192,96,216192,1,8,0:0:0:0:
320,96,216275,1,8,0:0:0:0:
192,96,216358,1,8,0:0:0:0:
320,96,216442,1,8,0:0:0:0:
192,96,216525,1,8,0:0:0:0:
320,96,216608,1,8,0:0:0:0:
192,96,216692,1,8,0:0:0:0:
192,96,216858,1,4,0:0:0:0:
192,96,217192,1,8,0:0:0:0:
320,96,217358,1,0,0:0:0:0:
320,96,217442,1,8,0:0:0:0:
192,96,217525,1,0,0:0:0:0:
192,96,217692,1,0,0:0:0:0:
192,96,217858,1,8,0:0:0:0:
192,96,218025,1,0,0:0:0:0:
320,96,218108,1,0,0:0:0:0:
192,96,218192,1,0,0:0:0:0:
192,96,218358,1,0,0:0:0:0:
192,96,218525,1,8,0:0:0:0:
320,96,218608,1,0,0:0:0:0:
192,96,218692,1,8,0:0:0:0:
192,96,218858,1,0,0:0:0:0:
192,96,219025,1,0,0:0:0:0:
320,96,219108,1,0,0:0:0:0:
192,96,219192,1,8,0:0:0:0:
192,96,219358,1,0,0:0:0:0:
192,96,219525,1,0,0:0:0:0:
192,96,219858,1,0,0:0:0:0:
192,96,220025,1,0,0:0:0:0:
192,96,220192,1,0,0:0:0:0:
192,96,220358,1,0,0:0:0:0:
192,96,220525,1,0,0:0:0:0:
192,96,220692,1,0,0:0:0:0:
