osu file format v13

[General]
AudioFilename: merry.mp3
AudioLeadIn: 0
PreviewTime: 49115
Countdown: 0
SampleSet: None
StackLeniency: 0.7
Mode: 0
LetterboxInBreaks: 0
EpilepsyWarning: 1
WidescreenStoryboard: 0

[Editor]
DistanceSpacing: 1.5
BeatDivisor: 4
GridSize: 4
TimelineZoom: 1

[Metadata]
Title:Merry Merry album ver.
TitleUnicode:メリーメリー álbum ver.
Artist:Kano
ArtistUnicode:鹿乃
Creator:El SolarBeam
Version:Normal
Source:
Tags:IchiokuenP dezzy utaite vocaloid hatsune miku ts8zs lavander Aru Machi no Hakuchuumu 或る街の白昼夢
BeatmapID:473831
BeatmapSetID:166596

[Difficulty]
HPDrainRate:4
CircleSize:3
OverallDifficulty:4
ApproachRate:5
SliderMultiplier:1.5
SliderTickRate:2

[Events]
//Background and Video events
0,0,"bg.jpg",0,0
//Break Periods
2,46113,47941
2,158023,160668
2,183978,184938
//Storyboard Layer 0 (Background)
//Storyboard Layer 1 (Fail)
//Storyboard Layer 2 (Pass)
//Storyboard Layer 3 (Foreground)
Sprite,Foreground,Centre,"lyrics\creator.png",320,240 S,0,221761,,0.7770321 M,0,221761,221873,133,158,244,158 F,0,221761,221873,0,1 F,0,221873,225244,1 M,0,221873,225918,244,158,358,158 F,0,225244,225918,1,0
//Storyboard Sound Samples
//Background Colour Transformations
3,100,163,162,255

[TimingPoints]
2093,674.157303370787,4,2,1,40,1,0
12879,-100,4,2,1,45,0,0
23666,-100,4,2,1,50,0,0
34452,-100,4,2,1,55,0,0
44565,-100,4,2,1,45,0,0
45913,-100,4,2,1,35,0,0
49284,-100,4,2,1,60,0,1
49958,-100,4,2,2,60,0,1
50295,-100,4,2,1,60,0,1
51306,-100,4,2,2,60,0,1
51643,-100,4,2,1,60,0,1
52655,-100,4,2,2,60,0,1
55351,-100,4,2,2,60,0,1
56025,-100,4,2,1,60,0,1
56700,-100,4,2,2,60,0,1
57037,-100,4,2,1,60,0,1
58048,-100,4,2,2,60,0,1
58385,-100,4,2,1,60,0,1
60745,-100,4,2,2,60,0,1
61082,-100,4,2,1,60,0,1
62093,-100,4,2,2,60,0,1
62430,-100,4,2,1,60,0,1
63441,-100,4,2,2,60,0,1
65127,-100,4,2,1,60,0,1
66138,-100,4,2,2,60,0,1
66812,-100,4,2,1,60,0,1
67486,-100,4,2,2,60,0,1
67823,-100,4,2,1,60,0,1
68834,-100,4,2,2,60,0,1
69509,-100,4,2,1,60,0,1
70857,-100,4,2,1,60,0,0
75576,-100,4,2,1,50,0,0
76250,-100,4,2,1,40,0,0
76924,-100,4,2,1,30,0,0
77598,-100,4,2,1,55,0,0
83666,-100,4,2,2,55,0,0
84003,-100,4,2,1,55,0,0
85014,-100,4,2,2,55,0,0
85688,-100,4,2,1,55,0,0
86362,-100,4,2,2,55,0,0
86700,-100,4,2,1,55,0,0
88048,-100,4,2,2,55,0,0
88385,-100,4,2,1,55,0,0
91756,-100,4,2,2,55,0,0
92093,-100,4,2,1,55,0,0
92430,-100,4,2,2,55,0,0
92767,-100,4,2,1,60,0,0
93104,-100,4,2,2,60,0,0
93441,-100,4,2,1,60,0,0
93778,-100,4,2,1,45,0,0
104565,-100,4,2,1,40,0,0
107261,-100,4,2,1,45,0,0
109958,-100,4,2,1,55,0,0
111306,-100,4,2,1,40,0,0
115351,-100,4,2,1,60,0,1
116025,-100,4,2,2,60,0,1
116362,-100,4,2,1,60,0,1
117374,-100,4,2,2,60,0,1
117711,-100,4,2,1,60,0,1
118722,-100,4,2,2,60,0,1
119059,-100,4,2,1,60,0,1
120070,-100,4,2,2,60,0,1
120745,-100,4,2,1,60,0,1
121419,-100,4,2,2,60,0,1
121756,-100,4,2,1,60,0,1
122767,-100,4,2,2,60,0,1
123441,-100,4,2,1,60,0,1
124115,-100,4,2,2,60,0,1
124452,-100,4,2,1,60,0,1
126812,-100,4,2,2,60,0,1
127149,-100,4,2,1,60,0,1
128160,-100,4,2,2,60,0,1
128834,-100,4,2,1,60,0,1
129509,-100,4,2,2,60,0,1
130183,-100,4,2,1,60,0,1
130857,-100,4,2,2,60,0,1
131194,-100,4,2,1,60,0,1
132205,-100,4,2,2,60,0,1
132542,-100,4,2,1,60,0,1
133553,-100,4,2,2,60,0,1
134228,-100,4,2,1,60,0,1
134902,-100,4,2,2,60,0,1
135239,-100,4,2,1,60,0,1
136250,-100,4,2,2,60,0,1
136924,-100,4,2,1,55,0,0
137598,-100,4,2,2,55,0,0
137936,-100,4,2,1,55,0,0
138947,-100,4,2,2,55,0,0
139621,-100,4,2,1,55,0,0
140295,-100,4,2,2,55,0,0
140632,-100,4,2,1,55,0,0
141643,-100,4,2,2,55,0,0
142318,-100,4,2,1,55,0,0
142992,-100,4,2,2,55,0,0
143329,-100,4,2,1,55,0,0
144340,-100,4,2,2,55,0,0
145014,-100,4,2,1,55,0,0
145688,-100,4,2,2,55,0,0
146362,-100,4,2,1,55,0,0
148385,-100,4,2,2,55,0,0
148722,-100,4,2,1,55,0,0
149733,-100,4,2,2,55,0,0
150407,-100,4,2,1,55,0,0
151082,-100,4,2,2,55,0,0
151419,-100,4,2,1,55,0,0
152430,-100,4,2,2,55,0,0
153104,-100,4,2,1,55,0,0
153778,-100,4,2,2,55,0,0
154115,-100,4,2,1,55,0,0
155127,-100,4,2,2,55,0,0
155801,-100,4,2,1,55,0,0
156475,-100,4,2,1,50,0,0
157149,-100,4,2,1,45,0,0
157823,-100,4,2,1,20,0,0
173329,-100,4,2,1,30,0,0
186812,-100,4,2,1,60,0,1
187486,-100,4,2,2,60,0,1
187823,-100,4,2,1,60,0,1
188834,-100,4,2,2,60,0,1
189171,-100,4,2,1,60,0,1
190183,-100,4,2,2,60,0,1
191868,-100,4,2,1,60,0,1
192879,-100,4,2,2,60,0,1
193216,-100,4,2,1,60,0,1
194228,-100,4,2,2,60,0,1
194565,-100,4,2,1,60,0,1
195576,-100,4,2,2,60,0,1
196250,-100,4,2,1,60,0,1
196924,-100,4,2,2,60,0,1
197261,-100,4,2,1,60,0,1
198273,-100,4,2,2,60,0,1
198610,-100,4,2,1,60,0,1
199621,-100,4,2,2,60,0,1
199958,-100,4,2,1,60,0,1
200969,-100,4,2,2,60,0,1
201306,-100,4,2,1,60,0,1
202318,-100,4,2,2,60,0,1
202992,-100,4,2,1,60,0,1
203666,-100,4,2,2,60,0,1
204003,-100,4,2,1,60,0,1
205014,-100,4,2,2,60,0,1
205688,-100,4,2,1,60,0,1
206362,-100,4,2,2,60,0,1
206700,-100,4,2,1,60,0,1
207711,-100,4,2,2,60,0,1
208048,-100,4,2,2,60,0,1
208385,-100,4,2,1,60,0,0
213104,-100,4,2,1,50,0,0
213778,-100,4,2,1,40,0,0
214452,-100,4,2,1,30,0,0
215127,-100,4,2,1,55,0,0
220520,-100,4,2,1,60,0,0
221194,-100,4,2,2,60,0,0
221868,-100,4,2,1,60,0,0
222542,-100,4,2,2,60,0,0
223216,-100,4,2,1,60,0,0
223891,-100,4,2,2,60,0,0
224565,-100,4,2,1,60,0,0
225239,-100,4,2,2,60,0,0
225576,-100,4,2,1,60,0,0
226587,-100,4,2,2,60,0,0
230295,-100,4,2,1,60,0,0
231980,-100,4,2,2,60,0,0
232318,-100,4,2,1,60,0,0
233329,-100,4,2,2,60,0,0
233666,-100,4,2,1,60,0,0
242093,-100,4,2,1,30,0,0

[Colours]
Combo1 : 255,171,182
Combo2 : 249,178,113
Combo3 : 114,196,255
SliderBorder : 244,241,255

[HitObjects]
136,324,1250,6,0,L|188:324,1,37.5
224,300,1587,2,0,L|276:300,1,37.5
312,276,1924,1,0,0:0:0:0:
312,276,2093,2,0,P|333:206|316:133,2,150,2|2|0,0:0|0:0|0:0,0:0:0:0:
408,144,3947,6,0,L|356:144,1,37.5
316,132,4284,2,0,L|264:132,1,37.5
224,124,4621,1,0,0:0:0:0:
224,124,4789,2,0,P|202:196|223:266,2,150,0|2|0,0:0|0:0|0:0,0:0:0:0:
88,306,6812,6,0,P|73:270|77:231,1,75,0|2,0:0|0:0,0:0:0:0:
184,256,7486,2,0,P|254:241|294:171,1,150,0|2,0:0|0:0,0:0:0:0:
76,216,8834,2,0,P|70:290|117:350,1,150,0|2,0:0|0:0,0:0:0:0:
192,144,10183,6,0,P|140:92|63:89,1,150,0|2,0:0|0:0,0:0:0:0:
88,196,11194,1,0,0:0:0:0:
172,272,11531,2,0,P|208:282|243:271,1,75,2|0,0:0|0:0,0:0:0:0:
292,164,12205,2,0,P|327:152|364:162,1,75,2|0,0:0|0:0,0:0:0:0:
468,120,12879,6,0,P|489:193|468:265,1,150,0|2,0:0|0:0,0:0:0:0:
244,268,14228,2,0,P|222:197|244:124,1,150,0|2,0:0|0:0,0:0:0:0:
304,32,15239,1,0,0:0:0:0:
192,40,15576,2,0,B|148:56|111:38|111:38|70:44|50:70,1,150,0|2,0:0|0:0,0:0:0:0:
32,180,16587,1,0,0:0:0:0:
96,272,16924,6,0,P|141:211|136:138,2,150,0|2|0,0:0|0:0|0:0,0:0:0:0:
172,356,18610,1,0,0:0:0:0:
284,340,18947,1,2,0:0:0:0:
312,232,19284,1,0,0:0:0:0:
204,268,19621,2,0,B|191:221|212:180|212:180|216:151|202:118,1,150,0|2,0:0|0:0,0:0:0:0:
288,44,20632,1,0,0:0:0:0:
336,148,20969,6,0,P|403:177|474:150,2,150,0|2|0,0:0|0:0|0:0,0:0:0:0:
224,172,22655,2,0,P|206:208|206:246,1,75,0|2,0:0|0:0,0:0:0:0:
264,336,23329,1,0,0:0:0:0:
364,284,23666,6,0,P|390:215|368:142,1,150,0|2,0:0|0:0,0:0:0:0:
280,76,24677,1,0,0:0:0:0:
224,172,25014,2,0,P|154:198|84:176,1,150,0|2,0:0|0:0,0:0:0:0:
152,88,26025,1,0,0:0:0:0:
224,172,26362,2,0,B|236:218|216:256|216:256|221:292|251:313,1,150,0|2,0:0|0:0,0:0:0:0:
352,356,27374,1,0,0:0:0:0:
416,264,27711,6,0,L|432:184,1,75,2|0,0:0|0:0,0:0:0:0:
324,160,28385,2,0,L|303:85,1,75,2|0,0:0|0:0,0:0:0:0:
196,124,29059,2,0,P|127:153|59:126,2,150,0|2|0,0:0|0:0|0:0,0:0:0:0:
288,60,30745,2,0,P|318:81|335:118,1,75,0|2,0:0|0:0,0:0:0:0:
348,228,31419,1,0,0:0:0:0:
276,312,31756,6,0,B|236:294|196:308|196:308|157:296|145:261,2,150,0|2|0,0:0|0:0|0:0,0:0:0:0:
384,336,33441,2,0,P|401:302|399:262,2,75,0|2|0,0:0|0:0|0:0,0:0:0:0:
296,264,34452,6,0,P|297:224|312:191,1,75
412,152,35127,2,0,P|363:96|288:87,1,150,2|0,0:0|0:0,0:0:0:0:
204,152,36138,1,0,0:0:0:0:
102,192,36475,6,0,P|149:248|224:258,1,150,2|0,0:0|0:0,0:0:0:0:
312,188,37486,1,0,0:0:0:0:
204,152,37823,2,0,B|221:104|264:84|264:84|264:53|290:37,1,150,2|0,0:0|0:0,0:0:0:0:
392,80,38834,1,0,0:0:0:0:
464,164,39171,6,0,P|455:237|400:285,1,150,2|0,0:0|0:0,0:0:0:0:
304,224,40183,1,0,0:0:0:0:
248,320,40520,2,0,P|179:294|105:316,2,150,2|0|2,0:0|0:0|0:0,0:0:0:0:
284,100,42542,6,0,P|307:172|286:244,1,150,0|2,0:0|0:0,0:0:0:0:
256,192,43553,12,0,45913,0:0:0:0:
88,280,49284,6,0,P|72:211|97:138,1,150,12|8,0:0|0:0,0:0:0:0:
180,64,50295,1,0,0:0:0:0:
220,168,50632,2,0,P|290:189|361:164,1,150,0|8,0:0|0:0,0:0:0:0:
452,100,51643,1,0,0:0:0:0:
464,212,51980,2,0,L|453:288,1,75,8|8,0:0|0:0,0:0:0:0:
348,328,52655,2,0,P|279:351|207:328,2,150,8|0|8,0:0|0:0|0:0,0:0:0:0:
296,108,54677,6,0,P|265:176|276:249,2,150,4|8|0,0:0|0:0|0:0,0:0:0:0:
192,68,56362,2,0,L|120:108,2,75,8|8|0,0:0|0:0|0:0,0:0:0:0:
280,140,57374,2,0,P|348:163|422:142,1,150,8|8,0:0|0:0,0:0:0:0:
468,40,58385,1,0,0:0:0:0:
420,144,58722,2,0,P|412:182|423:220,1,75,2|8,0:0|0:0,0:0:0:0:
321,264,59396,2,0,P|338:300|372:319,1,75,2|8,0:0|0:0,0:0:0:0:
420,216,60070,6,0,P|366:165|287:167,1,150,12|8,0:0|0:0,0:0:0:0:
200,232,61082,1,0,0:0:0:0:
136,328,61419,2,0,P|89:271|91:196,1,150,0|8,0:0|0:0,0:0:0:0:
176,124,62430,2,0,P|186:92|179:52,2,75,0|8|8,0:0|0:0|0:0,0:0:0:0:
200,232,63441,2,0,P|274:244|338:208,2,150,8|2|8,0:0|0:0|0:0,0:0:0:0:
112,164,65127,1,0,0:0:0:0:
176,72,65464,6,0,P|241:37|313:48,2,150,4|8|0,0:0|0:0|0:0,0:0:0:0:
228,172,67149,2,0,P|246:208|243:246,1,75,8|8,0:0|0:0,0:0:0:0:
352,276,67823,2,0,P|347:314|322:344,1,75,0|8,0:0|0:0,0:0:0:0:
212,340,68497,1,8,0:0:0:0:
108,292,68834,2,0,B|92:248|116:200|116:200|110:162|84:140,2,150,8|8|4,0:0|0:0|0:0,0:0:0:0:
216,256,70520,1,0,0:0:0:0:
248,152,70857,6,0,P|307:198|323:273,2,150,4|8|0,0:0|0:0|0:0,0:0:0:0:
140,184,72542,2,0,P|104:176|76:151,2,75,0|8|0,0:0|0:0|0:0,0:0:0:0:
228,252,73553,2,0,P|299:229|370:255,1,150,12|8,0:0|0:0,0:0:0:0:
460,316,74565,1,2,0:0:0:0:
256,192,74902,12,0,76924,0:0:0:0:
144,252,77598,6,0,P|118:279|106:315,2,75,12|0|0,0:0|0:0|0:0,0:0:0:0:
256,272,78610,2,0,P|296:273|328:251,2,75
220,164,79621,2,0,P|228:131|219:91,2,75,0|0|12,0:0|0:0|0:0,0:0:0:0:
112,192,80632,2,0,P|101:229|111:268,1,75
192,340,81306,2,0,P|231:350|266:342,1,75,0|8,0:0|0:0,0:0:0:0:
344,268,81980,2,0,P|354:232|345:195,1,75,8|0,0:0|0:0,0:0:0:0:
284,100,82655,1,0,0:0:0:0:
232,196,82992,6,0,P|157:215|89:178,1,150,6|8,0:0|0:0,0:0:0:0:
171,106,84003,1,0,0:0:0:0:
284,100,84340,2,0,P|332:159|331:231,1,150,2|8,0:0|0:0,0:0:0:0:
124,308,85688,6,0,P|74:253|73:180,1,150,2|8,0:0|0:0,0:0:0:0:
180,212,86700,1,0,0:0:0:0:
256,296,87037,2,0,P|292:309|328:304,1,75,2|0,0:0|0:0,0:0:0:0:
360,196,87711,2,0,P|394:182|415:149,1,75,0|8,0:0|0:0,0:0:0:0:
256,192,88385,12,0,91082,0:0:0:0:
256,192,91756,5,8,0:0:0:0:
356,240,92093,2,0,P|350:277|325:306,1,75,8|8,0:0|0:0,0:0:0:0:
220,336,92767,2,0,P|181:326|145:335,1,75,8|8,0:0|0:0,0:0:0:0:
52,276,93441,1,8,0:0:0:0:
148,216,93778,6,0,P|176:149|157:75,3,150,12|2|0|2,0:0|0:0|0:0|0:0,0:0:0:0:
64,140,96138,1,0,0:0:0:0:
148,216,96475,2,0,P|220:198|295:220,1,150,8|2,0:0|0:0,0:0:0:0:
360,308,97486,1,0,0:0:0:0:
428,220,97823,2,0,P|445:188|445:145,1,75,0|8,0:0|0:0,0:0:0:0:
340,116,98497,2,0,P|332:81|309:48,1,75,2|0,0:0|0:0,0:0:0:0:
228,128,99171,6,0,P|203:198|220:273,2,150,12|2|0,0:0|0:0|0:0,0:0:0:0:
320,60,100857,1,8,0:0:0:0:
384,152,101194,1,2,0:0:0:0:
292,216,101531,1,0,0:0:0:0:
224,128,101868,6,0,L|144:152,1,75,8|0,0:0|0:0,0:0:0:0:
112,256,102542,2,0,L|188:228,1,75,2|0,0:0|0:0,0:0:0:0:
292,216,103216,2,0,L|344:316,1,75,0|8,0:0|0:0,0:0:0:0:
436,304,103891,2,0,L|400:236,1,75,2|2,0:0|0:0,0:0:0:0:
428,128,104565,6,0,B|359:100|359:100|285:115,1,150,6|0,0:0|0:0,0:0:0:0:
200,184,105576,1,0,0:0:0:0:
108,244,105913,2,0,B|68:180|68:180|77:102,1,150
188,104,106924,2,0,L|248:52,1,75,0|4,0:0|0:0,0:0:0:0:
356,72,107598,1,0,0:0:0:0:
428,160,107936,1,0,0:0:0:0:
392,268,108273,1,0,0:0:0:0:
292,320,108610,6,0,P|221:299|147:320,2,150,0|0|10,0:0|0:0|0:0,0:0:0:0:
220,108,110632,1,10,0:0:0:0:
116,308,111306,2,0,P|85:241|96:166,2,150
264,136,113329,2,0,P|300:200|289:277,2,150,0|0|8,0:0|0:0|0:0,0:0:0:0:
64,236,115351,6,0,P|137:249|208:219,1,150,12|8,0:0|0:0,0:0:0:0:
256,120,116362,1,0,0:0:0:0:
332,200,116700,2,0,L|312:352,1,150,0|8,0:0|0:0,0:0:0:0:
216,292,117711,1,0,0:0:0:0:
140,208,118048,2,0,P|125:175|128:135,1,75,8|8,0:0|0:0,0:0:0:0:
232,100,118722,2,0,P|245:66|274:38,1,75,8|0,0:0|0:0,0:0:0:0:
360,108,119396,2,0,P|394:93|431:97,1,75,0|8,0:0|0:0,0:0:0:0:
388,200,120070,6,0,P|316:192|268:135,1,150,8|4,0:0|0:0,0:0:0:0:
184,60,121082,1,0,0:0:0:0:
104,140,121419,1,8,0:0:0:0:
152,240,121756,1,0,0:0:0:0:
236,164,122093,2,0,P|309:175|363:226,2,150,0|8|8,0:0|0:0|0:0,0:0:0:0:
152,240,123778,2,0,P|128:215|123:174,2,75,8|8|0,0:0|0:0|0:0,0:0:0:0:
252,288,124789,2,0,P|288:280|316:256,1,75,2|8,0:0|0:0,0:0:0:0:
364,156,125464,2,0,P|356:119|332:91,1,75,2|8,0:0|0:0,0:0:0:0:
256,172,126138,6,0,P|270:244|336:283,1,150,12|8,0:0|0:0,0:0:0:0:
424,348,127149,2,0,P|456:333|499:333,2,75,0|0|8,0:0|0:0|0:0,0:0:0:0:
320,304,128160,2,0,P|249:326|179:299,1,150,8|8,0:0|0:0,0:0:0:0:
252,216,129171,1,0,0:0:0:0:
154,165,129509,2,0,P|145:238|184:304,2,150,8|0|8,0:0|0:0|0:0,0:0:0:0:
252,104,131194,1,0,0:0:0:0:
252,216,131531,6,0,P|289:213|321:193,1,75,12|0,0:0|0:0,0:0:0:0:
364,88,132205,2,0,P|394:68|432:64,1,75,8|0,0:0|0:0,0:0:0:0:
432,176,132879,2,0,P|454:246|426:318,2,150,2|8|8,0:0|0:0|0:0,0:0:0:0:
344,244,134565,2,0,P|307:259|271:256,1,75,8|8,0:0|0:0,0:0:0:0:
288,148,135239,1,0,0:0:0:0:
200,80,135576,6,0,P|177:151|202:220,2,150,8|8|4,0:0|0:0|0:0,0:0:0:0:
308,56,137261,2,0,L|392:76,2,75,8|8|0,0:0|0:0|0:0,0:0:0:0:
212,116,138273,2,0,L|120:144,1,75,0|8,0:0|0:0,0:0:0:0:
52,208,138947,6,0,B|81:246|133:251|133:251|156:271|166:302,1,150,8|8,0:0|0:0,0:0:0:0:
264,344,139958,2,0,P|299:335|344:344,1,75,8|8,0:0|0:0,0:0:0:0:
440,300,140632,2,0,P|444:263|434:226,2,75,0|8|8,0:0|0:0|0:0,0:0:0:0:
332,268,141643,6,0,P|305:198|325:125,1,150,8|4,0:0|0:0,0:0:0:0:
416,192,142655,1,0,0:0:0:0:
332,268,142992,2,0,P|295:284|258:283,1,75,8|0,0:0|0:0,0:0:0:0:
156,236,143666,1,0,0:0:0:0:
248,172,144003,1,8,0:0:0:0:
260,284,144340,6,0,P|210:338|136:348,1,150,8|8,0:0|0:0,0:0:0:0:
36,300,145351,1,8,0:0:0:0:
56,196,145688,2,0,P|103:141|177:131,1,150,8|0,0:0|0:0,0:0:0:0:
276,184,146700,1,0,0:0:0:0:
336,280,147037,2,0,P|372:288|424:272,1,75,8|8,0:0|0:0,0:0:0:0:
480,196,147711,6,0,P|488:160|472:108,1,75,4|8,0:0|0:0,0:0:0:0:
404,40,148385,2,0,P|368:32|316:48,1,75,8|0,0:0|0:0,0:0:0:0:
240,108,149059,2,0,P|192:116|140:96,1,75,0|8,0:0|0:0,0:0:0:0:
68,60,149733,6,0,P|45:132|70:206,1,150,8|8,0:0|0:0,0:0:0:0:
180,220,150745,2,0,P|191:253|183:293,2,75,8|8|0,0:0|0:0|0:0,0:0:0:0:
152,112,151756,2,0,P|223:95|296:115,1,150,8|8,0:0|0:0,0:0:0:0:
352,332,153104,6,0,P|364:296|360:248,1,75,12|0,0:0|0:0,0:0:0:0:
452,192,153778,2,0,P|439:156|406:120,1,75,8|0,0:0|0:0,0:0:0:0:
308,92,154452,2,0,P|272:104|236:137,1,75,8|0,0:0|0:0,0:0:0:0:
216,236,155127,1,12,0:0:0:0:
256,192,155801,12,0,157823,0:0:0:0:
256,192,161868,5,0,0:0:0:0:
116,136,162542,2,0,P|108:212|140:284,1,150,2|0,0:0|0:0,0:0:0:0:
256,192,163891,2,0,P|325:216|399:200,1,150,2|0,0:0|0:0,0:0:0:0:
336,72,165239,1,2,0:0:0:0:
200,136,165913,2,0,B|160:188|196:240|196:240|194:266|184:286,1,150,0|2,0:0|0:0,0:0:0:0:
308,356,167261,6,0,B|352:336|392:352|392:352|432:332|448:284,1,150,0|2,0:0|0:0,0:0:0:0:
396,164,168610,1,0,0:0:0:0:
312,288,169284,2,0,P|261:235|253:147,1,150,2|0,0:0|0:0,0:0:0:0:
388,100,170632,2,0,P|440:155|446:240,1,150,2|0,0:0|0:0,0:0:0:0:
312,288,171980,2,0,B|252:248|164:288|164:288|100:244|128:152,1,300,2|0,0:0|0:0,0:0:0:0:
332,72,174003,6,0,P|343:108|337:147,1,75,2|0,0:0|0:0,0:0:0:0:
292,244,174677,1,0,0:0:0:0:
76,308,175351,2,0,P|65:269|72:233,1,75,2|0,0:0|0:0,0:0:0:0:
116,136,176025,1,0,0:0:0:0:
320,232,176700,2,0,P|287:246|247:244,1,75,2|0,0:0|0:0,0:0:0:0:
140,228,177374,1,0,0:0:0:0:
272,48,178048,2,0,P|284:108|264:152,1,75,0|2,0:0|0:0,0:0:0:0:
220,216,178722,6,0,B|280:248|336:216|336:216|392:228|416:276,1,225
316,324,180070,1,0,0:0:0:0:
140,180,180745,1,0,0:0:0:0:
352,104,181419,1,0,0:0:0:0:
256,192,183441,6,0,L|256:155,2,37.5,2|2|0,0:0|0:0|0:0,0:0:0:0:
256,192,186138,5,8,0:0:0:0:
60,304,186812,6,0,P|132:286|205:311,1,150,12|8,0:0|0:0,0:0:0:0:
304,352,187823,1,0,0:0:0:0:
340,248,188160,2,0,L|380:92,1,150,0|8,0:0|0:0,0:0:0:0:
284,40,189171,1,0,0:0:0:0:
192,108,189509,1,8,0:0:0:0:
236,208,189846,1,8,0:0:0:0:
332,152,190183,2,0,P|346:225|309:291,2,150,8|2|8,0:0|0:0|0:0,0:0:0:0:
256,68,191868,1,0,0:0:0:0:
232,176,192205,6,0,P|194:160|165:122,1,75,4|0,0:0|0:0,0:0:0:0:
68,176,192879,2,0,P|48:141|48:92,2,75,8|0|0,0:0|0:0|0:0,0:0:0:0:
144,260,193891,2,0,P|185:252|221:263,1,75,8|8,0:0|0:0,0:0:0:0:
300,336,194565,1,0,0:0:0:0:
356,240,194902,2,0,P|372:169|340:100,2,150,8|8|8,0:0|0:0|0:0,0:0:0:0:
260,180,196587,1,8,0:0:0:0:
164,120,196924,1,8,0:0:0:0:
88,204,197261,1,8,0:0:0:0:
180,268,197598,6,0,P|251:297|322:280,1,150,12|8,0:0|0:0,0:0:0:0:
416,340,198610,1,0,0:0:0:0:
404,228,198947,2,0,L|392:72,1,150,0|8,0:0|0:0,0:0:0:0:
292,128,199958,1,0,0:0:0:0:
192,180,200295,2,0,P|221:218|254:231,1,75,8|8,0:0|0:0,0:0:0:0:
236,340,200969,2,0,P|275:350|312:342,1,75,8|0,0:0|0:0,0:0:0:0:
400,280,201643,6,0,P|417:208|394:138,2,150,0|8|4,0:0|0:0|0:0,0:0:0:0:
300,332,203329,1,0,0:0:0:0:
196,296,203666,2,0,L|120:260,1,75,8|0,0:0|0:0,0:0:0:0:
152,152,204340,2,0,L|111:79,1,75,2|8,0:0|0:0,0:0:0:0:
228,88,205014,6,0,B|268:152|268:152|338:125,1,150,8|8,0:0|0:0,0:0:0:0:
424,200,206025,2,0,L|328:244,1,75,8|8,0:0|0:0,0:0:0:0:
268,304,206700,2,0,P|224:300|190:310,1,75,0|8,0:0|0:0,0:0:0:0:
92,352,207374,1,4,0:0:0:0:
72,240,207711,1,8,0:0:0:0:
172,184,208048,1,8,0:0:0:0:
284,204,208385,6,0,P|325:198|352:177,2,75,12|0|8,0:0|0:0|0:0,0:0:0:0:
172,184,209396,2,0,P|140:208|123:238,2,75,0|8|0,0:0|0:0|0:0,0:0:0:0:
220,284,210407,2,0,P|236:318|270:340,2,75,8|0|8,0:0|0:0|0:0,0:0:0:0:
172,184,211419,5,8,0:0:0:0:
228,84,211756,1,4,0:0:0:0:
332,128,212093,1,4,0:0:0:0:
256,192,212430,12,0,214452,0:0:0:0:
64,52,215127,6,0,P|53:87|57:127,1,75,12|0,0:0|0:0,0:0:0:0:
160,164,215801,2,0,P|174:201|204:224,1,75
220,332,216475,2,0,P|252:344|293:340,1,75
344,240,217149,2,0,P|378:225|402:195,1,75
308,132,217823,6,0,L|220:88,2,75,12|0|0,0:0|0:0|0:0,0:0:0:0:
212,192,218834,2,0,L|132:232,2,75
280,280,219846,6,0,B|316:268|328:212|328:212|361:192|390:199,1,150,0|12,0:0|0:0,0:0:0:0:
480,264,220857,1,8,0:0:0:0:
492,152,221194,2,0,P|461:84|394:48,1,150,8|0,0:0|0:0,0:0:0:0:
380,160,222205,1,8,0:0:0:0:
360,271,222542,2,0,P|296:235|268:168,1,150,8|0,0:0|0:0,0:0:0:0:
280,56,223553,5,0,0:0:0:0:
176,104,223891,2,0,B|124:108|100:148|100:148|106:185|88:213,1,150,8|0,0:0|0:0,0:0:0:0:
132,308,224902,1,8,0:0:0:0:
236,268,225239,1,8,0:0:0:0:
340,308,225576,1,0,0:0:0:0:
444,268,225913,6,0,P|450:233|440:195,1,75,8|0,0:0|0:0,0:0:0:0:
376,104,226587,2,0,P|306:80|235:108,2,150,8|0|8,0:0|0:0|0:0,0:0:0:0:
308,192,228273,1,0,0:0:0:0:
240,280,228610,2,0,P|307:304|379:280,2,150,8|8|8,0:0|0:0|0:0,0:0:0:0:
156,204,230295,1,0,0:0:0:0:
180,96,230632,1,0,0:0:0:0:
288,64,230969,1,8,0:0:0:0:
332,168,231306,6,0,P|365:178|405:169,1,75,4|8,0:0|0:0,0:0:0:0:
440,276,231980,2,0,P|476:263|497:232,2,75,8|0|0,0:0|0:0|0:0,0:0:0:0:
344,332,232992,2,0,P|304:324|264:335,1,75,8|8,0:0|0:0,0:0:0:0:
160,308,233666,1,8,0:0:0:0:
100,212,234003,1,0,0:0:0:0:
184,136,234340,1,8,0:0:0:0:
256,192,234677,12,4,239396,0:0:0:0:
256,192,240070,5,4,0:0:0:0:
256,192,240745,1,4,0:0:0:0:
468,116,241419,6,0,P|492:192|476:264,1,150,4|0,0:0|0:0,0:0:0:0:
264,52,243441,1,2,0:0:0:0:
140,324,244789,1,0,0:0:0:0:
436,276,246138,1,2,0:0:0:0:
272,116,246812,2,0,B|348:28|504:188|308:272|256:324|256:324|204:272|8:188|164:28|236:116,1,750
