osu file format v11

[General]
AudioFilename: Konoha no Sekai Jijou.mp3
AudioLeadIn: 1500
PreviewTime: 52154
Countdown: 0
SampleSet: Normal
StackLeniency: 0.7
Mode: 0
LetterboxInBreaks: 1

[Editor]
Bookmarks: 99747
DistanceSpacing: 1
BeatDivisor: 4
GridSize: 4

[Metadata]
Title:Konoha no Sekai Jijou
TitleUnicode:Konoha no Sekai Jijou
Artist:Kano
ArtistUnicode:Kano
Creator:enlxodutls
Version:TACU
Source:Nico Nico Douga
Tags:VocaloidTACU
BeatmapID:196866
BeatmapSetID:67261

[Difficulty]
HPDrainRate:6
CircleSize:4
OverallDifficulty:6
ApproachRate:8
SliderMultiplier:1.4
SliderTickRate:1

[Events]
//Background and Video events
Video,0,"[video].avi"
0,0,"BG.jpg"
//Break Periods
2,10889,18666
2,70752,78939
//Storyboard Layer 0 (Background)
//Storyboard Layer 1 (Fail)
//Storyboard Layer 2 (Pass)
//Storyboard Layer 3 (Foreground)
//Storyboard Sound Samples
//Background Colour Transformations
3,100,163,162,255

[TimingPoints]
1962,272.727272727273,4,2,0,100,1,0
19417,-100,4,3,0,100,0,0
37962,-200,4,3,0,100,0,0
38235,-100,4,3,0,100,0,0
43417,-100,4,2,0,100,0,0
43690,-100,4,3,0,100,0,0
53235,-100,4,2,0,100,0,0
53780,-100,4,3,0,100,0,0
55280,-100,4,2,0,100,0,1
55826,-100,4,1,0,90,0,1
70552,-100,4,1,0,100,0,0
79689,-100,4,2,0,100,0,0
81461,-100,4,3,0,100,0,0
81870,-100,4,2,0,100,0,0
83643,-100,4,3,0,100,0,0
83916,-100,4,2,0,100,0,0
86234,-100,4,2,0,100,0,0
86916,-200,4,1,0,66,0,0
88007,-100,4,1,0,66,0,0
88416,-100,4,3,0,100,0,0
97961,-200,4,3,0,100,0,0
98234,-100,4,3,0,100,0,0
113234,-100,4,2,0,100,0,0
113779,-100,4,3,0,100,0,0
114325,-200,4,1,0,20,0,0
114598,-200,4,1,0,40,0,0
114870,-200,4,1,0,60,0,0
115143,-200,4,1,0,100,0,0
115279,-100,4,1,0,100,0,1
130008,-100,4,1,0,30,0,1
130279,-100,4,1,0,30,0,0
130553,-80,4,1,0,100,0,1
144733,-200,4,1,0,100,0,1
145279,-100,4,1,0,100,0,1
148008,-100,4,1,0,70,0,0

[Colours]
Combo1 : 100,0,0
Combo2 : 94,94,47
Combo3 : 0,78,115

[HitObjects]
256,192,8507,12,0,10416,0:0:0
256,76,10689,5,4,0:0:0
56,280,19416,5,0,0:0:0
156,228,19689,2,0,P|188:160|188:156,1,70,8|0,0:0|0:0,0:0:0
144,112,19962,2,0,P|112:180|112:184,1,70
156,228,20234,2,0,P|164:272|192:304,1,70,0|0,0:0|0:0,0:0:0
248,304,20507,2,0,P|316:276|420:272,1,140,0|8,0:0|0:0,0:0:0
440,232,20916,1,0,0:0:0
384,188,21052,6,0,P|364:144|360:112,1,70
412,72,21325,2,0,P|432:116|435:137,1,70
360,124,21598,2,0,P|260:100|188:116,1,140,0|8,0:0|0:0,0:0:0
164,72,22007,1,0,0:0:0
96,76,22143,5,0,0:0:0
44,124,22280,1,0,0:0:0
52,192,22416,1,0,0:0:0
32,260,22552,1,0,0:0:0
68,320,22689,6,0,P|228:348,1,140,0|8,0:0|0:0,0:0:0
268,312,23098,1,0,0:0:0
268,312,23234,1,0,0:0:0
268,312,23371,1,0,0:0:0
268,312,23507,1,0,0:0:0
408,328,23780,6,0,P|340:276|352:208,1,140,0|8,0:0|0:0,0:0:0
412,240,24189,1,0,0:0:0
472,200,24325,2,0,P|484:140|420:84,1,140
388,36,24734,1,0,0:0:0
332,80,24871,6,0,P|296:132|272:144,1,70
220,140,25143,1,8,0:0:0
152,124,25280,1,0,0:0:0
84,136,25416,6,0,P|68:96|68:56,1,70
120,20,25689,2,0,P|136:60|136:100,1,70,8|0,0:0|0:0,0:0:0
156,156,25962,2,0,P|208:200|284:200,1,140,0|8,0:0|0:0,0:0:0
328,224,26371,1,0,0:0:0
468,320,26507,2,0,P|416:276|340:276,1,140,0|8,0:0|0:0,0:0:0
212,312,27052,5,0,0:0:0
268,272,27189,1,0,0:0:0
244,208,27325,1,8,0:0:0
176,212,27462,1,0,0:0:0
152,276,27598,2,0,P|112:328|24:312,1,140,0|8,0:0|0:0,0:0:0
40,188,28143,5,4,0:0:0
40,188,28416,1,2,0:0:0
40,188,28552,1,0,0:0:0
48,48,28689,2,0,P|44:112|56:136,1,70
112,88,28962,2,0,P|124:144|128:184,1,70,2|0,0:0|0:0,0:0:0
192,176,29234,2,0,P|240:116|216:56,1,140,0|2,0:0|0:0,0:0:0
221,61,29643,1,0,0:0:0
221,61,29780,2,0,P|384:60,1,140,0|2,0:0|0:0,0:0:0
360,60,30189,1,0,0:0:0
348,200,30325,6,4,P|352:152|372:120,1,70
424,96,30598,2,0,P|464:92|500:192,2,140,2|0|2,0:0|0:0|0:0,0:0:0
364,132,31280,5,0,0:0:0
296,116,31416,1,0,0:0:0
252,64,31552,1,0,0:0:0
184,76,31689,1,2,0:0:0
164,144,31825,1,0,0:0:0
216,192,31962,6,0,P|236:240|236:276,1,70
188,308,32234,2,0,P|168:260|168:224,1,70,2|0,0:0|0:0,0:0:0
116,192,32507,5,4,0:0:0
16,92,32780,2,0,P|44:144|44:160,1,70,8|0,0:0|0:0,0:0:0
44,230,33052,2,0,P|44:240|16:292,1,70
16,291,33325,2,0,P|104:276|160:280,1,140,8|0,0:0|0:0,0:0:0
280,340,33871,5,8,0:0:0
420,360,34143,1,0,0:0:0
488,236,34416,1,8,0:0:0
388,140,34689,6,4,P|320:112|244:136,1,140,4|0,0:0|0:0,0:0:0
248,196,35098,1,0,0:0:0
220,260,35234,2,0,P|152:264|136:244,1,70
184,200,35507,2,0,P|252:196|268:216,1,70,8|0,0:0|0:0,0:0:0
320,200,35780,6,0,P|340:160,2,35,4|0|0,0:0|0:0|0:0,0:0:0
388,208,36052,2,0,P|424:176,2,35,4|0|0,0:0|0:0|0:0,0:0:0
416,272,36325,1,4,0:0:0
412,340,36462,1,4,0:0:0
344,360,36598,1,4,0:0:0
276,356,36734,1,4,0:0:0
208,336,36871,6,2,P|200:276|232:252|232:252|176:224,1,140
120,244,37280,1,0,0:0:0
32,136,37552,6,0,P|12:60,2,70
128,200,37962,2,0,P|156:120,1,70,0|8,0:0|0:0,0:0:0
280,76,38507,5,0,0:0:0
348,68,38643,1,0,0:0:0
416,60,38780,1,8,0:0:0
436,200,39052,6,4,P|440:124,2,70,4|4|0,0:0|0:0|0:0,0:0:0
416,268,39462,2,0,P|376:312|280:332,1,140,4|0,0:0|0:0,0:0:0
232,320,39871,1,2,0:0:0
160,316,40007,1,0,0:0:0
116,260,40143,6,0,P|92:208|96:116,1,140
220,68,40689,2,0,P|244:120|240:212,1,140,2|0,0:0|0:0,0:0:0
324,316,41234,6,4,P|252:268,2,70,4|4|0,0:0|0:0|0:0,0:0:0
388,292,41643,2,0,P|452:244|512:228,1,140,4|0,0:0|0:0,0:0:0
488,160,42052,1,0,0:0:0
488,160,42189,1,0,0:0:0
456,96,42325,6,0,P|376:112|292:104,1,140,2|0,0:0|0:0,0:0:0
276,164,42734,2,0,P|132:148,1,140,2|0,0:0|0:0,0:0:0
68,144,43143,1,4,0:0:0
8,180,43280,1,4,0:0:0
72,212,43416,6,0,P|108:256|112:336,1,140,4|8,0:0|0:0,0:0:0
180,344,43825,1,0,0:0:0
248,324,43962,2,0,P|320:300,1,70,0|0,0:0|0:0,0:0:0
348,256,44234,2,0,P|276:248,1,70,8|0,0:0|0:0,0:0:0
224,208,44507,6,0,P|212:136|272:80,1,140,0|8,0:0|0:0,0:0:0
388,196,44916,1,0,0:0:0
388,196,45052,2,0,P|400:268|340:324,1,140,0|8,0:0|0:0,0:0:0
220,308,45598,5,0,0:0:0
160,272,45734,1,0,0:0:0
104,228,45871,1,8,0:0:0
48,184,46007,2,0,P|80:144|104:48,1,140
176,64,46416,2,0,P|260:80,1,70,8|0,0:0|0:0,0:0:0
228,144,46689,6,0,P|296:168|372:180,1,140,2|8,0:0|0:0,0:0:0
316,232,47098,2,0,P|452:280,1,140,2|0,0:0|0:0,0:0:0
488,220,47507,1,0,0:0:0
488,220,47643,1,0,0:0:0
452,160,47780,6,0,P|396:108|380:40,1,140,4|8,0:0|0:0,0:0:0
308,44,48189,1,0,0:0:0
240,36,48325,2,0,P|184:32|152:52,1,70
140,100,48598,2,0,P|196:104|228:84,1,70,8|0,0:0|0:0,0:0:0
248,156,48871,5,0,0:0:0
316,144,49007,1,0,0:0:0
364,92,49143,1,0,0:0:0
396,156,49280,2,2,P|432:168|444:160|444:160|452:168|452:168|452:180|452:180|440:184|440:196|440:196|444:208|444:208|456:208|456:208|468:200|476:200|476:200|488:208|488:208|488:220|488:220|476:232|472:244|472:244|480:256|480:256|496:256|496:256|504:240|516:252|516:252|516:264|516:264|508:276|508:276|496:292|508:360,1,350,8|4,0:0|0:0,0:0:0
364,340,50234,6,0,P|300:332|200:344,1,140,8|4,0:0|0:0,0:0:0
88,304,50780,1,8,0:0:0
60,168,51052,2,0,P|72:92|60:28,1,140,4|8,0:0|0:0,0:0:0
132,36,51461,5,4,0:0:0
152,104,51598,2,0,P|152:160|168:192,1,70
216,140,51871,2,0,P|216:88|200:56,1,70,8|0,0:0|0:0,0:0:0
211,71,52143,2,0,P|276:56|372:56,1,140,0|8,0:0|0:0,0:0:0
400,100,52552,1,0,0:0:0
432,164,52689,5,0,0:0:0
396,224,52825,1,0,0:0:0
452,268,52961,1,8,0:0:0
492,208,53098,1,0,0:0:0
500,140,53234,5,4,0:0:0
160,244,53507,1,4,0:0:0
500,352,53780,5,4,0:0:0
428,348,53916,1,4,0:0:0
360,372,54052,1,4,0:0:0
136,112,55280,5,4,0:0:0
136,112,55552,2,0,P|136:192|64:228,1,140,8|0,0:0|0:0,0:0:0
64,144,55961,1,0,0:0:0
136,112,56098,1,8,0:0:0
216,144,56234,1,0,0:0:0
296,164,56371,6,0,P|304:208|332:240,1,70
388,240,56643,2,0,P|380:196|352:164,1,70,8|0,0:0|0:0,0:0:0
296,164,56916,2,0,P|228:124|156:128,1,140,0|8,0:0|0:0,0:0:0
104,68,57325,5,0,0:0:0
188,56,57461,2,0,P|172:148,1,70
12,108,57734,2,0,P|28:196,1,70,8|0,0:0|0:0,0:0:0
104,204,58007,2,0,P|96:280,1,70
16,248,58280,2,0,P|40:324,1,70,8|0,0:0|0:0,0:0:0
116,340,58552,5,0,0:0:0
192,304,58689,1,0,0:0:0
272,324,58825,1,8,0:0:0
352,296,58961,1,0,0:0:0
436,312,59098,2,2,P|396:260|420:208|420:208|372:184,1,140,10|2,0:0|0:0,0:0:0
228,192,59643,6,0,P|240:112|300:84,1,140,0|8,0:0|0:0,0:0:0
372,92,60052,1,0,0:0:0
452,112,60189,2,0,P|448:184,1,70
368,200,60461,2,0,P|384:280,1,70,8|0,0:0|0:0,0:0:0
328,332,60734,6,0,P|240:288|176:288,1,140,0|8,0:0|0:0,0:0:0
116,272,61143,1,0,0:0:0
32,252,61280,2,0,P|8:192|8:172,1,70
84,148,61552,1,8,0:0:0
156,104,61689,1,0,0:0:0
156,188,61825,6,0,P|196:232|280:264,1,140,4|8,0:0|0:0,0:0:0
296,184,62234,2,0,P|344:152|352:104|352:104|400:96,1,140,4|0,0:0|0:0,0:0:0
432,172,62643,1,8,0:0:0
456,252,62780,1,0,0:0:0
408,320,62916,6,0,P|348:316|248:336,1,140,0|8,0:0|0:0,0:0:0
188,312,63325,2,0,P|116:332|72:288|72:288|32:300,1,140
52,208,63734,1,8,0:0:0
52,208,63871,1,0,0:0:0
44,124,64007,6,0,P|92:124|128:224,1,140,4|8,0:0|0:0,0:0:0
212,236,64416,1,0,0:0:0
292,256,64552,2,0,P|344:236|364:216,1,70
424,184,64825,2,0,P|456:156|484:144,1,70,8|0,0:0|0:0,0:0:0
404,108,65098,5,0,0:0:0
388,24,65234,1,0,0:0:0
320,72,65371,1,8,0:0:0
240,48,65507,1,0,0:0:0
156,52,65643,6,0,P|116:88|108:124,1,70
164,168,65916,1,8,0:0:0
164,168,66189,2,0,P|96:196|60:280,1,140,4|8,0:0|0:0,0:0:0
124,308,66598,1,0,0:0:0
196,268,66734,6,0,P|240:248|264:204,1,70
248,148,67007,2,0,P|204:168|180:212,1,70,8|0,0:0|0:0,0:0:0
252,232,67280,1,0,0:0:0
332,200,67416,1,0,0:0:0
416,212,67552,1,8,0:0:0
500,192,67689,1,0,0:0:0
500,192,67825,2,0,P|476:48,1,140,2|2,0:0|0:0,0:0:0
308,56,68371,6,0,P|268:56|220:32,1,70
88,36,68780,1,0,0:0:0
48,108,68916,2,0,P|64:152|56:192,1,70
52,260,69189,1,8,0:0:0
8,332,69325,1,0,0:0:0
8,332,69461,6,0,P|80:324|160:332,1,140,0|8,0:0|0:0,0:0:0
196,260,69871,2,0,P|240:264|260:244|260:244|340:308,1,140,0|8,0:0|0:0,0:0:0
376,228,70280,1,0,0:0:0
408,332,70416,1,0,0:0:0
492,260,70552,1,4,0:0:0
412,216,79689,5,0,0:0:0
412,216,79962,1,2,0:0:0
412,216,80234,1,0,0:0:0
320,108,80507,6,0,P|232:96|172:48,1,140,0|2,0:0|0:0,0:0:0
120,64,80916,1,0,0:0:0
120,64,81052,2,0,P|48:76|-4:128,1,140,0|2,0:0|0:0,0:0:0
28,184,81462,2,4,P|56:208|72:252,1,70
128,364,81871,6,0,P|192:336|292:332,2,140,2|0|2,0:0|0:0|0:0,0:0:0
100,300,82552,1,0,0:0:0
156,256,82689,2,0,P|168:184|224:176|224:176|192:136|192:136,1,140,0|2,0:0|0:0,0:0:0
240,92,83098,1,0,0:0:0
300,132,83234,6,0,P|340:108|360:80,1,70
412,128,83507,2,0,P|372:152|352:180,1,70,0|4,0:0|0:0,0:0:0
356,168,83780,1,4,0:0:0
356,168,84052,2,0,P|408:220|424:300,1,140,4|2,0:0|0:0,0:0:0
364,316,84462,1,0,0:0:0
320,260,84598,2,0,P|340:224|396:204,1,70
432,228,84871,2,0,P|440:184|400:148|400:148|464:148,1,140,0|2,0:0|0:0,0:0:0
472,80,85280,1,0,0:0:0
428,24,85416,6,0,P|364:24|332:40,1,70
376,92,85689,2,0,P|292:104,1,70,2|0,0:0|0:0,0:0:0
240,76,85962,2,0,P|180:148|112:156,1,140,0|2,0:0|0:0,0:0:0
72,128,86371,1,0,0:0:0
32,72,86507,6,2,P|12:152,1,70
56,196,86780,1,0,0:0:0
56,196,86916,6,2,P|160:304|272:264,1,280,2|0,0:0|0:0,0:0:0
380,252,88143,1,4,0:0:0
424,120,88416,6,0,P|380:116|356:100,1,70,4|0,0:0|0:0,0:0:0
404,48,88689,2,0,P|448:52|472:68,1,70,0|0,0:0|0:0,0:0:0
424,120,88962,1,8,0:0:0
376,168,89098,1,0,0:0:0
308,164,89234,6,0,P|248:108|188:108,1,140,4|8,0:0|0:0,0:0:0
140,152,89643,1,0,0:0:0
72,156,89780,2,0,P|40:120|36:96,1,70
72,40,90052,2,0,P|104:76|108:100,1,70,8|0,0:0|0:0,0:0:0
140,152,90325,2,0,P|152:216|216:284,1,140,4|8,0:0|0:0,0:0:0
268,284,90734,5,0,0:0:0
336,284,90871,1,0,0:0:0
400,312,91007,1,0,0:0:0
468,300,91143,2,0,P|488:268|496:228,1,70,8|0,0:0|0:0,0:0:0
432,204,91416,6,0,P|384:168|404:80,1,140,4|8,0:0|0:0,0:0:0
456,68,91825,1,0,0:0:0
448,136,91962,1,0,0:0:0
380,156,92098,1,0,0:0:0
320,116,92234,1,8,0:0:0
252,96,92371,2,0,P|216:120|196:160,1,70
292,248,92780,6,0,P|325:284|407:318,1,140,8|4,0:0|0:0,0:0:0
148,312,93325,2,0,P|114:275|32:241,1,140,8|4,0:0|0:0,0:0:0
160,180,93871,1,0,0:0:0
44,100,94143,5,4,0:0:0
112,108,94280,1,4,0:0:0
164,60,94416,1,4,0:0:0
232,80,94552,6,0,P|272:116|296:200,1,140,0|0,0:0|0:0,0:0:0
324,260,94962,1,8,0:0:0
384,292,95098,1,0,0:0:0
452,284,95234,2,0,P|500:264|520:264,2,70,0|0|8,0:0|0:0|0:0,0:0:0
420,348,95643,6,0,P|360:376|288:364,1,140
224,344,96052,1,2,0:0:0
92,296,96325,1,2,0:0:0
48,164,96598,1,2,0:0:0
144,60,96871,6,2,P|196:104|272:100,1,140
336,96,97280,1,0,0:0:0
384,148,97416,1,0,0:0:0
452,168,97552,6,0,P|464:96,2,70
356,228,97962,6,2,P|346:207|346:207|359:191|359:191|344:144,1,70
236,244,98507,2,0,P|276:184|276:164,2,70
96,224,99052,5,4,0:0:0
140,168,99189,1,4,0:0:0
208,172,99325,1,0,0:0:0
276,188,99462,2,0,P|348:152|416:148,1,140,4|0,0:0|0:0,0:0:0
468,180,99871,1,0,0:0:0
488,248,100007,1,0,0:0:0
452,308,100143,6,2,P|404:264|344:276|344:276|364:288,1,140,2|10,0:0|0:0,0:0:0
300,316,100552,2,2,P|248:296|188:312|188:312|212:280|196:264,1,140,2|0,0:0|0:0,0:0:0
140,256,100962,1,8,0:0:0
140,256,101234,6,4,P|100:208|100:192,2,70,4|4|0,0:0|0:0|0:0,0:0:0
200,220,101643,2,2,P|256:184|352:160,1,140,4|0,0:0|0:0,0:0:0
384,124,102052,1,8,0:0:0
368,56,102189,1,0,0:0:0
300,40,102325,6,0,P|232:76|152:56,1,140,0|8,0:0|0:0,0:0:0
104,52,102734,1,0,0:0:0
52,100,102871,1,0,0:0:0
84,164,103007,1,0,0:0:0
24,200,103143,1,8,0:0:0
24,200,103280,1,0,0:0:0
68,256,103416,6,0,P|128:248|192:172,1,140,0|8,0:0|0:0,0:0:0
192,56,103825,1,0,0:0:0
192,56,103962,2,0,P|132:64|68:140,1,140,0|8,0:0|0:0,0:0:0
208,172,104507,6,4,P|256:152|304:148,1,70,4|0,0:0|0:0,0:0:0
264,220,104780,2,0,P|336:232,1,70,0|4,0:0|0:0,0:0:0
400,212,105052,1,0,0:0:0
468,228,105189,1,4,0:0:0
508,284,105325,1,0,0:0:0
372,324,105598,6,0,P|344:264|340:172,1,140,4|8,0:0|0:0,0:0:0
304,132,106007,1,0,0:0:0
352,80,106143,2,0,P|412:76|448:60,1,70
480,112,106416,2,0,P|420:116|384:132,1,70,8|0,0:0|0:0,0:0:0
364,172,106689,6,4,P|324:220|236:228,1,140,4|8,0:0|0:0,0:0:0
220,168,107098,2,0,P|148:160|112:192|112:192|76:176,1,140,4|8,0:0|0:0,0:0:0
48,124,107507,1,0,0:0:0
72,60,107643,1,0,0:0:0
132,96,107780,6,0,P|208:100,1,70,4|0,0:0|0:0,0:0:0
272,172,108052,2,0,P|196:168,1,70,8|0,0:0|0:0,0:0:0
128,232,108325,2,0,P|204:236,1,70,4|0,0:0|0:0,0:0:0
264,308,108598,2,0,P|188:304,1,70,8|0,0:0|0:0,0:0:0
128,328,108871,5,0,0:0:0
128,328,109007,1,4,0:0:0
128,328,109143,1,4,0:0:0
128,328,109280,2,2,P|96:284|40:304|32:228,1,140
28,164,109689,2,2,P|52:92,1,70,2|0,0:0|0:0,0:0:0
120,84,109962,6,0,P|152:48|180:60|188:24|188:24|244:24,1,140,4|8,0:0|0:0,0:0:0
260,88,110371,1,0,0:0:0
300,144,110507,2,0,P|356:140|384:120,1,70,4|0,0:0|0:0,0:0:0
392,68,110780,2,0,P|336:72|308:92,1,70,8|0,0:0|0:0,0:0:0
260,88,111052,6,2,P|232:144|144:152,1,140,0|2,0:0|0:0,0:0:0
160,158,111462,1,0,0:0:0
160,158,111598,2,0,P|164:212|164:256,1,70,4|0,0:0|0:0,0:0:0
96,212,111871,2,0,P|96:272|92:300,1,70,8|0,0:0|0:0,0:0:0
44,328,112143,6,0,P|112:328|192:340,1,140,0|8,0:0|0:0,0:0:0
252,332,112552,2,0,P|304:320|336:324,1,70,0|0,0:0|0:0,0:0:0
388,332,112825,1,8,0:0:0
456,340,112962,1,0,0:0:0
484,276,113098,1,0,0:0:0
444,220,113234,5,4,0:0:0
92,160,113507,1,4,0:0:0
444,108,113780,5,0,0:0:0
380,136,113916,1,0,0:0:0
312,140,114052,1,0,0:0:0
280,76,114325,6,2,P|244:44|244:44|196:40|196:76|196:76|156:104|156:104|108:68,1,210
60,116,115280,6,0,P|48:176|68:264,1,140,4|8,0:0|0:0,0:0:0
128,304,115689,1,0,0:0:0
208,324,115825,2,0,P|276:336|308:328,1,70
276,252,116098,2,0,P|244:240|207:240,1,70,8|0,0:0|0:0,0:0:0
352,288,116371,6,0,P|432:304|496:280,1,140,0|8,0:0|0:0,0:0:0
444,212,116780,1,0,0:0:0
368,180,116916,2,0,P|352:128|352:104,2,70,0|0|8,0:0|0:0|0:0,0:0:0
368,180,117462,6,0,P|304:200|240:240,1,140,0|8,0:0|0:0,0:0:0
160,220,117871,1,0,0:0:0
80,196,118007,2,0,P|48:156|44:120,1,70
68,60,118280,1,8,0:0:0
144,20,118416,1,0,0:0:0
204,80,118552,6,0,P|224:168|284:200,1,140,0|8,0:0|0:0,0:0:0
312,264,118962,1,0,0:0:0
396,268,119098,1,0,0:0:0
396,268,119371,2,0,P|424:224|440:204|408:168|408:168|416:132,1,140,8|4,0:0|0:0,0:0:0
264,64,119916,6,0,P|320:48|360:56,1,70,8|0,0:0|0:0,0:0:0
236,132,120189,2,0,P|280:148|320:128|320:128,1,70
192,76,120462,2,0,P|144:64|100:80,1,70,8|0,0:0|0:0,0:0:0
64,124,120734,5,0,0:0:0
64,124,120871,1,0,0:0:0
64,124,121007,1,8,0:0:0
64,124,121143,2,0,P|32:176|32:260,1,140
92,312,121552,2,0,P|132:360|136:376,1,70,8|0,0:0|0:0,0:0:0
200,312,121825,6,0,P|224:276|320:224,1,140,0|8,0:0|0:0,0:0:0
328,308,122234,1,0,0:0:0
412,320,122371,2,0,P|432:284|432:248,1,70
380,192,122643,1,8,0:0:0
396,124,122780,2,2,P|380:92|336:64|336:64|280:56,1,140,2|0,0:0|0:0,0:0:0
144,64,123325,2,0,P|112:57|62:68|62:68|32:120,1,140,0|8,0:0|0:0,0:3:0
56,256,123871,5,0,0:0:0
56,256,124007,2,0,P|140:236|220:244,1,140,0|8,0:0|0:0,0:0:0
264,284,124416,1,0,0:0:0
324,224,124552,2,0,P|376:288,1,70
444,316,124825,2,0,P|392:252,1,70,8|0,0:0|0:0,0:0:0
376,180,125098,5,0,0:0:0
372,96,125234,1,0,0:0:0
448,64,125371,1,8,0:0:0
504,128,125507,1,0,0:0:0
488,212,125643,2,0,P|484:272|496:304,2,70,0|0|8,0:0|0:0|0:0,0:0:0
488,212,126189,6,0,P|432:180|364:112,1,140,0|8,0:0|0:0,0:0:0
308,84,126598,1,0,0:0:0
236,40,126734,2,0,P|168:28|140:36,1,70
124,100,127007,2,0,P|192:112|220:104,1,70,8|0,0:0|0:0,0:0:0
252,172,127280,5,0,0:0:0
252,256,127416,1,0,0:0:0
332,280,127552,1,8,0:0:0
388,220,127689,1,0,0:0:0
412,300,127825,6,0,P|400:344|336:372|336:372|292:372,1,140,0|8,0:0|0:0,0:0:0
224,348,128234,2,2,P|180:320|140:308|140:308|128:324|88:324,1,140,2|0,0:0|0:0,0:0:0
44,260,128643,1,8,0:0:0
80,96,128916,6,0,P|92:176,1,70
168,136,129189,2,0,P|152:228,1,70
156,204,129462,2,2,P|436:224,1,280
112,316,130552,6,0,P|64:256|52:188,1,140,4|8,0:0|0:0,0:0:0
92,100,130962,1,0,0:0:0
176,168,131098,2,0,P|188:232|196:264,1,87.5
272,320,131371,2,0,P|288:232,1,87.5,8|0,0:0|0:0,0:0:0
384,276,131643,5,0,0:0:0
396,172,131780,1,0,0:0:0
500,180,131916,1,8,0:0:0
492,284,132052,1,0,0:0:0
384,276,132189,2,0,P|328:248|264:248,1,87.5
224,312,132462,1,2,0:0:0
224,312,132734,6,0,P|168:312|124:328,1,87.5
92,228,133007,2,0,P|36:264|24:280,1,87.5,8|0,0:0|0:0,0:0:0
196,216,133280,2,0,P|248:212|304:184,1,87.5
344,116,133552,1,8,0:0:0
280,200,133689,1,0,0:0:0
196,136,133825,6,0,P|160:72|64:56,1,175,0|8,0:0|0:0,0:0:0
48,160,134234,1,0,0:0:0
48,160,134371,1,2,0:0:0
344,116,134643,1,2,0:0:0
376,324,134916,6,0,P|456:300|472:192,1,175,0|8,0:0|0:0,0:0:0
472,116,135325,1,0,0:0:0
372,148,135462,2,0,P|368:196|400:240,1,87.5
488,196,135734,2,0,P|492:148|460:104,1,87.5,8|0,0:0|0:0,0:0:0
384,60,136007,6,0,P|336:36|220:64,1,175,0|8,0:0|0:0,0:0:0
192,164,136416,2,2,P|144:184|104:156|104:156|24:188,1,175,2|0,0:0|0:0,0:0:0
32,292,136825,1,8,0:0:0
32,292,136962,1,0,0:0:0
128,336,137098,6,0,P|196:320|256:224,1,175,4|8,0:0|0:0,0:0:0
356,204,137507,2,4,P|396:248|440:236|440:236|512:284,1,175,4|0,0:0|0:0,0:0:0
504,176,137916,2,0,P|488:116|488:80,1,87.5
487,90,138189,1,4,0:0:0
487,90,138325,2,2,P|420:92|304:56,2,175,2|2|2,0:0|0:0|0:0,0:0:0
396,144,139007,1,8,0:0:0
204,228,139280,6,0,P|188:144|256:92,1,175,0|8,0:0|0:0,0:0:0
300,184,139689,1,0,0:0:0
276,288,139825,2,0,P|248:340|216:356,1,87.5
120,348,140098,2,0,P|148:296|180:280,1,87.5,8|0,0:0|0:0,0:0:0
84,224,140371,5,0,0:0:0
104,120,140507,1,0,0:0:0
52,28,140643,1,8,0:0:0
104,120,140780,1,0,0:0:0
208,112,140916,2,0,P|252:96|308:92,2,87.5,0|0|8,0:0|0:0|0:0,0:0:0
208,112,141462,6,0,P|240:200|260:284,1,175,0|8,0:0|0:0,0:0:0
364,292,141871,1,0,0:0:0
468,292,142007,2,0,P|464:240|448:196,1,87.5
504,116,142280,2,0,P|492:68|468:28,1,87.5,8|0,0:0|0:0,0:0:0
372,60,142552,5,0,0:0:0
268,88,142689,1,0,0:0:0
164,68,142825,1,8,0:0:0
60,80,142962,1,0,0:0:0
44,184,143098,2,2,P|36:372,1,175
248,352,143643,6,0,P|280:320|352:296|360:296|360:296|396:244,1,175,0|8,0:0|0:0,0:0:0
460,180,144052,2,2,P|480:248|480:360,1,175,2|0,0:0|0:0,0:0:0
376,356,144462,2,0,P|324:324|292:320,1,87.5,8|0,0:0|0:0,0:0:0
232,300,144734,6,0,P|80:300,1,140
92,300,145416,1,0,0:0:0
92,300,145552,6,0,P|68:220,2,70
256,192,145893,12,4,148007,0:0:0
268,84,148280,6,0,P|304:64|364:68|364:68,2,70
208,124,148689,1,0,0:0:0
156,168,148825,1,0,0:0:0
88,176,148962,1,0,0:0:0
72,244,149098,6,0,P|92:320|40:368,1,140
55,362,149507,2,0,P|204:336,1,140
264,332,149916,1,0,0:0:0
332,348,150052,1,0,0:0:0
400,332,150189,6,0,P|424:296|424:256,1,70
492,248,150462,2,0,P|496:208|496:168,1,70
428,156,150734,2,0,P|424:108|404:80,1,70
348,64,151007,5,0,0:0:0
284,36,151143,1,0,0:0:0
220,64,151280,2,0,P|192:128|252:192,1,140
272,236,151689,2,0,P|304:180|256:112,1,140
204,144,152098,1,0,0:0:0
204,144,152234,1,0,0:0:0
148,184,152371,6,0,P|124:232|48:264,1,140
16,200,152780,2,0,P|12:164|12:120,1,70
76,104,153052,2,0,P|80:140|80:184,2,70
76,104,153462,6,0,P|156:64|224:60|220:72,1,140
272,100,153871,1,0,0:0:0
272,100,154007,2,0,P|332:80|408:72,1,140
456,124,154416,1,0,0:0:0
492,184,154552,6,0,P|488:244|456:320,1,140
388,328,154962,2,0,P|344:312|292:320,1,70
256,280,155234,1,0,0:0:0
188,260,155371,1,0,0:0:0
120,268,155507,1,0,0:0:0
68,220,155643,6,0,P|48:176,2,35
92,156,155916,2,0,P|88:120,2,35
140,104,156189,2,0,P|152:64,2,35
204,136,156462,1,0,0:0:0
272,120,156598,1,0,0:0:0
316,68,156734,6,0,P|344:36|440:32,1,140,4|8,0:0|0:0,0:0:0
448,100,157143,1,0,0:0:0
468,168,157280,1,0,0:0:0
424,224,157416,2,0,P|368:260|356:288|356:284,2,70,0|0|8,0:0|0:0|0:0,0:0:0
424,224,157825,1,0,0:0:0
440,292,157962,6,0,P|416:344|328:360,1,140
272,348,158371,2,0,P|204:324|116:328,1,140,8|0,0:0|0:0,0:0:0
56,208,158916,6,0,P|48:160|56:128,1,70
164,60,159325,1,8,0:0:0
264,160,159598,2,0,P|316:152|352:124,2,70,4|0|0,0:0|0:0|0:0,0:0:0
256,192,160143,12,4,161234,0:0:0
