osu file format v11

[General]
AudioFilename: Konoha no Sekai Jijou.mp3
AudioLeadIn: 1511
PreviewTime: 52154
Countdown: 0
SampleSet: Soft
StackLeniency: 0.7
Mode: 0
LetterboxInBreaks: 1

[Editor]
Bookmarks: 99747
DistanceSpacing: 0.8
BeatDivisor: 4
GridSize: 4

[Metadata]
Title:Konoha no Sekai Jijou
TitleUnicode:Konoha no Sekai Jijou
Artist:Kano
ArtistUnicode:Kano
Creator:enlxodutls
Version:Insane
Source:Nico Nico Douga
Tags:VocaloidTACU
BeatmapID:196865
BeatmapSetID:67261

[Difficulty]
HPDrainRate:6
CircleSize:4
OverallDifficulty:8
ApproachRate:9
SliderMultiplier:2.2
SliderTickRate:2

[Events]
//Background and Video events
Video,0,"[video].avi"
0,0,"BG.jpg"
//Break Periods
2,10888,16634
2,71024,76634
//Storyboard Layer 0 (Background)
//Storyboard Layer 1 (Fail)
//Storyboard Layer 2 (Pass)
//Storyboard Layer 3 (Foreground)
//Storyboard Sound Samples
//Background Colour Transformations
3,100,163,162,255

[TimingPoints]
1962,272.727272727273,4,2,2,65,1,0
1962,-133.333333333333,4,2,2,65,0,0
19416,-125,4,2,2,70,0,0
38780,-83.3333333333333,4,2,2,70,0,0
39052,-125,4,2,2,70,0,0
40962,-83.3333333333333,4,2,2,70,0,0
41234,-125,4,2,2,70,0,0
54325,-125,4,2,2,30,0,0
54598,-200,4,2,2,50,0,0
54734,-200,4,2,2,60,0,0
54871,-200,4,2,2,30,0,0
55280,-100,4,2,2,80,0,1
70552,-66.6666666666667,4,2,2,80,0,1
70825,-100,4,2,2,5,0,0
79143,-125,4,2,2,70,0,0
82416,-83.3333333333333,4,2,2,70,0,0
82689,-125,4,2,2,70,0,0
83507,-83.3333333333333,4,2,2,70,0,0
83780,-125,4,2,2,70,0,0
86916,-200,4,2,2,70,0,0
87052,-200,4,2,2,10,0,0
87871,-200,4,2,2,85,0,0
88143,-125,4,1,0,85,0,0
88416,-125,4,2,2,85,0,0
94825,-125,4,2,2,35,0,0
94962,-125,4,2,2,85,0,0
101234,-125,4,2,2,30,0,0
101507,-125,4,2,2,85,0,0
102871,-125,4,2,2,30,0,0
103143,-125,4,2,2,85,0,0
114052,-200,4,2,2,85,0,0
114189,-200,4,2,2,5,0,0
115007,-200,4,2,2,85,0,0
115280,-100,4,1,0,90,0,1
115552,-100,4,2,2,80,0,1
130280,-100,4,2,2,65,0,1
130552,-100,4,2,2,80,0,1
148007,-100,4,2,2,80,0,0
148280,-100,4,2,2,65,0,0
156734,-100,4,2,2,75,0,0
161234,-125,4,2,2,80,0,0
169825,-100,4,2,2,65,0,1
178552,-100,4,2,2,90,0,0

[Colours]
Combo1 : 100,0,0
Combo2 : 94,94,47
Combo3 : 0,78,115

[HitObjects]
80,200,1962,1,2,0:0:0
180,188,2098,1,0,0:0:0
180,188,2234,1,8,0:0:0
172,288,2371,2,0,P|220:284|284:308|284:308|336:296|352:264,1,165.000006294251
420,328,2780,1,0,0:0:0
436,232,2916,6,0,P|388:204|388:164|388:164|336:180|316:240,1,165.000006294251
256,144,3325,1,8,0:0:0
76,232,3462,2,0,P|124:204|124:164|124:164|176:180|196:240,1,165.000006294251
221,303,3871,1,0,0:0:0
221,303,4007,1,0,0:0:0
257,229,4143,5,2,0:0:0
332,194,4280,1,0,0:0:0
412,220,4416,1,8,0:0:0
444,144,4552,2,0,P|364:120|272:140,1,165.000006294251
212,172,4962,1,0,0:0:0
56,236,5098,6,0,P|80:272|124:248|124:248|172:308|216:304,1,165.000006294251
281,257,5507,1,8,0:0:0
464,184,5643,2,0,P|440:148|396:172|396:172|348:112|304:116,1,165.000006294251
232,104,6052,1,0,0:0:0
232,104,6189,1,0,0:0:0
380,304,6325,5,2,0:0:0
301,278,6462,1,0,0:0:0
272,201,6598,1,8,0:0:0
232,352,6734,2,0,P|204:312|200:276|200:276|144:308|96:260,1,165.000006294251
122,279,7143,1,0,0:0:0
64,92,7280,6,0,P|100:124|100:124|140:84|228:132,1,165.000006294251
209,122,7689,1,8,0:0:0
448,292,7825,2,0,P|412:260|412:260|372:300|284:252,1,165.000006294251
304,264,8234,1,0,0:0:0
196,240,8371,1,0,0:0:0
220,368,8507,5,2,0:0:0
255,284,8643,1,0,0:0:0
255,284,8780,1,8,0:0:0
396,344,8916,2,0,P|428:260|424:176,1,165.000006294251
426,185,9325,1,0,0:0:0
216,40,9462,6,0,P|124:80|124:80|132:120|72:152,1,165.000006294251
172,172,9871,1,8,0:0:0
296,40,10007,2,0,P|388:80|388:80|380:120|440:152,1,165.000006294251
340,172,10416,1,8,0:0:0
256,260,10552,6,8,P|256:348,1,82.5000031471254,12|12,0:0|0:0,0:0:0
256,192,17234,12,8,19143,0:0:0
256,312,19416,5,2,0:0:0
188,56,19689,6,0,P|156:92|160:144,1,88,8|0,0:0|0:0,0:0:0
248,156,19962,2,0,P|240:200|200:228,1,88,2|0,0:0|0:0,0:0:0
128,280,20234,1,8,0:0:0
196,348,20371,1,0,0:0:0
292,336,20507,1,2,0:0:0
340,252,20643,2,0,P|376:288|396:332,2,88,0|8|0,0:0|0:0|0:0,0:0:0
348,148,21052,5,2,0:0:0
256,64,21189,1,0,0:0:0
132,80,21325,1,8,0:0:0
100,200,21462,1,0,0:0:0
280,312,21598,6,0,P|187:319,1,88,2|0,0:0|0:0,0:0:0
264,212,21871,1,8,0:0:0
264,212,22007,1,0,0:0:0
168,204,22143,2,0,P|128:232|108:272,1,88,2|0,0:0|0:0,0:0:0
37,387,22416,2,0,P|24:364|20:304,1,88,8|0,0:0|0:0,0:0:0
20,208,22689,6,0,P|60:184|52:120|52:120|84:88|132:88,1,176,2|8,0:0|0:0,0:0:0
208,132,23098,1,0,0:0:0
288,76,23234,2,0,P|332:96|356:132,1,88,2|0,0:0|0:0,0:0:0
448,100,23507,2,0,P|464:152|452:196,1,88,8|0,0:0|0:0,0:0:0
392,288,23780,5,2,0:0:0
392,288,23916,1,0,0:0:0
268,224,24052,6,0,P|240:272|248:304,2,88,8|0|2,0:0|0:0|0:0,0:0:0
364,212,24462,2,0,P|400:256|432:256,1,88,0|8,0:0|0:0,0:0:0
448,164,24734,1,0,0:0:0
368,108,24871,1,2,0:0:0
368,108,25007,1,0,0:0:0
292,48,25143,6,0,P|244:80|172:56|172:56|124:68|112:104,1,176,8|2,0:0|0:0,0:0:0
144,176,25552,1,0,0:0:0
88,256,25689,2,0,P|120:296|192:324|192:324|228:308|256:336,1,176,8|2,0:0|0:0,0:0:0
364,300,26098,5,0,0:0:0
452,212,26234,1,8,0:0:0
356,120,26371,1,0,0:0:0
112,100,26643,6,0,P|88:36|56:8,2,88,0|8|0,0:0|0:0|0:0,0:0:0
221,157,27052,1,2,0:0:0
221,157,27189,1,4,0:0:0
116,220,27325,2,0,P|72:240|48:284,2,88,10|0|10,0:0|0:0|0:0,0:0:0
192,60,27734,5,0,0:0:0
212,56,27802,1,8,0:0:0
232,60,27871,1,10,0:0:0
292,136,28007,1,8,0:0:0
256,272,28143,6,0,P|300:252|344:276|344:276|352:208|384:164,1,176,2|8,0:0|0:0,0:0:0
112,308,28689,1,2,0:0:0
112,308,28825,1,0,0:0:0
96,212,28962,2,0,P|128:176|132:128,1,88,8|0,0:0|0:0,0:0:0
112,44,29234,6,0,P|160:48|192:80,1,88,2|0,0:0|0:0,0:0:0
280,40,29507,2,0,P|300:84|292:128,1,88,8|0,0:0|0:0,0:0:0
248,208,29780,5,2,0:0:0
288,324,29916,1,0,0:0:0
412,324,30052,1,8,0:0:0
456,208,30189,1,0,0:0:0
404,96,30325,6,0,P|356:124|320:88|268:48|220:100,1,176,2|8,0:0|0:0,0:0:0
140,256,30871,1,2,0:0:0
140,256,31007,1,0,0:0:0
152,160,31143,2,0,P|200:156|244:172,1,88,8|0,0:0|0:0,0:0:0
332,192,31416,6,0,P|308:236|304:280,1,88,2|0,0:0|0:0,0:0:0
372,340,31689,2,0,P|392:312|400:260,1,88,8|0,0:0|0:0,0:0:0
224,272,31962,5,0,0:0:0
283,380,32098,1,2,0:0:0
159,378,32234,1,8,0:0:0
224,272,32371,1,0,0:0:0
148,176,32507,6,0,P|188:144|180:100|180:100|228:120|264:80,1,176,2|8,0:0|0:0,0:0:0
261,83,32916,1,0,0:0:0
320,248,33052,5,2,0:0:0
424,180,33189,1,0,0:0:0
380,64,33325,1,8,0:0:0
276,136,33462,2,0,P|248:128|244:104|244:104|236:104|236:104|236:96|236:96|228:104|228:104|232:96|232:96|224:96|224:96|228:92|228:92|212:88|204:60|204:60|140:56|116:96|120:148,1,264,2|8,0:0|0:0,0:0:0
96,232,34007,1,0,0:0:0
200,256,34143,6,0,P|220:300|252:332,1,88,2|0,0:0|0:0,0:0:0
340,300,34416,2,0,P|376:336|424:344,1,88,8|2,0:0|0:0,0:0:0
448,68,34825,5,0,0:0:0
448,68,34962,1,8,0:0:0
448,68,35098,1,0,0:0:0
104,152,35371,5,0,0:0:0
104,152,35508,1,8,0:0:0
104,152,35644,1,0,0:0:0
156,232,35780,5,2,0:0:0
420,220,35916,2,8,P|328:224,1,88,8|10,0:0|0:0,0:0:0
292,312,36189,1,0,0:0:0
248,52,36325,5,10,0:0:0
320,124,36462,1,0,0:0:0
320,124,36530,1,8,0:0:0
320,124,36598,1,10,0:0:0
332,224,36734,1,8,0:0:0
480,268,36871,6,0,P|416:320|416:320|384:300|336:320,1,132,2|0,0:0|0:0,0:0:0
340,312,37143,1,8,0:0:0
260,368,37280,1,8,0:0:0
116,48,37552,6,0,P|60:40|24:60,2,88,0|8|0,0:0|0:0|0:0,0:0:0
152,176,37962,1,0,0:0:0
300,200,38098,1,0,0:0:0
236,128,38234,1,8,0:0:0
300,200,38371,1,0,0:0:0
384,152,38507,2,0,P|412:184|412:240,1,88
400,56,38780,6,0,P|488:148|488:288,1,263.99999194336,8|2,0:0|0:0,0:0:0
316,308,39189,6,0,P|360:320,2,44,0|8|8,0:0|0:0|0:0,0:0:0
200,352,39462,2,0,P|112:336|72:260,1,176
72,265,39871,1,8,0:0:0
72,265,40007,1,0,0:0:0
108,148,40143,2,0,P|76:108|40:92,2,88,0|0|8,0:0|0:0|0:0,0:0:0
288,76,40689,2,0,P|316:120|308:164,1,88,0|0,0:0|0:0,0:0:0
368,40,40962,6,0,P|424:144|408:304,1,263.99999194336,8|2,0:0|0:0,0:0:0
288,308,41371,6,0,P|244:340,2,44,0|8|8,0:0|0:0|0:0,0:0:0
160,272,41643,2,0,P|132:280|104:316|104:316|64:304|48:248|56:224,1,176
84,140,42052,1,8,0:0:0
84,140,42189,1,0,0:0:0
228,208,42325,6,0,P|196:144|196:144|176:108|240:100|240:100|272:128,1,176,0|8,0:0|0:0,0:0:0
336,180,42734,1,0,0:0:0
400,64,42871,2,0,P|424:104|428:152,1,88
400,320,43143,2,0,P|424:280|428:232,1,88,8|0,0:0|0:0,0:0:0
279,173,43416,6,0,P|288:252|328:340,1,176,2|8,0:0|0:0,0:0:0
136,72,43962,2,0,P|128:124|100:152,2,88,0|0|8,0:0|0:0|0:0,0:0:0
348,68,44507,2,0,P|384:104|420:104,2,88,2|0|8,0:0|0:0|0:0,0:0:0
276,124,44916,1,0,0:0:0
276,124,44984,1,8,0:0:0
276,124,45052,1,10,0:0:0
336,212,45189,2,8,P|384:288,1,88,8|10,0:0|0:0,0:0:0
456,224,45462,1,8,0:0:0
452,344,45598,6,0,P|356:372|292:348|312:296,1,176,2|8,0:0|0:0,0:0:0
340,272,46007,2,0,P|356:248|356:248|328:208|232:208|196:260,1,176
188,328,46416,1,8,0:0:0
104,280,46552,1,0,0:0:0
136,372,46689,5,0,0:0:0
60,312,46825,1,0,0:0:0
56,216,46962,1,8,0:0:0
136,372,47098,2,0,P|208:312|236:232,1,176
304,320,47507,2,0,P|360:312|392:288,1,88,8|0,0:0|0:0,0:0:0
452,164,47780,6,0,P|356:180|272:156,1,176,2|8,0:0|0:0,0:0:0
452,44,48325,2,0,P|356:28|272:52,1,176,0|8,0:0|0:0,0:0:0
48,260,48871,6,0,P|92:272|92:272|80:236|104:196|172:216|156:296,1,176,0|8,0:0|0:0,0:0:0
172,308,49280,2,0,P|256:332|324:320|324:320|312:288|296:292,1,176
288,216,49689,1,8,0:0:0
464,336,49962,5,2,0:0:0
464,336,50234,2,0,P|432:300|424:256,1,88,8|0,0:0|0:0,0:0:0
428,164,50507,1,0,0:0:0
344,116,50643,1,0,0:0:0
244,164,50780,1,8,0:0:0
124,136,50916,1,0,0:0:0
56,264,51052,5,2,0:0:0
56,264,51325,2,0,P|64:204|56:176,1,88,8|0,0:0|0:0,0:0:0
40,92,51598,1,0,0:0:0
136,60,51734,1,0,0:0:0
252,88,51871,1,8,0:0:0
384,56,52007,1,0,0:0:0
456,192,52143,6,0,P|460:248|472:296|408:312|344:264|392:232,1,176,2|8,0:0|0:0,0:0:0
340,168,52552,1,0,0:0:0
248,320,52689,5,0,0:0:0
284,220,52825,1,0,0:0:0
200,128,52962,1,8,0:0:0
304,32,53098,1,8,0:0:0
152,76,53234,2,8,P|100:92|76:124,2,88,14|0|14,0:0|0:0|0:0,0:0:0
180,196,53643,2,0,P|168:216|168:240,2,44,0|8|14,0:0|0:0|0:0,0:0:0
264,232,53916,2,8,P|312:268|328:312,1,88,8|10,0:0|0:0,0:0:0
472,232,54325,5,2,0:0:0
420,316,54462,1,2,0:0:0
420,316,54530,1,0,0:0:0
420,316,54598,2,0,P|388:340|364:320|364:320|348:344|320:320|320:320|296:344|268:324|268:324|244:352|212:328|212:328|180:352,1,275,2|12,0:0|0:0,0:0:0
136,92,55552,6,0,P|116:148|116:204,1,110,0|8,0:0|0:0,0:0:0
248,200,55825,1,0,0:0:0
344,108,55962,1,2,0:0:0
452,184,56098,1,8,0:0:0
344,108,56234,1,0,0:0:0
360,240,56371,1,0,0:0:0
284,348,56507,2,0,P|244:328|216:348|216:348|204:292|152:312|152:312|96:324|96:248,1,220,10|0,0:0|0:0,0:0:0
72,160,56916,5,8,0:0:0
200,56,57052,1,2,0:0:0
224,220,57189,1,0,0:0:0
344,108,57325,1,8,0:0:0
344,108,57462,6,0,P|384:140|352:176|352:176|396:160|416:188|432:240|424:284,1,220,6|8,0:0|0:0,0:0:0
425,266,57871,1,0,0:0:0
296,248,58007,1,0,0:0:0
344,372,58143,1,10,0:0:0
216,248,58280,1,0,0:0:0
168,372,58416,1,2,0:0:0
216,248,58552,5,8,0:0:0
320,132,58689,1,2,0:0:0
296,248,58825,1,0,0:0:0
192,132,58962,1,10,0:0:0
256,8,59098,5,2,0:0:0
256,320,59371,1,8,0:0:0
504,204,59643,6,0,P|471:171|472:172|472:172|460:120|460:120|388:140|392:108|392:108|372:72,1,220,8|0,0:0|0:0,0:0:0
256,8,60052,1,8,0:0:0
192,132,60189,1,0,0:0:0
212,252,60325,1,2,0:0:0
320,132,60462,1,8,0:0:0
300,252,60598,1,2,0:0:0
340,376,60734,1,0,0:0:0
452,296,60871,6,0,P|432:268|464:220|464:220|464:176|456:120|396:88,1,220,10|8,0:0|0:0,0:0:0
244,144,61416,1,2,0:0:0
244,320,61689,1,8,0:0:0
244,320,61825,2,0,P|240:276|252:232|252:232|208:216|188:168|132:212,1,220,6|0,0:0|0:0,0:0:0
60,320,62234,1,8,0:0:0
134,210,62371,1,2,0:0:0
396,156,62643,5,0,0:0:0
396,156,62780,2,0,P|356:152|328:108|328:108|288:112|284:168|340:220,1,220,8|2,0:0|0:0,0:0:0
364,344,63189,1,0,0:0:0
334,214,63325,1,12,0:0:0
152,360,63598,5,2,0:0:0
236,272,63734,1,2,0:0:0
248,272,63803,1,8,0:0:0
256,280,63871,1,10,0:0:0
152,152,64007,6,0,P|200:120|192:84|192:84|168:20|276:92|328:44,1,220,4|8,0:0|0:0,0:0:0
432,36,64416,1,0,0:0:0
356,144,64552,1,0,0:0:0
296,328,64689,1,10,0:0:0
384,228,64825,1,0,0:0:0
216,328,64962,1,2,0:0:0
128,228,65098,1,8,0:0:0
156,376,65234,5,2,0:0:0
196,248,65371,1,0,0:0:0
356,376,65507,1,10,0:0:0
316,248,65644,1,0,0:0:0
256,364,65780,1,2,0:0:0
256,364,65916,1,8,0:0:0
12,272,66189,5,14,0:0:0
16,256,66462,1,0,0:0:0
120,336,66598,1,8,0:0:0
112,120,66734,1,0,0:0:0
160,244,66871,1,2,0:0:0
160,244,67007,1,8,0:0:0
256,140,67143,1,0,0:0:0
256,140,67280,5,0,0:0:0
352,244,67416,1,8,0:0:0
352,244,67552,1,0,0:0:0
400,120,67689,1,0,0:0:0
256,32,67825,1,10,0:0:0
256,288,68098,1,0,0:0:0
508,304,68371,2,0,P|496:264|496:192,1,110,10|4,0:0|0:0,0:0:0
316,72,68780,5,8,0:0:0
320,204,68916,1,0,0:0:0
196,160,69052,1,2,0:0:0
160,288,69189,1,0,0:0:0
284,332,69325,2,0,P|396:336,1,110,8|2,0:0|0:0,0:0:0
64,76,69734,5,0,0:0:0
64,76,69871,2,0,P|136:88|164:60|164:60|216:108|260:76|260:76|280:108,1,220,8|2,0:0|0:0,0:0:0
380,148,70280,1,0,0:0:0
317,32,70416,1,8,0:0:0
256,176,70552,6,0,P|264:196|252:204|248:204|248:204|260:208|260:208|252:212|252:212|260:212|260:212|248:216|248:216|264:216|264:216|248:224|248:224|272:220|272:220|240:224|240:224|272:224|272:224|256:236|256:236|272:240|272:240|260:252|260:252|256:288|256:348,1,330.000012588501,6|0,0:0|0:0,0:0:0
256,192,77234,12,2,79143,0:0:0
192,248,79416,5,0,0:0:0
384,296,79689,2,0,P|368:352|368:384,1,88,8|0,0:0|0:0,0:0:0
424,216,79962,2,0,P|464:260|480:312,1,88,2|0,0:0|0:0,0:0:0
392,132,80234,1,8,0:0:0
336,212,80371,1,0,0:0:0
248,172,80507,2,0,P|164:208,1,88,2|0,0:0|0:0,0:0:0
96,72,80780,2,0,P|196:100,1,88,8|0,0:0|0:0,0:0:0
280,100,81052,5,2,0:0:0
376,20,81189,1,0,0:0:0
440,124,81325,1,8,0:0:0
380,232,81462,1,0,0:0:0
376,356,81598,5,2,0:0:0
376,356,81734,1,0,0:0:0
252,364,81871,2,0,P|240:312|248:264,1,88,8|0,0:0|0:0,0:0:0
144,288,82143,2,0,P|147:266|179:209,1,88,2|0,0:0|0:0,0:0:0
80,368,82416,2,0,P|64:224|96:92,1,263.99999194336,8|2,0:0|0:0,0:0:0
272,44,82962,6,0,P|280:136|280:140,1,88,8|0,0:0|0:0,0:0:0
364,228,83234,1,2,0:0:0
424,152,83371,1,0,0:0:0
420,56,83507,2,0,P|464:72|512:116|520:180|520:256|480:308,1,263.99999194336,8|2,0:0|0:0,0:0:0
276,344,84052,5,8,0:0:0
276,344,84189,1,0,0:0:0
184,312,84325,2,0,P|128:312|88:344,2,88,2|0|8,0:0|0:0|0:0,0:0:0
200,216,84734,1,0,0:0:0
100,180,84871,2,0,P|112:132|140:104|140:104|180:104|228:124,1,176,0|8,0:0|0:0,0:0:0
226,123,85280,1,0,0:0:0
300,192,85416,5,2,0:0:0
312,96,85552,1,0,0:0:0
224,52,85689,1,8,0:0:0
136,92,85825,1,0,0:0:0
128,188,85962,5,2,0:0:0
224,180,86098,1,0,0:0:0
284,256,86234,1,8,0:0:0
356,320,86371,2,0,P|296:376|228:252|164:376|100:320,1,264,2|8,0:0|0:0,0:0:0
288,228,86916,6,0,P|256:56|228:228,1,495,8|0,0:0|0:0,0:0:0
112,72,88416,6,0,P|84:176|88:192,1,88,8|0,0:0|0:0,0:0:0
156,252,88689,1,0,0:0:0
188,152,88825,1,2,0:0:0
262,242,88962,1,8,0:0:0
332,320,89098,1,0,0:0:0
408,248,89234,6,0,P|440:288|444:332,1,88,2|0,0:0|0:0,0:0:0
368,148,89507,2,0,P|340:192|336:244,1,88,8|0,0:0|0:0,0:0:0
272,312,89780,1,2,0:0:0
180,232,89916,1,0,0:0:0
256,136,90052,1,8,0:0:0
140,92,90189,1,0,0:0:0
68,192,90325,6,0,P|96:212|96:240|96:240|132:232|162:198|162:198|184:236|192:264,1,176,2|8,0:0|0:0,0:0:0
212,332,90734,1,0,0:0:0
332,272,90871,2,0,P|356:324|360:364,1,88,2|0,0:0|0:0,0:0:0
308,168,91143,1,8,0:0:0
408,204,91280,1,0,0:0:0
472,120,91416,2,0,P|444:112|424:132|424:132|380:144|352:76|308:64,1,176,2|8,0:0|0:0,0:0:0
156,72,91825,1,2,0:0:0
240,136,91962,1,0,0:0:0
108,288,92098,1,0,0:0:0
80,168,92234,1,8,0:0:0
192,196,92371,2,0,P|236:216|248:256,1,88,0|2,0:0|0:0,0:0:0
484,28,92780,5,8,0:0:0
464,336,93052,1,2,0:0:0
408,256,93189,1,0,0:0:0
400,160,93325,1,8,0:0:0
324,100,93462,2,0,P|296:140|268:136|268:136|272:200|224:252,1,176,2|0,0:0|0:0,0:0:0
216,328,93871,1,8,0:0:0
64,60,94143,5,2,0:0:0
84,156,94280,1,0,0:0:0
64,60,94416,1,8,0:0:0
160,80,94552,2,0,P|232:116|336:92,1,176,2|0,0:0|0:0,0:0:0
404,56,94962,1,8,0:0:0
392,316,95234,5,2,0:0:0
392,316,95371,1,0,0:0:0
392,316,95507,1,8,0:0:0
128,288,95780,5,2,0:0:0
384,96,95916,2,0,P|312:152,1,88,8|10,0:0|0:0,0:0:0
184,124,96189,1,0,0:0:0
328,260,96325,1,10,0:0:0
120,64,96462,5,0,0:0:0
108,72,96530,1,8,0:0:0
105,86,96598,1,10,0:0:0
40,172,96734,1,8,0:0:0
144,200,96871,5,2,0:0:0
216,288,97007,2,0,P|208:312|192:324,2,44,0|0|10,0:0|0:0|0:0,0:0:0
316,232,97280,2,0,P|352:240|384:276|384:276|400:212|456:212,1,176,2|0,0:0|0:0,0:0:0
376,132,97689,1,8,0:0:0
476,100,97825,1,0,0:0:0
512,200,97962,2,0,P|504:256|480:288,1,88,2|0,0:0|0:0,0:0:0
332,364,98234,2,0,P|328:320|352:284|352:284|340:232|268:212,1,176,8|2,0:0|0:0,0:0:0
204,280,98643,1,0,0:0:0
184,140,98780,1,8,0:0:0
184,140,98916,1,0,0:0:0
204,280,99052,5,2,0:0:0
80,232,99189,2,0,P|64:247|56:267,2,44,0|0|8,0:0|0:0|0:0,0:0:0
56,120,99462,2,0,P|112:84|160:148|232:100,1,176,2|0,0:0|0:0,0:0:0
248,208,99871,1,8,0:0:0
308,120,100007,1,0,0:0:0
408,152,100143,2,0,P|444:112|444:76,2,88,2|0|8,0:0|0:0|0:0,0:0:0
268,312,100689,2,0,P|288:364|316:380,2,88,2|0|8,0:0|0:0|0:0,0:0:0
268,312,101098,1,0,0:0:0
164,296,101234,6,8,P|136:304,5,29.3333333333333,10|8|8|8|8|0,0:0|0:0|0:0|0:0|0:0|0:0,0:0:0
180,284,101507,2,0,P|208:248|208:204,1,88,8|2,0:0|0:0,0:0:0
404,28,101916,5,0,0:0:0
312,80,102052,1,8,0:0:0
208,56,102189,1,0,0:0:0
116,108,102325,2,0,P|200:184|268:180,1,176,0|8,0:0|0:0,0:0:0
364,180,102734,1,0,0:0:0
432,260,102871,2,8,P|472:252,2,29.3333333333333,10|8|8,0:0|0:0|0:0,0:0:0
376,296,103007,2,8,P|360:324,2,29.3333333333333
320,260,103143,2,8,P|268:272|236:296,1,88,8|0,0:0|0:0,0:0:0
192,136,103416,5,2,0:0:0
320,248,103689,1,8,0:0:0
156,104,103962,5,2,0:0:0
256,192,104098,1,0,0:0:0
356,280,104234,1,8,0:0:0
356,104,104507,5,2,0:0:0
156,280,104780,1,10,0:0:0
308,152,105053,5,10,0:0:0
204,232,105189,1,10,0:0:0
356,252,105325,1,10,0:0:0
156,132,105462,1,10,0:0:0
156,280,105598,5,2,0:0:0
256,192,105734,1,0,0:0:0
356,104,105871,1,8,0:0:0
232,356,106280,5,0,0:0:0
304,280,106416,1,8,0:0:0
300,176,106552,1,0,0:0:0
224,236,106689,5,2,0:0:0
132,200,106825,1,0,0:0:0
156,104,106962,1,8,0:0:0
244,60,107098,2,0,P|280:64|292:88|292:88|312:40|400:28,1,176,2|0,0:0|0:0,0:0:0
404,124,107507,1,8,0:0:0
464,200,107643,1,0,0:0:0
448,344,107780,5,2,0:0:0
64,40,108052,1,8,0:0:0
424,268,108325,1,2,0:0:0
88,116,108598,1,8,0:0:0
444,24,108871,6,0,P|428:72|408:56|408:56|368:80|348:192,1,176,2|8,0:0|0:0,0:0:0
340,264,109280,1,2,0:0:0
176,80,109552,1,0,0:0:0
176,80,109689,1,8,0:0:0
72,344,109962,5,2,0:0:0
72,344,110234,2,0,P|88:296|88:248,1,88,8|0,0:0|0:0,0:0:0
56,176,110507,1,2,0:0:0
148,208,110643,1,0,0:0:0
248,172,110780,1,8,0:0:0
356,208,110916,1,0,0:0:0
476,180,111052,5,2,0:0:0
476,180,111325,2,0,P|468:128|472:80,1,88,8|0,0:0|0:0,0:0:0
384,48,111598,1,2,0:0:0
280,68,111734,1,0,0:0:0
168,40,111871,1,8,0:0:0
48,68,112007,1,0,0:0:0
80,196,112143,5,2,0:0:0
80,196,112416,2,0,P|92:256|116:288,1,88,8|0,0:0|0:0,0:0:0
40,360,112689,1,2,0:0:0
152,380,112825,1,0,0:0:0
268,336,112962,1,10,0:0:0
300,208,113098,1,8,0:0:0
432,160,113234,6,0,P|368:160|328:140,1,88,14|0,0:0|0:0,0:0:0
136,44,113507,1,14,0:0:0
196,144,113643,2,0,P|177:155|169:175,2,44,8|0|6,0:0|0:0|0:0,0:0:0
348,48,113916,1,8,0:0:0
448,192,114052,6,0,P|424:232|392:300|316:296|272:228|248:148|224:88|128:80|72:104|68:192|68:192,1,495,6|4,0:0|0:0,0:0:0
80,368,115552,6,0,P|80:317|100:261,1,110,4|8,0:0|0:0,0:0:0
228,304,115825,1,0,0:0:0
308,200,115962,1,2,0:0:0
236,88,116098,1,8,0:0:0
308,200,116234,1,0,0:0:0
352,328,116371,5,0,0:0:0
432,224,116507,1,10,0:0:0
372,104,116643,2,0,P|468:44,2,110,0|0|8,0:0|0:0|0:0,0:0:0
240,128,117052,1,2,0:0:0
244,284,117189,1,8,0:0:0
8,340,117462,6,0,P|8:272|32:228|32:228|8:176|24:112,1,220,8|4,0:0|0:0,0:0:0
20,126,117871,1,8,0:0:0
116,200,118007,1,0,0:0:0
160,76,118143,1,2,0:0:0
256,168,118280,1,8,0:0:0
256,36,118416,1,0,0:0:0
396,200,118552,5,0,0:0:0
352,76,118688,1,10,0:0:0
256,168,118825,1,0,0:0:0
256,304,118962,1,0,0:0:0
256,36,119098,1,8,0:0:0
256,384,119371,1,10,0:0:0
128,208,119643,5,10,0:0:0
344,56,119916,2,0,P|360:116|344:172,1,110,4|8,0:0|0:0,0:0:0
472,108,120189,1,0,0:0:0
416,228,120325,1,2,0:0:0
256,88,120462,1,8,0:0:0
256,220,120598,1,0,0:0:0
40,108,120734,1,0,0:0:0
96,228,120870,1,10,0:0:0
256,288,121007,5,0,0:0:0
256,288,121143,2,0,P|312:284|340:328|340:328|348:264|440:256,1,220,8|2,0:0|0:0,0:0:0
332,164,121552,1,0,0:0:0
404,52,121689,1,8,0:0:0
208,108,121825,6,0,P|156:136|156:136|148:200|120:268|60:272,1,220,0|4,0:0|0:0,0:0:0
144,372,122234,1,8,0:0:0
408,344,122371,6,0,P|440:324|424:288|424:288|396:244|488:248|488:248|480:152,1,220,2|4,0:0|0:0,0:0:0
416,92,122780,1,8,0:0:0
104,40,122916,6,0,P|72:60|88:96|88:96|116:140|24:136|24:136|32:232,1,220,2|4,0:0|0:0,0:0:0
92,308,123325,1,8,0:0:0
304,276,123462,6,0,P|356:248|356:248|364:184|392:116|452:112,1,220,0|4,0:0|0:0,0:0:0
256,332,124007,1,12,0:0:0
256,40,124280,6,0,P|232:96|188:136,1,110,8|0,0:0|0:0,0:0:0
92,212,124552,1,0,0:0:0
136,340,124689,1,10,0:0:0
256,196,124825,1,0,0:0:0
256,332,124962,1,0,0:0:0
420,212,125098,1,8,0:0:0
376,340,125234,1,2,0:0:0
256,196,125371,1,0,0:0:0
256,196,125507,1,8,0:0:0
256,384,125643,5,0,0:0:0
256,264,125780,1,2,0:0:0
256,144,125916,2,0,P|184:136|168:84|168:84|112:192,1,220,8|14,0:0|0:0,0:0:0
384,128,126462,6,0,P|412:184|412:240,1,110,8|0,0:0|0:0,0:0:0
300,164,126734,1,0,0:0:0
332,36,126871,1,10,0:0:0
212,164,127007,1,0,0:0:0
180,36,127144,1,2,0:0:0
208,308,127280,5,8,0:0:0
112,216,127416,1,2,0:0:0
304,308,127552,1,0,0:0:0
400,216,127688,1,10,0:0:0
504,132,127825,6,0,P|452:112|452:112|412:40|400:16|284:40,1,220,0|10,0:0|0:0,0:0:0
300,164,128234,1,0,0:0:0
304,308,128371,2,0,P|252:340|196:340,1,110,2|8,0:0|0:0,0:0:0
408,316,128780,1,8,0:0:0
256,364,128916,5,0,0:0:0
192,248,129052,1,2,0:0:0
280,148,129189,1,0,0:0:0
408,184,129325,1,8,0:0:0
408,316,129462,2,0,P|348:304|308:240|244:192|212:188,1,220,2|0,0:0|0:0,0:0:0
124,112,129871,1,12,0:0:0
380,64,130143,5,14,0:0:0
380,184,130280,1,0,0:0:0
380,192,130348,1,0,0:0:0
380,200,130416,1,8,0:0:0
380,208,130484,1,0,0:0:0
380,216,130552,2,0,P|380:308|380:308|308:292|272:356,1,220,12|8,0:0|0:0,0:0:0
80,356,130962,6,0,P|48:304|48:252,1,110,12|0,0:0|0:0,0:0:0
432,356,131234,2,0,P|464:304|464:256,1,110,10|0,0:0|0:0,0:0:0
432,28,131507,2,0,P|464:80|464:127,1,110,8|0,0:0|0:0,0:0:0
80,28,131780,2,0,P|48:80|48:132,1,110,10|0,0:0|0:0,0:0:0
256,144,132052,2,0,P|256:24,2,110,12|0|10,0:0|0:0|0:0,0:0:0
256,328,132462,1,0,0:0:0
256,328,132598,1,8,0:0:0
360,248,132734,5,0,0:0:0
368,116,132871,2,0,P|424:84|452:32,2,110,10|0|12,0:0|0:0|0:0,0:0:0
244,68,133280,1,0,0:0:0
140,148,133416,2,0,P|104:136|80:100|80:100|44:176|64:264,1,220,10|8,0:0|0:0,0:0:0
120,356,133825,1,0,0:0:0
168,232,133962,2,0,P|232:224|272:196,2,110,10|0|12,0:0|0:0|0:0,0:0:0
344,40,134371,5,2,0:0:0
168,344,134643,1,8,0:0:0
496,216,134916,6,0,P|432:224|376:204|376:204|392:156|440:124,1,220,10|8,0:0|0:0,0:0:0
268,68,135325,2,0,P|280:128|264:184,1,110,12|0,0:0|0:0,0:0:0
12,220,135598,2,0,P|4:288|28:340,1,110,10|0,0:0|0:0,0:0:0
264,360,135871,2,0,P|236:308|232:252,1,110,8|0,0:0|0:0,0:0:0
60,36,136143,2,0,P|76:92|64:152,1,110,10|0,0:0|0:0,0:0:0
136,288,136416,1,12,0:0:0
384,188,136689,5,10,0:0:0
384,188,136825,1,0,0:0:0
448,72,136962,1,8,0:0:0
476,288,137098,2,0,P|400:288|376:320|376:320|336:272|300:264|280:328,1,220,2|0,0:0|0:0,0:0:0
168,364,137507,1,12,0:0:0
148,100,137780,6,0,P|96:64|44:64,2,110,2|0|8,0:0|0:0|0:0,0:0:0
344,276,138325,1,2,0:0:0
388,28,138598,1,12,0:0:0
148,100,138871,1,2,0:0:0
152,232,139007,2,0,P|128:248|96:248,2,55,0|0|8,0:0|0:0|0:0,0:0:0
272,288,139280,6,0,P|332:256|332:216|332:216|380:256|396:304|380:332,1,220,10|8,0:0|0:0,0:0:0
448,84,139689,2,0,P|396:64|344:72,1,110,12|0,0:0|0:0,0:0:0
64,300,139962,2,0,P|116:320|168:312,1,110,10|0,0:0|0:0,0:0:0
413,37,140234,2,0,P|358:32|309:53,1,110,8|0,0:0|0:0,0:0:0
98,346,140507,2,0,P|153:351|202:330,1,110,10|0,0:0|0:0,0:0:0
132,64,140780,2,0,P|212:144,1,110,12|0,0:0|0:0,0:0:0
380,320,141052,2,0,P|302:242,1,110,10|0,0:0|0:0,0:0:0
332,112,141325,1,8,0:0:0
256,320,141462,6,0,P|240:280|240:232|256:200|272:168|272:112|256:76,1,220,10|8,0:0|0:0,0:0:0
88,256,141871,2,0,P|116:200|116:144,1,110,12|0,0:0|0:0,0:0:0
424,256,142143,2,0,P|396:200|396:144,1,110,10|0,0:0|0:0,0:0:0
68,172,142416,2,0,P|120:152|152:104,1,110,8|0,0:0|0:0,0:0:0
444,172,142689,2,0,P|392:152|360:104,2,110,10|0|12,0:0|0:0|0:0,0:0:0
464,304,143098,6,0,P|408:304|372:280|372:280|340:352|276:352|264:296,1,220,2|8,0:0|0:0,0:0:0
228,200,143507,1,8,0:0:0
124,280,143643,2,0,P|44:360,1,110,0|10,0:0|0:0,0:0:0
348,36,144052,5,12,0:0:0
404,168,144189,1,0,0:0:0
268,212,144325,1,2,0:0:0
376,308,144462,1,0,0:0:0
404,168,144598,1,8,0:0:0
376,308,144734,6,0,P|312:348|312:348|264:328|208:360|208:360|160:336,1,220,2|8,0:0|0:0,0:0:0
44,360,145143,1,12,0:0:0
88,224,145280,1,0,0:0:0
216,160,145416,1,2,0:0:0
96,80,145552,1,0,0:0:0
88,224,145689,1,8,0:0:0
96,80,145825,6,0,P|160:68|188:100|188:100|204:56|256:88|256:88|296:56,1,220,2|8,0:0|0:0,0:0:0
416,36,146234,1,12,0:0:0
360,296,146507,5,2,0:0:0
360,296,146643,1,0,0:0:0
396,144,146780,1,8,0:0:0
156,252,147052,5,2,0:0:0
156,252,147188,1,8,0:0:0
120,100,147325,1,14,0:0:0
52,240,147462,1,0,0:0:0
120,100,147598,1,14,0:0:0
244,60,147734,5,8,0:0:0
260,64,147802,1,0,0:0:0
272,76,147871,2,0,P|304:120|312:180,1,110,14|4,0:0|0:0,0:0:0
256,340,148280,6,0,P|320:352|368:340,2,110,0|8|0,0:0|0:0|0:0,0:0:0
168,332,148689,1,2,0:0:0
144,248,148825,1,0,0:0:0
80,188,148962,1,8,0:0:0
64,100,149098,6,0,P|96:52|124:40|124:40|128:116|220:164,1,220,6|0,0:0|0:0,0:0:0
256,212,149507,1,8,0:0:0
448,100,149643,2,0,P|416:52|388:40|388:40|384:116|292:164,1,220,6|0,0:0|0:0,0:0:0
256,212,150052,1,8,0:0:0
284,296,150189,1,4,0:0:0
364,336,150325,6,0,P|432:344|472:320,1,110,2|0,0:0|0:0,0:0:0
496,244,150598,2,0,P|440:236|384:260,1,110,8|0,0:0|0:0,0:0:0
284,296,150871,1,2,0:0:0
328,220,151007,1,0,0:0:0
296,140,151143,1,8,0:0:0
360,80,151280,6,0,P|404:36|476:56|476:56|436:112|496:172,1,220,6|0,0:0|0:0,0:0:0
473,239,151689,2,0,P|436:272|476:328|476:328|404:348|360:304,1,220,14|0,0:0|0:0,0:0:0
284,296,152098,1,4,0:0:0
284,296,152234,1,8,0:0:0
96,360,152371,6,0,P|136:312|92:272|92:272|144:236|228:252,1,220,6|0,0:0|0:0,0:0:0
284,296,152780,1,8,0:0:0
324,216,152916,1,0,0:0:0
264,152,153052,2,0,P|216:144|168:88,1,110,2|0,0:0|0:0,0:0:0
124,28,153325,1,8,0:0:0
92,108,153462,6,0,P|88:196|160:264|160:264|224:252,1,220,6|0,0:0|0:0,0:0:0
256,340,153871,1,8,0:0:0
420,108,154007,2,0,P|424:196|352:264|352:264|288:252,1,220,6|0,0:0|0:0,0:0:0
256,340,154416,1,12,0:0:0
256,340,154552,6,0,P|256:224,1,110,0|2,0:0|0:0,0:0:0
256,44,154825,2,0,P|256:160,1,110,0|8,0:0|0:0,0:0:0
108,192,155098,2,0,P|224:192,1,110,0|2,0:0|0:0,0:0:0
404,192,155371,2,0,P|288:192,1,110,0|8,0:0|0:0,0:0:0
256,272,155643,5,0,0:0:0
180,228,155780,1,2,0:0:0
100,264,155916,1,0,0:0:0
44,196,156052,1,8,0:0:0
72,112,156189,1,0,0:0:0
72,112,156325,2,0,P|140:88|192:112|192:112|236:152|244:200,1,220,6|12,0:0|0:0,0:0:0
256,316,156734,5,10,0:0:0
356,48,157007,2,0,P|376:108|376:160,1,110,4|8,0:0|0:0,0:0:0
368,288,157280,1,0,0:0:0
308,208,157416,1,2,0:0:0
212,232,157552,1,0,0:0:0
144,160,157689,1,8,0:0:0
216,92,157825,5,0,0:0:0
144,160,157962,2,0,P|152:224|112:248|112:248|140:320|200:348,1,220,2|8,0:0|0:0,0:0:0
316,364,158371,1,6,0:0:0
408,48,158643,5,4,0:0:0
408,48,158780,2,0,P|408:112|384:164,1,110,8|0,0:0|0:0,0:0:0
428,280,159052,1,2,0:0:0
152,84,159325,1,12,0:0:0
256,296,159598,5,2,0:0:0
364,192,159734,1,0,0:0:0
256,88,159871,1,8,0:0:0
148,192,160007,1,0,0:0:0
88,352,160143,6,0,P|168:272,1,110,6|0,0:0|0:0,0:0:0
424,352,160416,2,0,P|344:272,1,110,8|0,0:0|0:0,0:0:0
256,208,160689,1,10,0:0:0
256,28,160825,5,0,0:0:0
256,44,160893,1,0,0:0:0
256,60,160962,2,8,P|256:172,1,110,8|8,0:0|0:0,0:0:0
256,324,161234,1,6,0:0:0
352,340,161371,5,0,0:0:0
364,244,161507,1,8,0:0:0
488,312,161643,2,0,P|468:264|484:176|484:176|452:140,1,176
458,147,162052,1,8,0:0:0
324,32,162189,6,0,P|328:80|296:148|256:152|256:152|220:188,1,176
256,276,162598,1,8,0:0:0
188,32,162734,2,0,P|184:80|216:148|256:152|256:152|288:184,1,176
256,276,163143,1,8,0:0:0
200,356,163280,1,0,0:0:0
376,352,163416,5,6,0:0:0
424,268,163552,1,0,0:0:0
368,188,163689,1,8,0:0:0
256,276,163825,2,0,P|240:268|236:236|236:236|160:248|108:216|112:168,1,176
118,200,164234,1,8,0:0:0
92,60,164371,6,0,P|180:104|236:96|236:96|216:160,1,176
304,196,164780,1,8,0:0:0
420,60,164916,2,0,P|332:104|276:96|276:96|296:160,1,176
208,196,165325,1,8,0:0:0
224,292,165462,1,0,0:0:0
52,252,165598,5,6,0:0:0
124,316,165734,1,0,0:0:0
52,252,165871,1,8,0:0:0
168,120,166007,2,0,P|244:144|308:116|308:116|356:144,1,176
336,132,166416,1,8,0:0:0
400,316,166552,6,0,P|340:316|304:276|308:228|272:200|288:320,1,176
256,184,166962,1,8,0:0:0
112,316,167098,2,0,P|172:316|208:276|204:228|240:200|224:320,1,176
256,184,167508,1,8,0:0:0
256,360,167643,1,0,0:0:0
256,184,167780,5,6,0:0:0
196,108,167916,1,0,0:0:0
112,156,168052,1,8,0:0:0
256,52,168189,2,0,P|324:104|368:96|368:96|392:136|432:144,1,176
404,133,168598,1,8,0:0:0
484,276,168734,6,0,P|428:280|392:212|392:212|352:200|300:236,1,176
256,272,169143,1,8,0:0:0
28,276,169280,2,0,P|84:280|120:212|120:212|160:200|212:236,1,176
256,272,169689,1,8,0:0:0
256,160,169825,5,0,0:0:0
256,52,169962,1,6,0:0:0
364,24,170098,1,0,0:0:0
124,36,170234,2,0,P|104:92|104:156,1,110,8|0,0:0|0:0,0:0:0
386,33,170507,2,0,P|406:89|408:140,1,110,10|0,0:0|0:0,0:0:0
52,116,170780,2,0,P|88:178|123:208,1,110,8|0,0:0|0:0,0:0:0
460,116,171052,2,0,P|424:178|388:208,1,110,10|0,0:0|0:0,0:0:0
40,224,171325,2,0,P|102:260|148:268,1,110,8|0,0:0|0:0,0:0:0
472,224,171598,2,0,P|409:260|363:268,1,110,10|0,0:0|0:0,0:0:0
256,80,171871,1,8,0:0:0
256,300,172007,6,0,P|248:236|252:172|296:132|296:132|324:176|324:204,1,220,6|4,0:0|0:0,0:0:0
360,280,172416,2,0,P|404:236|460:232,2,110,8|0|2,0:0|0:0|0:0,0:0:0
352,32,172825,5,8,0:0:0
344,92,172962,1,8,0:0:0
336,152,173098,2,0,P|276:160|224:140,1,110,8|2,0:0|0:0,0:0:0
168,352,173371,2,0,P|104:324|60:328,2,110,8|0|8,0:0|0:0|0:0,0:0:0
132,192,173780,5,10,0:0:0
116,32,173916,1,8,0:0:0
132,192,174052,1,8,0:0:0
116,32,174189,6,0,P|164:48|232:24|232:24|292:24|316:84,1,220,14|12,0:0|0:0,0:0:0
352,228,174598,2,0,P|384:160|384:112,1,110,8|0,0:0|0:0,0:0:0
160,228,174871,2,0,P|128:160|128:112,1,110,10|0,0:0|0:0,0:0:0
388,264,175143,2,0,P|449:221|473:179,1,110,8|0,0:0|0:0,0:0:0
124,264,175416,2,0,P|62:221|38:179,1,110,10|0,0:0|0:0,0:0:0
392,316,175689,2,0,P|466:309|508:285,1,110,8|0,0:0|0:0,0:0:0
120,316,175962,2,0,P|45:309|3:285,2,110,10|0|8,0:0|0:0|0:0,0:0:0
256,300,176371,6,0,P|264:236|260:172|216:132|216:132|188:176|188:204,1,220,6|4,0:0|0:0,0:0:0
168,53,176780,1,8,0:0:0
120,165,176916,1,0,0:0:0
220,24,177052,1,10,0:0:0
128,104,177188,1,0,0:0:0
344,53,177325,5,8,0:0:0
392,165,177461,1,0,0:0:0
291,24,177597,1,10,0:0:0
383,104,177733,1,0,0:0:0
256,113,177871,6,0,P|256:229,1,110,8|0,0:0|0:0,0:0:0
256,345,178143,1,8,0:0:0
140,257,178280,1,2,0:0:0
372,257,178416,1,10,0:0:0
256,345,178552,1,14,0:0:0
