osu file format v11

[General]
AudioFilename: Konoha no Sekai Jijou.mp3
AudioLeadIn: 1511
PreviewTime: 52154
Countdown: 0
SampleSet: Soft
StackLeniency: 0.7
Mode: 0
LetterboxInBreaks: 1

[Editor]
Bookmarks: 99747
DistanceSpacing: 1
BeatDivisor: 2
GridSize: 4

[Metadata]
Title:Konoha no Sekai Jijou
TitleUnicode:Konoha no Sekai Jijou
Artist:Kano
ArtistUnicode:Kano
Creator:enlxodutls
Version:Hard
Source:Nico Nico Douga
Tags:VocaloidTACU
BeatmapID:195577
BeatmapSetID:67261

[Difficulty]
HPDrainRate:6
CircleSize:4
OverallDifficulty:5
ApproachRate:8
SliderMultiplier:1.7
SliderTickRate:2

[Events]
//Background and Video events
Video,0,"[video].avi"
0,0,"BG.jpg"
//Break Periods
2,10888,16484
2,70752,76484
//Storyboard Layer 0 (Background)
//Storyboard Layer 1 (Fail)
//Storyboard Layer 2 (Pass)
//Storyboard Layer 3 (Foreground)
//Storyboard Sound Samples
//Background Colour Transformations
3,100,163,162,255

[TimingPoints]
1962,272.727272727273,4,2,2,60,1,0
2507,-100,4,2,2,60,0,0
2643,-100,4,2,2,65,0,0
4689,-100,4,2,2,50,0,0
4825,-100,4,2,2,65,0,0
6871,-100,4,2,2,40,0,0
7007,-100,4,2,2,65,0,0
9052,-100,4,2,2,50,0,0
9598,-100,4,2,2,50,0,0
9734,-100,4,2,2,65,0,0
10143,-100,4,2,2,70,0,0
10280,-100,4,2,2,65,0,0
10552,-100,4,2,2,70,0,0
19690,-100,4,2,2,65,0,0
27802,-100,4,2,2,65,0,0
28417,-100,4,2,2,65,0,0
36462,-100,4,2,2,45,0,0
36871,-100,4,2,2,45,0,0
37007,-100,4,2,2,45,0,0
37212,-100,4,2,2,65,0,0
38371,-100,4,2,2,45,0,0
38575,-100,4,2,2,65,0,0
39189,-100,4,2,2,45,0,0
39257,-100,4,2,2,65,0,0
40007,-100,4,2,2,45,0,0
40143,-100,4,2,2,65,0,0
40552,-100,4,2,2,45,0,0
40689,-100,4,2,2,65,0,0
41371,-100,4,2,2,45,0,0
41643,-100,4,2,2,65,0,0
43552,-100,4,2,2,45,0,0
43689,-100,4,2,2,70,0,0
43962,-100,4,2,2,70,0,0
45598,-100,4,2,2,70,0,0
45734,-100,4,2,2,50,0,0
45871,-100,4,2,2,70,0,0
46143,-100,4,2,2,50,0,0
46280,-100,4,2,2,70,0,0
47098,-100,4,2,2,50,0,0
47234,-100,4,2,2,70,0,0
47916,-100,4,2,2,50,0,0
48052,-100,4,2,2,70,0,0
48598,-100,4,2,2,70,0,0
52280,-100,4,2,2,50,0,0
52825,-100,4,2,2,80,0,0
53234,-100,4,2,2,90,0,0
54325,-100,4,2,2,65,0,0
54871,-100,4,2,2,10,0,0
55143,-100,4,2,2,80,0,0
55280,-100,4,2,2,100,0,1
55552,-100,4,2,2,70,0,1
61962,-100,4,2,2,40,0,1
62098,-100,4,2,2,70,0,1
64143,-100,4,2,2,50,0,1
64280,-100,4,2,2,70,0,1
65098,-100,4,2,2,60,0,1
65234,-100,4,2,2,70,0,1
66325,-100,4,2,2,70,0,1
68643,-100,4,2,2,60,0,1
68780,-100,4,2,2,70,0,1
69598,-100,4,2,2,50,0,1
69734,-100,4,2,2,70,0,1
70553,-100,4,2,2,60,0,0
79690,-100,4,2,2,65,0,0
86916,-200,4,2,2,80,0,0
87052,-200,4,2,2,5,0,0
88143,-100,4,2,2,60,0,0
88416,-100,4,2,2,65,0,0
93598,-100,4,2,2,40,0,0
93871,-100,4,2,2,65,0,0
96871,-100,4,2,2,70,0,0
97007,-100,4,2,2,45,0,0
97075,-100,4,2,2,70,0,0
97825,-100,4,2,2,45,0,0
97893,-100,4,2,2,70,0,0
98371,-100,4,2,2,45,0,0
98507,-100,4,2,2,70,0,0
99189,-100,4,2,2,45,0,0
99257,-100,4,2,2,70,0,0
100007,-100,4,2,2,45,0,0
100075,-100,4,2,2,70,0,0
100552,-100,4,2,2,45,0,0
100689,-100,4,2,2,70,0,0
101371,-100,4,2,2,45,0,0
101439,-100,4,2,2,70,0,0
102189,-100,4,2,2,45,0,0
102257,-100,4,2,2,70,0,0
102734,-100,4,2,2,45,0,0
102871,-100,4,2,2,70,0,0
103552,-100,4,2,2,45,0,0
103689,-100,4,2,2,70,0,0
104916,-100,4,2,2,45,0,0
105052,-100,4,2,2,70,0,0
107916,-100,4,2,2,45,0,0
108052,-100,4,2,2,70,0,0
112280,-100,4,2,2,50,0,0
112416,-100,4,2,2,80,0,0
114462,-133.333333333333,4,2,2,10,0,0
114871,-133.333333333333,4,2,2,20,0,0
115007,-133.333333333333,4,2,2,40,0,0
115143,-133.333333333333,4,2,2,90,0,0
115280,-100,4,1,1,70,0,1
115552,-100,4,2,2,70,0,1
121962,-100,4,2,2,50,0,1
122098,-100,4,2,2,60,0,1
123325,-100,4,2,2,70,0,1
124143,-100,4,2,2,50,0,1
124280,-100,4,2,2,70,0,1
124825,-100,4,2,2,50,0,1
124962,-100,4,2,2,70,0,1
126325,-100,4,2,2,50,0,1
126598,-100,4,2,2,70,0,1
127962,-100,4,2,2,40,0,1
128098,-100,4,2,2,70,0,1
130553,-100,4,2,2,80,0,1
134780,-100,4,2,2,60,0,1
134916,-100,4,2,2,80,0,1
137234,-100,4,2,2,60,0,1
137371,-100,4,2,2,80,0,1
138325,-100,4,2,2,60,0,1
138462,-100,4,2,2,80,0,1
139416,-100,4,2,2,60,0,1
140098,-100,4,2,2,80,0,1
141598,-100,4,2,2,60,0,1
141871,-100,4,2,2,80,0,1
144871,-100,4,2,2,50,0,1
145007,-100,4,2,2,80,0,1
148008,-100,4,2,2,60,0,0
156734,-100,4,2,2,85,0,0
157962,-100,4,2,2,60,0,0
158098,-100,4,2,2,85,0,0
160825,-100,4,2,2,100,0,0
161235,-100,4,2,2,60,0,0

[Colours]
Combo1 : 100,0,0
Combo2 : 94,94,47
Combo3 : 0,78,115

[HitObjects]
360,260,1962,2,0,P|424:192|428:172,2,85,0|2|8,0:0|0:0|0:0,0:0:0
297,318,2371,2,0,P|256:308|234:337|234:337|216:246|184:209,1,170
116,137,2917,1,0,0:0:0
212,40,3190,1,0,0:0:0
312,132,3462,1,8,0:0:0
446,109,3735,2,0,P|477:72|477:20,2,85,0|0|8,0:0|0:0|0:0,0:0:0
412,168,4144,6,0,P|354:168|315:209,2,85,0|2|8,0:0|0:0|0:0,0:0:0
452,224,4553,2,0,P|441:258|462:289|462:289|389:279|339:315,1,170
240,240,5099,1,0,0:0:0
296,116,5371,1,0,0:0:0
180,192,5644,1,8,0:0:0
116,312,5917,2,0,P|84:356|32:368,2,85,0|0|8,0:0|0:0|0:0,0:0:0
120,244,6325,6,0,P|80:204|76:152,2,85,0|2|8,0:0|0:0|0:0,0:0:0
184,216,6734,2,0,P|204:184|188:152|188:152|244:172|308:132,1,170
344,268,7280,1,0,0:0:0
456,192,7552,1,0,0:0:0
400,68,7825,1,8,0:0:0
268,100,8098,2,0,P|224:64|216:28,2,85,0|0|8,0:0|0:0|0:0,0:0:0
332,128,8507,6,0,P|376:120|416:144,2,85,0|2|8,0:0|0:0|0:0,0:0:0
348,196,8916,2,0,P|337:225|345:257|345:257|281:237|233:257,1,170
184,296,9325,1,8,0:0:0
184,296,9462,2,0,P|144:292|128:324|128:324|104:264|64:232,1,170
104,176,9871,1,8,0:0:0
104,176,10007,2,0,P|124:132|112:112|112:112|176:120|224:92,1,170
276,120,10416,1,0,0:0:0
276,120,10552,2,0,P|368:146,1,85,8|12,0:0|0:0,0:0:0
256,192,17234,12,12,19143,0:0:0
224,132,19689,6,0,P|160:156|144:184,1,85,0|0,0:0|0:0,0:0:0
216,288,20098,2,0,P|188:328|140:344,2,85,0|8|2,0:0|0:0|0:0,0:0:0
268,244,20507,2,0,P|288:196|328:168,2,85,0|0|8,0:0|0:0|0:0,0:0:0
276,312,20916,1,8,0:0:0
388,236,21189,2,0,P|416:192|416:152,1,85
376,104,21462,2,0,P|344:140|336:188,1,85,0|8,0:0|0:0,0:0:0
268,168,21734,5,8,0:0:0
216,124,21871,2,0,P|160:120|128:140,1,85,0|2,0:0|0:0,0:0:0
83,90,22143,2,0,P|48:140|48:180,1,85,8|0,0:0|0:0,0:0:0
100,204,22416,1,0,0:0:0
100,272,22552,2,0,P|80:316|44:336,2,85,0|0|8,0:0|0:0|0:0,0:0:0
168,260,22962,1,0,0:0:0
168,260,23098,1,8,0:0:0
268,352,23371,2,0,P|312:336|348:356,1,85
440,256,23780,5,8,0:0:0
440,256,23916,1,0,0:0:0
380,288,24052,2,0,P|408:332|440:352,1,85,2|0,0:0|0:0,0:0:0
277,283,24462,2,0,P|248:316|209:331,2,85,0|8|0,0:0|0:0|0:0,0:0:0
304,220,24871,1,0,0:0:0
304,220,25007,1,0,0:0:0
236,220,25143,2,0,P|188:204|148:212,1,85,8|0,0:0|0:0,0:0:0
56,116,25552,2,0,P|100:76|136:68,1,85
256,36,25962,6,0,P|256:120,3,85,8|0|10|10,0:0|0:0|0:0|0:0,0:0:0
364,204,26643,2,0,P|412:184|440:160,2,85,0|2|0,0:0|0:0|0:0,0:0:0
299,225,27052,1,0,0:0:0
240,190,27189,2,0,P|220:250|232:294,1,85,8|0,0:0|0:0,0:0:0
236,337,27462,1,0,0:0:0
171,319,27598,6,0,P|103:279|79:235,1,127.5,8|0,0:0|0:0,0:0:0
74,222,27871,1,8,0:0:0
140,169,28007,2,0,P|176:129|184:89,1,85,0|2,0:0|0:0,0:0:0
306,42,28416,5,8,0:0:0
369,162,28689,2,0,P|413:247,1,85
398,305,28962,2,0,P|321:266,1,85,8|2,0:0|0:0,0:0:0
200,327,29371,6,0,P|150:312|116:330,1,85,8|0,0:0|0:0,0:0:0
64,360,29643,1,0,0:0:0
35,298,29780,2,0,P|53:212,1,85,0|8,0:0|0:0,0:0:0
8,163,30052,2,0,P|55:88,1,85
109,52,30325,1,8,0:0:0
198,154,30598,5,0,0:0:0
292,252,30871,1,8,0:0:0
292,252,31007,1,2,0:0:0
324,192,31143,2,0,P|368:208|388:248,1,85,0|8,0:0|0:0,0:0:0
404,104,31552,5,0,0:0:0
404,104,31689,1,0,0:0:0
352,60,31825,2,0,P|316:48|264:64,1,85,8|8,0:0|0:0,0:0:0
220,104,32098,2,0,P|172:88|144:44,2,85,0|10|0,0:0|0:0|0:0,0:0:0
244,168,32507,1,8,0:0:0
160,276,32780,5,0,0:0:0
280,340,33052,1,0,0:0:0
280,340,33189,1,0,0:0:0
312,280,33325,2,0,P|360:288|404:272,1,85,8|2,0:0|0:0,0:0:0
436,148,33734,5,8,0:0:0
392,96,33871,2,0,P|344:112|316:148,1,85
264,172,34143,1,0,0:0:0
264,172,34280,1,0,0:0:0
232,232,34416,2,0,P|204:272|164:288,1,85,0|10,0:0|0:0,0:0:0
100,172,34825,5,0,0:0:0
100,172,34962,1,10,0:0:0
100,172,35098,1,0,0:0:0
216,100,35371,2,0,P|264:72|284:44,2,85,0|10|0,0:0|0:0|0:0,0:0:0
264,172,35780,5,0,0:0:0
336,128,35916,2,0,P|392:132|420:160,1,85,8|0,0:0|0:0,0:0:0
450,226,36189,1,0,0:0:0
422,306,36325,2,0,P|408:320|420:356|420:356|344:332|304:360,1,170,10|2,0:0|0:0,0:0:0
288,276,36734,1,2,0:0:0
236,344,36871,6,0,P|182:330|148:260,1,127.5,8|0,0:0|0:0,0:0:0
148,260,37143,1,8,0:0:0
64,276,37280,1,8,0:0:0
140,124,37552,1,10,0:0:0
140,124,37689,1,0,0:0:0
300,64,37962,5,0,0:0:0
300,64,38098,1,0,0:0:0
384,76,38234,2,0,P|412:92|432:88|432:88|424:132|440:168,1,127.5,8|0,0:0|0:0,0:0:0
440,176,38507,1,8,0:0:0
384,240,38643,2,0,P|400:280|436:304,1,85,0|8,0:0|2:0,0:0:0
272,356,39052,6,0,P|208:376|156:368|116:288,1,170,10|2,0:0|0:0,0:0:0
60,360,39462,1,10,0:0:0
100,196,39734,5,0,0:0:0
84,112,39871,2,0,P|124:128|200:96|212:56,1,127.5,8|0,0:0|0:0,0:0:0
212,68,40143,1,8,0:0:0
264,136,40280,1,2,0:0:0
308,64,40416,2,0,P|388:96|428:172,1,170,2|8,0:0|0:0,0:0:0
452,336,40962,1,8,0:0:0
316,236,41234,6,0,P|284:240|260:208|260:208|244:264|168:268,1,170,10|2,0:0|0:0,0:0:0
144,344,41643,1,10,0:0:0
88,184,41916,5,8,0:0:0
88,184,42052,1,8,0:0:0
168,84,42257,1,4,0:0:0
168,84,42325,2,0,P|140:88|88:68,2,85,8|2|0,0:0|0:0|0:0,0:0:0
337,102,42871,1,8,0:0:0
405,152,43007,1,8,0:0:0
337,202,43143,1,2,0:0:0
319,285,43280,1,10,0:0:0
404,288,43416,6,0,P|312:288|264:344,1,170,8|8,0:0|0:0,0:0:0
104,284,43962,1,8,0:0:0
104,284,44098,1,8,0:0:0
148,212,44234,1,10,0:0:0
244,72,44507,1,8,0:0:0
244,72,44643,1,8,0:0:0
328,88,44780,2,0,P|328:124|360:132|360:132|344:180|360:216,1,127.5,2|0,0:0|0:0,0:0:0
356,216,45052,1,8,0:0:0
412,280,45189,5,8,0:0:0
472,220,45325,1,8,0:0:0
472,220,45462,1,10,0:0:0
500,300,45598,2,0,P|444:372|360:368,1,170,8|0,0:0|0:0,0:0:0
308,316,46007,2,0,P|232:264|148:288,1,170,8|8,0:0|0:0,0:0:0
94,333,46416,1,0,0:0:0
28,280,46552,5,10,0:0:0
94,333,46689,2,0,P|112:280|104:240,1,85,8|8,0:0|0:0,0:0:0
48,192,46962,2,0,P|80:112|160:80,1,170,8|8,0:0|0:0,0:0:0
224,128,47371,1,0,0:0:0
268,56,47507,1,10,0:0:0
432,104,47780,6,0,P|420:160|420:160|444:188|468:228|428:284,1,170,8|8,0:0|0:0,0:0:0
312,376,48325,1,0,0:0:0
312,376,48462,1,8,0:0:0
256,312,48598,2,0,P|216:312|176:344,1,85,0|10,0:0|0:0,0:0:0
108,292,48871,6,0,P|80:328|36:340,2,85,0|0|8,0:0|0:0|0:0,0:0:0
136,124,49416,2,0,P|100:84|96:48,2,85,0|2|8,0:0|0:0|0:0,0:0:0
300,76,49962,5,8,0:0:0
456,144,50234,1,2,0:0:0
456,144,50371,1,8,0:0:0
384,188,50507,2,0,P|360:224|316:244,2,85,8|0|10,0:0|0:0|0:0,0:0:0
441,252,50916,1,8,0:0:0
300,344,51189,6,0,P|256:364|208:364,1,85,10|8,0:0|0:0,0:0:0
112,237,51598,2,0,P|88:277|80:321,2,85,0|8|10,0:0|0:0|0:0,0:0:0
224,108,52143,6,0,P|244:108|252:96|252:96|260:84|264:96|264:96|264:88|264:88|268:96|268:96|272:88|272:88|272:96|272:96|276:88|276:88|320:92|356:60,1,170,8|10,0:0|0:0,0:0:0
432,48,52552,1,8,0:0:0
466,126,52689,2,0,P|459:176|471:216,1,85,8|0,0:0|0:0,0:0:0
436,288,52962,2,0,P|384:304|352:340,1,85,8|2,0:0|0:0,0:0:0
284,356,53234,5,6,0:0:0
132,280,53507,1,6,0:0:0
76,120,53780,1,6,0:0:0
416,112,54325,5,10,0:0:0
408,196,54462,1,0,0:0:0
408,196,54530,1,0,0:0:0
408,196,54598,2,0,P|400:308|332:304|332:304|332:296|332:296|328:304|328:304|328:296|328:296|324:304|324:304|324:296|324:296|320:304|320:304|320:296|320:296|316:304|316:304|316:296|316:296|312:304|312:304|312:296|312:296|308:304|308:304|308:296|308:296|304:304|304:304|252:360|168:376,1,382.5,8|4,0:0|0:0,0:0:0
168,156,55552,6,0,P|132:184|120:224,1,85,2|8,0:0|0:0,0:0:0
288,248,55962,2,0,P|320:216|332:172,2,85,8|0|8,0:0|0:0|0:0,0:0:0
246,322,56371,1,0,0:0:0
166,293,56507,1,8,0:0:0
328,344,56780,5,8,0:0:0
472,256,57052,2,0,P|488:204|480:160,1,85,8|0,0:0|0:0,0:0:0
400,168,57325,2,0,P|364:136|352:96,1,85,8|8,0:0|0:0,0:0:0
188,56,57734,6,0,P|172:96|136:128,1,85,10|8,0:0|0:0,0:0:0
149,294,58143,1,0,0:0:0
149,294,58280,1,8,0:0:0
228,324,58416,2,0,P|272:328|308:360,2,85,8|0|8,0:0|0:0|0:0,0:0:0
340,196,58962,5,0,0:0:0
412,240,59098,1,8,0:0:0
468,176,59234,2,0,P|496:220|496:264,1,85,0|8,0:0|0:0,0:0:0
452,324,59507,2,0,P|480:360|528:376,1,85,0|8,0:0|0:0,0:0:0
348,344,59916,6,0,P|288:360|256:352,1,85,2|8,0:0|0:0,0:0:0
120,268,60325,1,0,0:0:0
172,200,60462,1,0,0:0:0
144,120,60598,1,8,0:0:0
172,40,60734,2,0,P|200:72|240:84,1,85,8|8,0:0|0:0,0:0:0
320,56,61007,2,0,P|360:76|384:108,1,85,0|8,0:0|0:0,0:0:0
412,276,61416,5,0,0:0:0
412,276,61552,1,8,0:0:0
480,224,61689,1,8,0:0:0
491,359,61825,2,0,P|400:372|312:324,1,170,8|2,0:0|0:0,0:0:0
264,288,62234,1,8,0:0:0
208,352,62371,1,8,0:0:0
88,232,62643,6,0,P|88:188|64:140,1,85,0|8,0:0|0:0,0:0:0
11,211,62916,1,8,0:0:0
152,108,63189,2,0,P|196:96|224:64,2,85,2|8|8,0:0|0:0|0:0,0:0:0
304,184,63734,1,0,0:0:0
360,120,63871,1,8,0:0:0
232,164,64007,6,0,P|216:260|256:324,1,170,8|2,0:0|0:0,0:0:0
324,276,64416,1,8,0:0:0
168,344,64689,1,0,0:0:0
168,344,64825,1,8,0:0:0
93,303,64962,2,0,P|72:292|40:296|40:296|64:240|68:180|40:156,1,170,8|0,0:0|0:0,0:0:0
36,100,65371,1,2,0:0:0
120,88,65507,1,8,0:0:0
164,160,65643,1,8,0:0:0
232,108,65780,2,0,P|276:96|304:64,1,85,8|8,0:0|0:0,0:0:0
312,204,66189,6,0,P|344:224|360:208|360:208|376:256|416:268|464:252,1,170,8|2,0:0|0:0,0:0:0
464,340,66598,1,8,0:0:0
296,368,66871,2,0,P|256:356|228:312,1,85,8|8,0:0|0:0,0:0:0
200,244,67143,1,8,0:0:0
44,312,67416,2,0,P|34:271|58:225,1,85,0|10,0:0|0:0,0:0:0
103,166,67688,1,8,0:0:0
188,164,67825,1,8,0:0:0
240,96,67962,2,0,P|192:64|160:68,2,85,0|8|8,0:0|0:0|0:0,0:0:0
408,72,68507,6,0,P|384:104|352:96|352:96|376:140|332:208,1,170,8|8,0:0|0:0,0:0:0
188,272,69052,2,0,P|140:256|112:224,1,85,8|8,0:0|0:0,0:0:0
69,161,69325,1,8,0:0:0
53,297,69462,2,0,P|117:357|213:357,1,170,8|2,0:0|0:0,0:0:0
280,348,69871,1,8,0:0:0
416,248,70143,5,8,0:0:0
364,180,70280,2,0,P|348:132|352:92,1,85,8|8,0:0|0:0,0:0:0
258,193,70552,1,8,0:0:0
256,192,77234,12,10,79143,0:0:0
144,132,79689,6,0,P|136:188|152:228,1,85,0|8,0:0|0:0,0:0:0
232,320,80098,2,0,P|188:352|152:352,2,85,0|2|8,0:0|0:0|0:0,0:0:0
276,268,80507,2,0,P|300:232|304:184,2,85,0|0|2,0:0|0:0|0:0,0:0:0
300,332,80916,1,8,0:0:0
388,228,81189,6,0,P|420:200|432:152,1,85,0|8,0:0|0:0,0:0:0
388,108,81462,2,0,P|346:116|306:96,1,85,8|2,0:0|0:0,0:0:0
252,136,81734,1,0,0:0:0
208,188,81871,6,0,P|160:144|152:108,1,85,8|0,0:0|0:0,0:0:0
110,75,82143,2,0,P|80:104|64:152,1,85,0|2,0:0|0:0,0:0:0
104,200,82416,2,0,P|100:224|72:228|72:228|88:272|80:320|80:320|100:356,1,170,8|8,0:0|0:0,0:0:0
228,376,82962,1,0,0:0:0
228,376,83098,1,8,0:0:0
364,364,83371,2,0,P|416:340|456:348,2,85,0|2|8,0:0|0:0|0:0,0:0:0
320,312,83780,5,0,0:0:0
320,312,83916,1,0,0:0:0
372,268,84052,2,0,P|340:236|288:228,1,85,8|2,0:0|0:0,0:0:0
184,160,84462,2,0,P|224:112|224:80,2,85,0|0|8,0:0|0:0|0:0,0:0:0
132,204,84871,5,0,0:0:0
132,204,85007,1,8,0:0:0
72,172,85143,2,0,P|48:104|48:76,1,85,0|2,0:0|0:0,0:0:0
92,40,85416,2,0,P|132:60|180:56,1,85
236,80,85689,1,8,0:0:0
320,188,85962,6,0,P|320:292,3,85,8|0|2|10,0:0|0:0|0:0|0:0,0:0:0
436,344,86643,1,8,0:0:0
436,344,86780,1,8,0:0:0
420,268,86916,6,0,P|416:192|180:192,1,382.5,4|12,0:0|0:0,0:0:0
168,328,88416,5,8,0:0:0
104,208,88689,1,0,0:0:0
104,208,88825,1,2,0:0:0
148,156,88962,2,0,P|192:172|236:168,1,85,0|8,0:0|0:0,0:0:0
324,72,89371,2,0,P|372:120|392:172,1,85,0|8,0:0|0:0,0:0:0
352,268,89780,1,0,0:0:0
352,268,89916,1,8,0:0:0
381,329,90052,2,0,P|436:356|464:352,2,85,10|0|8,0:0|0:0|0:0,0:0:0
248,360,90598,5,10,0:0:0
136,284,90871,2,0,P|104:320|88:364,1,85,0|8,0:0|0:0,0:0:0
28,326,91143,2,0,P|12:274|16:226,1,85,8|8,0:0|0:0,0:0:0
84,128,91552,1,0,0:0:0
84,128,91689,1,8,0:0:0
204,64,91962,2,0,P|248:48|300:64,1,85
347,28,92234,2,0,P|388:64|400:104,1,85,8|8,0:0|0:0,0:0:0
360,148,92507,1,4,0:0:0
416,272,92780,5,0,0:0:0
280,272,93052,1,0,0:0:0
280,272,93189,1,8,0:0:0
208,228,93325,1,10,0:0:0
200,332,93462,6,0,P|176:328|152:344|152:344|128:300|40:264,1,170,10|0,0:0|0:0,0:0:0
0,208,93871,1,8,0:0:0
148,132,94143,1,0,0:0:0
132,48,94280,1,8,0:0:0
148,132,94416,2,0,P|172:192|168:232,1,85,8|12,0:0|0:0,0:0:0
256,192,94689,12,6,96325,0:0:0
408,144,96598,5,8,0:0:0
408,144,96734,1,8,0:0:0
424,228,96871,2,0,P|400:248|376:240|376:240|376:312|312:344,1,170,10|2,0:0|0:0,0:0:0
236,348,97280,1,10,0:0:0
100,248,97552,5,0,0:0:0
44,184,97689,2,0,P|84:156|80:120|80:120|100:104|128:96,1,127.5,8|0,0:0|0:0,0:0:0
136,92,97962,1,10,0:0:0
196,152,98098,1,8,0:0:0
280,140,98234,2,0,P|300:104|296:68|296:68|344:88|400:72,1,170,8|0,0:0|0:0,0:0:0
456,128,98643,1,8,0:0:0
456,128,98780,1,8,0:0:0
472,296,99052,6,0,P|448:276|416:280|416:280|396:220|328:224,1,170,10|2,0:0|0:0,0:0:0
320,308,99462,1,10,0:0:0
152,328,99734,5,0,0:0:0
96,264,99871,2,0,P|52:228|36:152|128:156,1,127.5,8|0,0:0|0:0,0:0:0
100,156,100143,1,8,0:0:0
184,172,100280,1,8,0:0:0
192,88,100416,2,0,P|244:84|248:48|248:48|300:32|348:76,1,170,8|2,0:0|0:0,0:0:0
380,140,100825,1,8,0:0:0
380,140,100962,1,8,0:0:0
296,288,101234,6,0,P|300:260|316:224|316:224|264:196|280:132,1,170,10|2,0:0|0:0,0:0:0
204,180,101643,1,10,0:0:0
60,92,101916,5,0,0:0:0
136,52,102052,2,0,P|236:56|264:40,1,127.5,8|0,0:0|0:0,0:0:0
268,36,102325,1,10,0:0:0
324,100,102462,1,0,0:0:0
396,56,102598,2,0,P|460:124|480:224,1,170,8|2,0:0|0:0,0:0:0
420,256,103007,1,8,0:0:0
448,336,103143,1,8,0:0:0
448,336,103280,1,8,0:0:0
348,356,103416,6,0,P|320:324|280:340|280:340|224:320|224:268,1,170,10|8,0:0|0:0,0:0:0
56,240,103962,1,2,0:0:0
56,240,104098,1,8,0:0:0
82,159,104234,1,8,0:0:0
252,164,104507,5,2,0:0:0
252,164,104643,1,8,0:0:0
220,85,104780,2,0,P|256:96|288:72|288:72|300:96|352:128,1,127.5,8|0,0:0|0:0,0:0:0
336,120,105052,1,10,0:0:0
409,165,105189,2,0,P|440:148|448:128,2,42.5,10|8|8,0:0|0:0|0:0,0:0:0
376,244,105462,1,8,0:0:0
292,256,105598,5,10,0:0:0
168,140,105871,1,8,0:0:0
148,308,106143,2,0,P|192:324|220:352,1,85,0|10,0:0|0:0,0:0:0
300,376,106416,1,0,0:0:0
372,332,106552,1,10,0:0:0
456,184,106825,2,0,P|472:232|472:276,1,85,8|8,0:0|0:0,0:0:0
308,224,107234,1,0,0:0:0
308,224,107371,1,8,0:0:0
280,144,107507,1,10,0:0:0
120,84,107780,6,0,P|104:112|76:108|76:108|100:152|96:212|48:240,1,170,10|8,0:0|0:0,0:0:0
136,376,108325,1,2,0:0:0
136,376,108462,1,8,0:0:0
164,296,108598,2,0,P|208:316|236:352,1,85,8|0,0:0|0:0,0:0:0
392,288,109007,2,0,P|432:256|476:260,1,85,8|8,0:0|0:0,0:0:0
320,164,109416,1,0,0:0:0
320,164,109552,1,10,0:0:0
336,80,109689,1,8,0:0:0
176,136,109962,5,0,0:0:0
12,178,110234,1,10,0:0:0
176,136,110507,2,0,P|192:192|216:224,1,85,8|0,0:0|0:0,0:0:0
292,220,110780,2,0,P|308:264|304:316,1,85,8|10,0:0|0:0,0:0:0
476,324,111189,1,8,0:0:0
476,324,111325,1,8,0:0:0
432,160,111598,2,0,P|400:132|384:88,1,85,8|0,0:0|0:0,0:0:0
304,120,111871,2,0,P|264:104|240:72,1,85,8|10,0:0|0:0,0:0:0
168,116,112143,6,0,P|132:152|96:144|96:144|96:208|64:244,1,170,8|8,0:0|0:0,0:0:0
184,360,112689,1,8,0:0:0
256,316,112825,1,10,0:0:0
340,332,112962,1,10,0:0:0
412,288,113098,1,8,0:0:0
440,208,113234,6,0,P|448:136|424:88,1,127.5,10|2,0:0|0:0,0:0:0
416,76,113507,1,8,0:0:0
332,84,113643,2,0,P|300:72|288:48,2,42.5,10|8|8,0:0|0:0|0:0,0:0:0
316,168,113916,2,0,P|288:204|264:240,1,85,8|10,0:0|0:0,0:0:0
76,192,114462,6,0,P|176:300|340:104|436:192,1,382.500014591218,0|4,0:0|0:0,0:0:0
360,344,115552,6,0,P|312:324|272:340,1,85,10|8,0:0|0:0,0:0:0
144,232,115962,1,0,0:0:0
172,152,116098,1,8,0:0:0
116,88,116234,2,0,P|88:132|80:168,2,85,0|0|8,0:0|0:0|0:0,0:0:0
187,41,116643,2,0,P|235:57|275:45,1,85,2|8,0:0|0:0,0:0:0
380,176,117052,1,0,0:0:0
380,176,117189,1,8,0:0:0
264,300,117462,5,8,0:0:0
148,176,117734,2,0,P|128:264,1,85,10|8,0:0|0:0,0:0:0
292,212,118143,2,0,P|252:116,1,85,8|0,0:0|0:0,0:0:0
200,72,118416,1,8,0:0:0
284,59,118552,1,8,0:0:0
368,44,118689,2,0,P|412:84|420:116,1,85,0|2,0:0|0:0,0:0:0
496,144,118962,2,0,P|496:192|472:236,1,85,8|8,0:0|0:0,0:0:0
320,280,119371,5,8,0:0:0
236,268,119507,2,0,P|236:360,1,85,8|8,0:0|0:0,0:0:0
120,228,119916,1,10,0:0:0
120,228,120052,1,8,0:0:0
52,72,120325,1,8,0:0:0
128,33,120462,2,0,P|176:49|212:41,1,85,8|8,0:0|0:0,0:0:0
380,52,120871,1,0,0:0:0
380,52,121007,1,10,0:0:0
384,140,121143,2,0,P|392:208|456:296,1,170,2|8,0:0|0:0,0:0:0
284,348,121689,5,0,0:0:0
284,348,121825,2,0,P|240:340|216:360|216:360|184:304|120:304,1,170,8|2,0:0|0:0,0:0:0
128,220,122234,1,8,0:0:0
57,267,122371,1,8,0:0:0
88,100,122643,6,0,P|40:80|16:48,2,85,0|8|8,0:0|0:0|0:0,0:0:0
256,128,123189,2,0,P|276:84|316:64,2,85,2|8|8,0:0|0:0|0:0,0:0:0
256,212,123598,1,8,0:0:0
404,292,123871,5,0,0:0:0
404,292,124007,2,0,P|356:300|348:328|348:328|320:284|244:288,1,170,8|2,0:0|0:0,0:0:0
184,248,124416,1,8,0:0:0
124,88,124689,2,0,P|172:84|188:104|188:104|220:68|244:64|288:76,1,170,8|8,0:0|2:0,0:0:0
400,192,125234,1,0,0:0:0
400,192,125371,1,10,0:0:0
428,112,125507,1,8,0:0:0
300,224,125780,1,0,0:0:0
300,224,125916,1,8,0:0:0
272,144,126052,1,8,0:0:0
184,248,126189,6,0,P|208:260|220:304|220:304|260:288|324:316,1,170,8|2,0:0|0:0,0:0:0
388,264,126598,1,8,0:0:0
448,324,126734,1,0,0:0:0
388,264,126871,2,0,P|408:208|408:176,1,85,8|8,0:0|0:0,0:0:0
460,116,127143,1,8,0:0:0
300,176,127416,5,0,0:0:0
300,176,127552,1,10,0:0:0
232,124,127689,1,8,0:0:0
260,257,127825,6,0,P|232:240|188:260|188:260|176:216|112:224|88:232,2,170,8|8|0,0:0|0:0|0:0,0:0:0
308,328,128507,2,0,P|352:332|360:296|360:296|408:320|456:284|448:232,1,170,8|8,0:0|0:0,0:0:0
323,147,129052,1,0,0:0:0
323,147,129189,1,8,0:0:0
364,73,129325,1,8,0:0:0
404,204,129462,6,0,P|328:252|236:252,1,170,8|2,0:0|0:0,0:0:0
174,216,129871,1,8,0:0:0
280,348,130143,5,8,0:0:0
307,267,130280,2,0,P|292:248|292:220,2,42.5,2|0|8,0:0|0:0|0:0,0:0:0
432,320,130552,6,0,P|428:276|464:248|464:248|428:200|456:148,1,170,10|0,0:0|0:0,0:0:0
376,80,130962,1,8,0:0:0
285,142,131098,1,0,0:0:0
175,143,131234,2,0,P|151:195|104:220,1,85,8|0,0:0|0:0,0:0:0
52,288,131507,2,0,P|116:312|136:340,1,85,8|2,0:0|0:0,0:0:0
228,364,131780,2,0,P|284:340|336:352,1,85,8|0,0:0|0:0,0:0:0
376,256,132052,2,0,P|404:300|448:328,2,85,8|0|0,0:0|0:0|0:0,0:0:0
376,144,132462,1,8,0:0:0
376,144,132598,1,0,0:0:0
280,196,132734,5,10,0:0:0
196,128,132871,2,0,P|152:172|144:216,1,85,8|0,0:0|0:0,0:0:0
48,144,133143,2,0,P|72:92|112:60,1,85,8|0,0:0|0:0,0:0:0
196,36,133416,2,0,P|252:51|304:39,1,85,8|0,0:0|0:0,0:0:0
388,48,133689,2,0,P|432:84|440:148,1,85,8|2,0:0|0:0,0:0:0
420,220,133962,1,8,0:0:0
348,304,134098,2,0,P|404:320|436:360,2,85,0|8|0,0:0|0:0|0:0,0:0:0
244,348,134507,1,8,0:0:0
244,348,134643,2,0,P|208:328|172:344|172:344|176:292|160:240|160:240|152:224,1,170,0|10,0:0|0:0,0:0:0
364,164,135189,5,8,0:0:0
288,84,135325,2,0,P|228:104|172:96,1,85,8|0,0:0|0:0,0:0:0
100,68,135598,2,0,P|72:120|76:176,1,85,8|0,0:0|0:0,0:0:0
160,212,135871,2,0,P|148:264|108:296,1,85,8|2,0:0|0:0,0:0:0
200,368,136143,2,0,P|262:347|300:356,1,85,8|0,0:0|0:0,0:0:0
392,360,136416,2,0,P|444:348|476:304,1,85,8|0,0:0|0:0,0:0:0
432,220,136689,2,0,P|392:172|388:128,1,85,8|0,0:0|0:0,0:0:0
332,56,136962,1,8,0:0:0
259,137,137098,6,0,P|208:172|180:124|180:124|148:176|192:252,1,170,10|0,0:0|0:0,0:0:0
208,300,137507,2,0,P|276:284|316:304,1,85,0|8,0:0|0:0,0:0:0
452,136,137916,1,0,0:0:0
388,44,138052,1,8,0:0:0
352,200,138189,6,0,P|300:216|300:216|296:192|276:164|196:184|160:216,1,170,10|8,0:0|0:0,0:0:0
108,252,138598,1,0,0:0:0
96,360,138734,1,8,0:0:0
316,336,139007,1,0,0:0:0
316,336,139143,1,8,0:0:0
488,380,139280,6,0,P|468:336|496:304|496:304|460:260|456:208|496:168,1,170,10|0,0:0|0:0,0:0:0
440,116,139689,1,8,0:0:0
240,212,139962,1,8,0:0:0
240,212,140098,1,0,0:0:0
132,232,140234,2,0,P|144:292|184:316,1,85,8|2,0:0|0:0,0:0:0
272,320,140507,2,0,P|332:300|376:316,1,85,8|0,0:0|0:0,0:0:0
408,208,140780,2,0,P|464:176|472:128,1,85,8|0,0:0|0:0,0:0:0
372,112,141052,2,0,P|316:108|280:64,1,85,8|0,0:0|0:0,0:0:0
188,64,141325,1,8,0:0:0
65,179,141462,6,0,P|89:215|120:220|120:220|112:264|136:300|200:304|212:316,1,170,10|8,0:0|0:0,0:0:0
268,248,141871,2,0,P|320:264|376:280,1,85,8|0,0:0|0:0,0:0:0
456,300,142143,2,0,P|432:192,1,85,8|0,0:0|0:0,0:0:0
368,128,142416,2,0,P|292:52,1,85,8|2,0:0|0:0,0:0:0
240,156,142689,2,0,P|128:136,1,85,8|0,0:0|0:0,0:0:0
128,248,142962,2,0,P|36:308,2,85,8|0|8,0:0|0:0|0:0,0:0:0
220,312,143371,1,0,0:0:0
440,292,143643,2,0,P|408:340|360:352,1,85,10|0,0:0|0:0,0:0:0
264,164,144052,5,8,0:0:0
88,296,144325,1,0,0:0:0
88,296,144462,1,0,0:0:0
46,194,144598,1,8,0:0:0
156,332,144734,6,0,P|188:320|232:344|260:324|260:280|260:280|304:292|348:268,1,170,10|8,0:0|0:0,0:0:0
376,160,145143,1,0,0:0:0
188,112,145416,1,8,0:0:0
188,112,145552,1,0,0:0:0
284,60,145689,1,8,0:0:0
296,196,145825,6,0,P|312:228|360:228|360:228|408:248|408:320|380:352,1,170,10|8,0:0|0:0,0:0:0
288,316,146234,1,0,0:0:0
88,228,146507,5,0,0:0:0
88,228,146643,1,8,0:0:0
96,116,146780,2,0,P|200:140|308:96,1,170,8|0,0:0|0:0,0:0:0
368,148,147189,1,8,0:0:0
460,88,147325,2,0,P|508:192|480:292,1,170,8|0,0:0|0:0,0:0:0
416,312,147734,1,8,0:0:0
324,248,147871,1,8,0:0:0
256,376,148007,5,14,0:0:0
256,376,148280,6,8,P|216:328|172:328,1,85
60,308,148689,1,0,0:0:0
60,308,148825,1,0,0:0:0
92,228,148962,1,8,0:0:0
112,384,149098,6,0,P|192:332|220:256,1,170,8|4,0:0|0:0,0:0:0
244,184,149507,1,8,0:0:0
400,204,149643,2,0,P|352:136|240:100,1,170,0|4,0:0|0:0,0:0:0
192,120,150052,1,8,0:0:0
60,32,150189,6,0,P|64:128|132:160,1,170,4|0,0:0|0:0,0:0:0
176,224,150598,1,8,0:0:0
244,380,150871,1,0,0:0:0
244,380,151007,1,0,0:0:0
284,304,151143,1,8,0:0:0
436,352,151280,6,0,P|432:256|364:224,1,170,8|4,0:0|0:0,0:0:0
292,200,151689,1,8,0:0:0
408,76,151962,1,0,0:0:0
408,76,152098,1,0,0:0:0
344,20,152234,1,8,0:0:0
504,20,152371,6,0,P|496:116|432:180,1,170,12|0,0:0|0:0,0:0:0
368,196,152780,1,8,0:0:0
208,144,153052,1,0,0:0:0
208,144,153189,1,0,0:0:0
168,68,153325,1,8,0:0:0
44,168,153462,6,0,P|128:220|144:292,1,170,8|4,0:0|0:0,0:0:0
200,352,153871,1,8,0:0:0
356,372,154007,2,0,P|280:320|256:240,1,170,0|4,0:0|0:0,0:0:0
280,168,154416,1,8,0:0:0
396,60,154552,6,0,P|304:40|232:84,1,170,4|0,0:0|0:0,0:0:0
196,148,154962,1,8,0:0:0
112,128,155098,1,0,0:0:0
216,248,155234,2,0,P|280:248|312:264,1,85
376,292,155507,1,8,0:0:0
472,168,155643,6,0,P|484:256|456:336,1,170,8|4,0:0|0:0,0:0:0
384,372,156052,1,8,0:0:0
212,360,156325,2,0,P|260:340|304:360,2,85,0|0|8,0:0|0:0|0:0,0:0:0
163,289,156734,5,8,0:0:0
328,244,157007,2,0,P|356:192|356:156,1,85,8|2,0:0|0:0,0:0:0
196,112,157416,1,8,0:0:0
196,112,157552,1,8,0:0:0
158,36,157689,1,0,0:0:0
104,160,157825,6,0,P|184:180|208:216|208:216|252:192|288:188,1,170,8|10,0:0|0:0,0:0:0
332,164,158234,1,0,0:0:0
396,208,158371,1,8,0:0:0
476,256,158507,2,0,P|440:280|416:320,1,85,0|2,0:0|0:0,0:0:0
336,340,158780,1,8,0:0:0
272,284,158916,1,0,0:0:0
190,305,159052,1,8,0:0:0
396,208,159325,5,10,0:0:0
256,72,159598,2,0,P|256:162,1,85,8|0,0:0|0:0,0:0:0
256,310,159871,2,0,P|256:226,1,85,8|8,0:0|0:0,0:0:0
176,196,160143,6,0,P|144:168|124:128,1,85
142,47,160416,1,10,0:0:0
248,132,160552,6,0,P|268:116|276:92,2,42.5,8|8|8,0:0|0:0|0:0,0:0:0
256,252,160825,1,0,0:0:0
256,252,160962,1,0,0:0:0
256,252,161098,1,0,0:0:0
256,372,161234,5,12,0:0:0
192,328,161371,1,0,0:0:0
120,352,161507,1,8,0:0:0
80,288,161643,2,0,P|68:252|44:232|44:232|76:188|80:128,1,170,0|2,0:0|0:0,0:0:0
196,36,162189,2,0,P|229:52|261:50|261:50|269:103|309:149,1,170,0|0,0:0|0:0,0:0:0
376,168,162598,1,8,0:0:0
452,176,162734,2,0,P|416:216|436:260|436:260|416:312|368:328,1,170,0|2,0:0|0:0,0:0:0
328,368,163143,1,8,0:0:0
256,232,163416,6,0,P|256:320,2,85,12|0|8,0:0|0:0|0:0,0:0:0
180,220,163825,2,0,P|180:180|156:144|156:144|172:100|224:88,1,170,0|2,0:0|0:0,0:0:0
332,220,164371,2,0,P|332:180|356:144|356:144|340:100|288:88,1,170
256,156,164780,1,8,0:0:0
220,88,164916,2,0,P|128:72|128:72|72:76|40:120,1,170,0|2,0:0|0:0,0:0:0
8,160,165325,1,8,0:0:0
104,280,165598,6,0,P|64:312|32:320,2,85,12|0|8,0:0|0:0|0:0,0:0:0
144,216,166007,2,0,P|200:240|184:304|184:304|204:352|248:372,1,170,0|2,0:0|0:0,0:0:0
368,216,166552,2,0,P|312:240|328:304|328:304|308:352|264:372,1,170
256,288,166962,1,8,0:0:0
291,354,167098,2,0,P|380:360|380:360|412:328|464:312,1,170,2|0,0:0|0:0,0:0:0
508,268,167507,1,8,0:0:0
408,152,167780,6,0,P|420:192|408:232,2,85,12|0|8,0:0|0:0|0:0,0:0:0
360,92,168189,2,0,P|312:120|328:164|328:164|352:208|288:228,1,170,0|2,0:0|0:0,0:0:0
152,292,168734,2,0,P|200:264|184:220|184:220|160:176|224:156,1,170
256,92,169143,1,8,0:0:0
184,60,169280,2,0,P|128:64|96:84,1,85,8|10,0:0|0:0,0:0:0
64,144,169552,2,0,P|48:200|20:236,1,85,8|10,0:0|0:0,0:0:0
184,192,169962,5,12,0:0:0
184,192,170098,1,0,0:0:0
256,92,170234,2,0,P|292:120|308:160,1,85,8|0,0:0|0:0,0:0:0
256,292,170507,2,0,P|292:264|308:224,1,85,10|0,0:0|0:0,0:0:0
307,155,170780,2,0,P|356:140|400:148,1,85,8|0,0:0|0:0,0:0:0
307,228,171052,2,0,P|356:244|400:236,1,85,14|0,0:0|0:0,0:0:0
508,192,171325,2,0,P|420:192,2,85,8|0|10,0:0|0:0|0:0,0:0:0
508,192,171734,6,0,P|472:256|452:272,1,85,0|8,0:0|0:0,0:0:0
336,324,172007,2,0,P|280:344|256:356|256:356|232:344|176:324,1,170,4|4,0:0|0:0,0:0:0
160,248,172416,2,0,P|180:200|212:176,1,85,10|0,0:0|0:0,0:0:0
352,248,172689,2,0,P|332:200|300:176,1,85,8|0,0:0|0:0,0:0:0
204,179,172962,2,0,P|196:132|216:88,1,85,10|0,0:0|0:0,0:0:0
307,179,173234,2,0,P|316:132|296:88,1,85,12|0,0:0|0:0,0:0:0
256,16,173507,2,0,P|256:100,1,85,10|0,0:0|0:0,0:0:0
256,240,173780,5,8,0:0:0
256,240,173916,1,8,0:0:0
256,240,174052,1,10,0:0:0
256,240,174189,6,0,P|200:232|160:260|160:260|112:240|88:216,1,170,4|4,0:0|0:0,0:0:0
48,160,174598,2,0,P|88:124|128:124,1,85,10|0,0:0|0:0,0:0:0
184,172,174871,2,0,P|212:128|212:92,1,85,8|0,0:0|0:0,0:0:0
299,96,175143,2,0,P|300:128|328:172,1,85,10|0,0:0|0:0,0:0:0
394,121,175416,2,0,P|424:124|464:160,1,85,12|0,0:0|0:0,0:0:0
394,262,175689,2,0,P|424:260|464:224,1,85,10|0,0:0|0:0,0:0:0
316,280,175962,5,8,0:0:0
316,280,176098,1,8,0:0:0
316,280,176234,1,10,0:0:0
316,280,176371,6,0,P|272:276|244:320|244:320|240:364|176:372,1,170,4|4,0:0|0:0,0:0:0
132,268,176780,2,0,P|192:256|216:232,1,85,10|0,0:0|0:0,0:0:0
145,97,177052,2,0,P|175:150|205:166,1,85,8|0,0:0|0:0,0:0:0
311,57,177325,2,0,P|270:102|264:136,1,85,10|0,0:0|0:0,0:0:0
400,203,177598,2,0,P|345:177|311:183,1,85,12|0,0:0|0:0,0:0:0
289,333,177871,2,0,P|297:272|281:242,1,85,10|0,0:0|0:0,0:0:0
256,192,178143,5,8,0:0:0
256,192,178280,1,0,0:0:0
256,192,178416,1,10,0:0:0
256,192,178552,1,8,0:0:0
