osu file format v11

[General]
AudioFilename: Konoha no Sekai Jijou.mp3
AudioLeadIn: 1515
PreviewTime: 52154
Countdown: 0
SampleSet: Soft
StackLeniency: 0.7
Mode: 0
LetterboxInBreaks: 1

[Editor]
Bookmarks: 99747
DistanceSpacing: 0.8
BeatDivisor: 2
GridSize: 4

[Metadata]
Title:Konoha no Sekai Jijou
TitleUnicode:Konoha no Sekai Jijou
Artist:Kano
ArtistUnicode:Kano
Creator:enlxodutls
Version:Easy
Source:Nico Nico Douga
Tags:VocaloidTACU
BeatmapID:195575
BeatmapSetID:67261

[Difficulty]
HPDrainRate:2
CircleSize:3
OverallDifficulty:2
ApproachRate:3
SliderMultiplier:0.8
SliderTickRate:1

[Events]
//Background and Video events
Video,0,"[video].avi"
0,0,"BG.jpg"
//Break Periods
2,10889,15794
2,70752,78249
//Storyboard Layer 0 (Background)
//Storyboard Layer 1 (Fail)
//Storyboard Layer 2 (Pass)
//Storyboard Layer 3 (Foreground)
//Storyboard Sound Samples
//Background Colour Transformations
3,100,163,162,255

[TimingPoints]
1962,272.727272727273,4,1,2,80,1,0
19416,-100,4,2,2,60,0,0
28144,-100,4,2,2,60,0,0
28690,-100,4,2,2,60,0,0
36871,-100,4,2,2,60,0,0
37962,-100,4,2,2,70,0,0
53780,-100,4,2,2,70,0,0
55280,-100,4,2,2,75,0,1
70552,-100,4,2,2,80,0,0
79689,-100,4,2,2,60,0,0
86917,-100,4,2,2,70,0,0
88144,-100,4,2,2,80,0,0
88690,-100,4,2,2,60,0,0
96871,-100,4,2,2,40,0,0
97553,-100,4,2,2,70,0,0
115280,-100,4,2,2,75,0,1
130008,-100,4,2,2,30,0,1
130553,-100,4,2,2,75,0,1
148008,-100,4,2,2,55,0,0
161235,-100,4,2,2,30,0,0

[Colours]
Combo1 : 100,0,0
Combo2 : 94,94,47
Combo3 : 0,78,115

[HitObjects]
256,192,7417,12,4,10689,0:0:0
256,192,17234,12,0,19416,0:0:0
260,96,19962,5,0,0:0:0
168,184,20508,2,0,P|96:152|56:80,2,160,8|2|0,0:0|0:0|0:0,0:0:0
288,228,22144,1,8,0:0:0
408,184,22689,2,0,P|436:264|424:344,2,160,0|2|0,0:0|0:0|0:0,0:0:0
392,56,24326,6,0,P|288:68|240:96,1,160,8|0,0:0|0:0,0:0:0
116,72,25417,2,0,P|80:120|60:216,1,160,2|12,0:0|0:0,0:0:0
256,192,26508,12,4,28144,0:0:0
256,288,28689,5,8,0:0:0
336,188,29235,2,0,P|400:128|424:56,2,160,0|2|0,0:0|0:0|0:0,0:0:0
256,88,30871,1,8,0:0:0
182,192,31417,2,0,P|118:252|94:324,2,160,0|2|0,0:0|0:0|0:0,0:0:0
120,80,33053,6,0,P|208:80|284:120,1,160,8|0,0:0|0:0,0:0:0
380,40,34144,2,0,P|448:108|464:160,1,120,2|12,0:0|0:0,0:0:0
256,192,34962,12,4,36871,0:0:0
152,292,37962,5,0,0:0:0
68,196,38508,1,2,0:0:0
136,88,39053,1,12,0:0:0
392,100,40143,5,0,0:0:0
456,212,40689,1,2,0:0:0
380,316,41235,1,12,0:0:0
128,272,42325,5,0,0:0:0
84,152,42871,1,2,0:0:0
168,56,43417,1,8,0:0:0
284,112,43962,2,0,P|328:144|328:256,1,160,8|10,0:0|0:0,0:0:0
264,348,45053,2,0,P|224:344|180:360,2,80,8|2|12,0:0|0:0|0:0,0:0:0
372,280,46144,5,2,0:0:0
308,168,46690,2,0,P|360:104|428:68,2,160,8|2|0,0:0|0:0|0:0,0:0:0
212,84,48326,1,8,0:0:0
144,192,48871,2,0,P|112:260|132:348,1,160,0|2,0:0|0:0,0:0:0
244,288,49962,6,0,P|320:320|408:308,2,160,8|0|8,0:0|0:0|0:0,0:0:0
312,180,51599,1,2,0:0:0
228,84,52144,2,0,P|144:56|60:76,2,160,8|0|8,0:0|0:0|0:0,0:0:0
144,180,53780,1,12,0:0:0
464,324,55280,5,14,0:0:0
336,324,55826,2,0,P|272:326|188:282,2,160,2|8|0,0:0|0:0|0:0,0:0:0
284,208,57462,1,10,0:0:0
412,188,58008,2,0,P|456:104|449:27,2,160,0|8|0,0:0|0:0|0:0,0:0:0
460,308,59644,5,10,0:0:0
332,304,60190,1,0,0:0:0
416,208,60735,2,0,P|344:124|264:192|184:256|128:165,1,320,8|10,0:0|0:0,0:0:0
44,124,62235,2,0,P|0:172|4:272,1,160,8|8,0:0|0:0,0:0:0
84,360,63326,1,4,0:0:0
240,320,64008,6,0,P|340:332|404:312,1,160,14|0,0:0|0:0,0:0:0
480,220,65099,1,8,0:0:0
372,152,65644,2,0,P|400:80|460:20,2,160,2|14|0,0:0|0:0|0:0,0:0:0
292,252,67280,2,0,P|208:228|144:176,1,160,8|0,0:0|0:0,0:0:0
108,64,68371,6,0,P|216:56|296:80,1,160,8|0,0:0|0:0,0:0:0
384,20,69462,2,0,P|440:52|460:124,1,120,8|0,0:0|0:0,0:0:0
412,256,70552,1,4,0:0:0
408,104,79689,5,8,0:0:0
288,56,80235,2,0,P|204:56|132:104,1,160,0|2,0:0|0:0,0:0:0
80,208,81326,2,0,P|80:260|100:300,1,80
196,356,82144,1,8,0:0:0
324,344,82690,6,0,P|388:280|412:200,1,160,0|2,0:0|0:0,0:0:0
436,92,83780,1,8,0:0:0
308,104,84325,2,0,P|248:168|240:248,1,160,0|0,0:0|0:0,0:0:0
308,344,85417,1,10,0:0:0
436,324,85962,2,0,P|472:236|456:172,1,160,8|0,0:0|0:0,0:0:0
432,84,86917,6,0,P|344:44|256:88|140:116|76:64,1,360,12|6,0:0|0:0,0:0:0
48,192,88690,5,8,0:0:0
176,204,89235,2,0,P|152:280|80:320,2,160,0|2|0,0:0|0:0|0:0,0:0:0
292,260,90871,1,8,0:0:0
348,144,91417,2,0,P|432:160|472:224,2,160,0|2|0,0:0|0:0|0:0,0:0:0
264,48,93053,6,0,P|216:104|128:112,1,160,8|2,0:0|0:0,0:0:0
72,240,94144,2,0,P|60:312|84:356,1,120,2|12,0:0|0:0,0:0:0
256,192,94962,12,4,96871,0:0:0
456,92,97553,6,0,P|456:188|440:220,1,120,8|10,0:0|0:0,0:0:0
392,324,98508,1,0,0:0:0
264,344,99053,1,12,0:0:0
108,320,99735,6,0,P|99:299|99:203,1,120,8|10,0:0|0:0,0:0:0
152,88,100689,1,2,0:0:0
272,128,101234,1,12,0:0:0
420,64,101917,6,0,P|468:120|480:168,1,120,8|10,0:0|0:0,0:0:0
452,288,102871,1,2,0:0:0
344,220,103417,2,0,P|320:280|256:352,1,160,10|8,0:0|0:0,0:0:0
128,340,104508,1,8,0:0:0
100,216,105053,2,0,P|56:196|24:160,2,80,8|2|12,0:0|0:0|0:0,0:0:0
132,60,106280,6,0,P|72:36|12:40,2,120,0|10|8,0:0|0:0|0:0,0:0:0
228,48,107508,2,0,P|260:80|300:96,1,80,0|10,0:0|0:0,0:0:0
420,116,108326,1,8,0:0:0
464,236,108871,2,0,P|452:308|412:348,1,120,8|6,0:0|0:0,0:0:0
264,364,109962,6,0,P|256:280|176:216,1,160,0|8,0:0|0:0,0:0:0
96,160,111053,2,0,P|152:100|240:80,1,160,0|8,0:0|0:0,0:0:0
352,76,112144,1,0,0:0:0
392,196,112689,1,8,0:0:0
332,308,113235,2,0,P|300:348|256:364,2,80,0|8|2,0:0|0:0|0:0,0:0:0
256,192,114053,12,4,115280,0:0:0
188,144,115826,5,8,0:0:0
292,68,116371,2,0,P|388:96|440:156,1,160,2|8,0:0|0:0,0:0:0
312,192,117462,1,4,0:0:0
428,248,118007,2,0,P|387:289|291:317,1,160,2|8,0:0|0:0,0:0:0
164,328,119099,1,10,0:0:0
96,220,119644,5,12,0:0:0
224,228,120189,2,0,P|192:156|112:108,2,160,0|2|8,0:0|0:0|0:0,0:0:0
332,296,121826,2,0,P|392:268|420:220,2,120,12|2|12,0:0|0:0|0:0,0:0:0
180,252,123325,1,8,0:0:0
216,96,124008,6,0,P|148:76|60:104,1,160,12|0,0:0|0:0,0:0:0
52,228,125099,1,8,0:0:0
180,252,125644,1,2,0:0:0
300,300,126189,6,0,P|412:308|464:268,1,160,12|0,0:0|0:0,0:0:0
392,168,127280,1,10,0:0:0
456,56,127826,1,0,0:0:0
296,60,128508,6,0,P|232:88|176:80,1,120,12|2,0:0|0:0,0:0:0
60,112,129462,2,0,P|64:264|80:280,1,160,4|8,0:0|0:0,0:0:0
188,252,130552,5,12,0:0:0
276,116,131234,2,0,P|364:168|408:232,1,160,8|8,0:0|0:0,0:0:0
332,324,132326,1,8,0:0:0
212,280,132871,6,0,P|120:276|64:216,1,160,12|10,0:0|0:0,0:0:0
104,108,133962,1,8,0:0:0
224,68,134508,2,0,P|280:48|348:56,2,120,8|6|8,0:0|0:0|0:0,0:0:0
304,168,135871,6,0,P|392:180|420:248,2,160,8|2|8,0:0|0:0|0:0,0:0:0
308,296,137508,2,0,P|212:288|172:240,1,160,12|10,0:0|0:0,0:0:0
44,236,138599,2,0,P|48:196|76:152,1,80,0|12,0:0|0:0,0:0:0
48,68,139280,6,0,P|112:40|180:80,1,120,4|8,0:0|0:0,0:0:0
228,160,140235,1,10,0:0:0
318,70,140780,2,0,P|406:66|458:160,1,200,10|12,0:0|0:0,0:0:0
464,250,141871,5,8,0:0:0
340,220,142417,2,0,P|288:280|328:348,2,160,8|2|8,0:0|0:0|0:0,0:0:0
373,165,143780,6,0,P|295:111|245:143,1,160,12|2,0:0|0:0,0:0:0
152,224,144871,1,8,0:0:0
148,352,145416,1,4,0:0:0
256,192,145825,12,6,148007,0:0:0
196,172,148416,6,0,P|124:240|120:368,1,200,10|4,0:0|0:0,0:0:0
204,364,149507,2,0,P|312:348|356:312,2,160,8|8|8,0:0|0:0|0:0,0:0:0
256,248,151143,5,10,0:0:0
320,136,151689,2,0,P|412:112|512:184,1,200,8|4,0:0|0:0,0:0:0
480,256,152780,5,10,0:0:0
376,332,153325,1,8,0:0:0
248,316,153871,2,0,P|240:220|288:156,2,160,8|8|8,0:0|0:0|0:0,0:0:0
124,352,155507,2,0,P|64:320|16:272|32:176|56:136|60:136,1,240,8|4,0:0|0:0,0:0:0
68,52,156735,6,0,P|148:80|192:180,1,200,12|4,0:0|0:0,0:0:0
200,308,157962,2,0,P|368:312|460:188,1,320,12|12,0:0|0:0,0:0:0
436,76,159598,2,0,P|372:32|308:48,1,120,8|2,0:0|0:0,0:0:0
256,192,160416,12,14,161234,0:0:0
