osu file format v12

[General]
AudioFilename: Konoha no Sekai Jijou.mp3
AudioLeadIn: 1511
PreviewTime: 52154
Countdown: 0
SampleSet: None
StackLeniency: 0.7
Mode: 0
LetterboxInBreaks: 1

[Editor]
Bookmarks: 99747
DistanceSpacing: 1.2
BeatDivisor: 4
GridSize: 4

[Metadata]
Title:Konoha no Sekai Jijou
TitleUnicode:Konoha no Sekai Jijou
Artist:Kano
ArtistUnicode:Kano
Creator:L i a
Version:L i a
Source:
Tags:
BeatmapID:236508
BeatmapSetID:86305

[Difficulty]
HPDrainRate:4
CircleSize:4
OverallDifficulty:8
ApproachRate:9
SliderMultiplier:2
SliderTickRate:2

[Events]
//Background and Video events
Video,0,"[video].avi"
0,0,"BG.jpg",0,0
//Break Periods
2,70746,74446
//Storyboard Layer 0 (Background)
//Storyboard Layer 1 (Fail)
//Storyboard Layer 2 (Pass)
//Storyboard Layer 3 (Foreground)
//Storyboard Sound Samples
//Background Colour Transformations
3,100,163,162,255

[TimingPoints]
10690,272.727272727273,4,1,1,65,1,0
19684,272.727272727273,4,1,1,65,1,0
54115,-100,4,1,1,31,0,0
55206,-100,4,1,1,65,0,1
55683,272.727272727273,4,1,1,65,1,1
70547,-100,4,1,1,65,0,0
86910,-200,4,1,1,65,0,0
88274,-100,4,1,1,65,0,0
115274,-100,4,1,1,65,0,1
147865,-100,4,1,1,65,0,0

[Colours]
Combo1 : 100,0,0
Combo2 : 94,94,47
Combo3 : 0,78,115

[HitObjects]
128,64,10689,1,0,0:0:0:0:
128,64,10758,1,0,0:0:0:0:
128,64,10826,1,0,0:0:0:0:
216,144,10962,2,0,P|256:176|312:196,1,100,8|0,0:0|0:0,0:0:0:0:
388,244,11235,1,0,0:0:0:0:
388,244,11371,1,0,0:0:0:0:
328,324,11508,1,8,0:0:0:0:
208,320,11644,6,0,B|208:252|208:252|172:216|172:216|172:132,1,200
184,16,12053,1,8,0:0:0:0:
292,72,12189,2,0,B|388:72|388:72|348:108|356:184,1,200
280,260,12599,1,8,0:0:0:0:
400,276,12735,1,0,0:0:0:0:
280,260,12871,2,0,P|256:308|216:336,1,100
76,120,13144,5,8,0:0:0:0:
76,120,13212,1,0,0:0:0:0:
76,120,13280,2,0,P|104:80|164:64,1,100
208,168,13553,1,0,0:0:0:0:
312,108,13689,1,8,0:0:0:0:
432,108,13826,2,0,P|472:196|448:296,1,200
336,336,14235,1,8,0:0:0:0:
72,200,14371,2,0,B|168:200|168:200|196:152|272:156,1,200,0|0,0:0|0:0,0:0:0:0:
72,200,14780,1,8,0:0:0:0:
240,336,14917,5,8,0:0:0:0:
340,268,15053,1,0,0:0:0:0:
340,268,15121,1,0,0:0:0:0:
340,268,15189,1,0,0:0:0:0:
440,332,15326,1,8,0:0:0:0:
504,232,15462,1,0,0:0:0:0:
404,168,15599,1,0,0:0:0:0:
381,123,15667,1,0,0:0:0:0:
345,89,15735,1,0,0:0:0:0:
300,67,15803,1,0,0:0:0:0:
251,62,15871,1,8,0:0:0:0:
132,72,16008,6,0,P|72:148|80:248,1,200
180,316,16417,1,8,0:0:0:0:
208,200,16553,2,0,P|308:200|400:256,1,200
488,324,16962,1,8,0:0:0:0:
488,324,17099,1,0,0:0:0:0:
464,80,17235,1,0,0:0:0:0:
464,80,17303,1,0,0:0:0:0:
464,80,17371,6,0,L|356:80,1,100,0|8,0:0|0:0,0:0:0:0:
260,144,17644,1,0,0:0:0:0:
200,40,17780,2,0,P|152:44|104:72,1,100
8,136,18053,1,8,0:0:0:0:
100,212,18190,2,0,P|144:304|236:328,1,200
340,272,18599,1,8,0:0:0:0:
256,188,18735,1,0,0:0:0:0:
295,157,18803,1,0,0:0:0:0:
343,145,18871,1,0,0:0:0:0:
393,149,18940,1,0,0:0:0:0:
438,169,19008,1,0,0:0:0:0:
476,202,19076,1,0,0:0:0:0:
499,246,19144,1,4,0:0:0:0:
432,344,19280,1,0,0:0:0:0:
144,344,19417,5,8,0:0:0:0:
144,344,19684,1,0,0:0:0:0:
64,288,19820,1,0,0:0:0:0:
156,248,19956,1,0,0:0:0:0:
72,192,20093,1,0,0:0:0:0:
164,152,20229,1,0,0:0:0:0:
244,212,20365,1,0,0:0:0:0:
236,312,20502,5,0,0:0:0:0:
324,268,20638,1,0,0:0:0:0:
336,168,20774,1,0,0:0:0:0:
336,168,20911,1,0,0:0:0:0:
412,232,21047,1,0,0:0:0:0:
408,332,21184,1,0,0:0:0:0:
484,92,21320,1,0,0:0:0:0:
324,268,21456,1,0,0:0:0:0:
180,96,21593,5,4,0:0:0:0:
180,96,21865,1,0,0:0:0:0:
100,160,22002,1,0,0:0:0:0:
196,188,22138,1,0,0:0:0:0:
120,252,22274,1,0,0:0:0:0:
216,284,22411,1,0,0:0:0:0:
288,216,22547,1,0,0:0:0:0:
272,116,22684,1,0,0:0:0:0:
364,156,22820,5,0,0:0:0:0:
384,252,22956,1,0,0:0:0:0:
384,252,23093,1,0,0:0:0:0:
308,316,23229,1,0,0:0:0:0:
400,348,23365,1,0,0:0:0:0:
272,116,23502,2,0,P|184:68|80:72,1,200,0|4,0:0|0:0,0:0:0:0:
32,256,24047,5,0,0:0:0:0:
32,256,24184,1,0,0:0:0:0:
124,300,24320,1,0,0:0:0:0:
208,248,24456,1,0,0:0:0:0:
224,348,24593,1,0,0:0:0:0:
300,284,24729,1,0,0:0:0:0:
288,184,24865,5,0,0:0:0:0:
196,144,25002,1,0,0:0:0:0:
280,92,25138,1,0,0:0:0:0:
368,136,25274,1,0,0:0:0:0:
288,184,25411,1,0,0:0:0:0:
280,92,25547,1,0,0:0:0:0:
196,144,25684,2,0,P|112:208|64:296,1,200,0|4,0:0|0:0,0:0:0:0:
228,300,26229,5,0,0:0:0:0:
228,300,26365,1,0,0:0:0:0:
312,356,26502,1,0,0:0:0:0:
396,300,26638,1,0,0:0:0:0:
480,244,26774,2,0,L|480:136,1,100,0|0,0:0|0:0,0:0:0:0:
404,80,27047,1,0,0:0:0:0:
112,80,27184,5,4,0:0:0:0:
128,304,27320,2,0,P|180:304|224:256,1,100,4|0,0:0|0:0,0:0:0:0:
404,80,27593,2,0,L|244:80,1,150,4|0,0:0|0:0,0:0:0:0:
254,80,27865,1,0,0:0:0:0:
20,216,28002,1,0,0:0:0:0:
380,304,28138,1,4,0:0:0:0:
380,304,28411,5,0,0:0:0:0:
288,260,28547,1,0,0:0:0:0:
372,208,28684,1,0,0:0:0:0:
284,160,28820,1,0,0:0:0:0:
200,216,28956,1,0,0:0:0:0:
204,316,29093,1,0,0:0:0:0:
112,276,29229,1,0,0:0:0:0:
108,176,29365,1,0,0:0:0:0:
192,120,29502,1,0,0:0:0:0:
100,80,29638,1,0,0:0:0:0:
336,40,29774,5,4,0:0:0:0:
288,260,29911,1,0,0:0:0:0:
184,40,30047,1,8,0:0:0:0:
136,260,30184,1,4,0:0:0:0:
336,40,30593,5,0,0:0:0:0:
412,104,30729,1,0,0:0:0:0:
392,200,30865,1,0,0:0:0:0:
312,136,31002,1,0,0:0:0:0:
240,68,31138,1,0,0:0:0:0:
216,164,31274,1,0,0:0:0:0:
292,228,31411,1,0,0:0:0:0:
368,292,31547,1,0,0:0:0:0:
272,328,31684,1,0,0:0:0:0:
196,260,31820,1,0,0:0:0:0:
120,52,31956,5,4,0:0:0:0:
380,136,32093,1,0,0:0:0:0:
132,136,32229,1,4,0:0:0:0:
392,52,32365,1,8,0:0:0:0:
256,280,32774,5,0,0:0:0:0:
160,332,32911,1,0,0:0:0:0:
76,260,33047,2,0,P|72:160|124:68,1,200,0|8,0:0|0:0,0:0:0:0:
208,32,33456,1,0,0:0:0:0:
396,184,33729,1,0,0:0:0:0:
288,188,33865,2,0,P|248:224|232:268,1,100,0|0,0:0|0:0,0:0:0:0:
156,348,34138,1,0,0:0:0:0:
52,316,34274,1,0,0:0:0:0:
124,232,34411,1,0,0:0:0:0:
392,304,34547,6,0,P|456:232|456:124,1,200,4|0,0:0|0:0,0:0:0:0:
388,48,34956,1,0,0:0:0:0:
304,120,35093,1,0,0:0:0:0:
204,76,35229,1,0,0:0:0:0:
204,76,35297,1,0,0:0:0:0:
204,76,35365,1,0,0:0:0:0:
216,188,35502,2,0,L|96:188,1,100,0|0,0:0|0:0,0:0:0:0:
20,140,35774,1,0,0:0:0:0:
284,336,35911,5,8,0:0:0:0:
284,336,36047,2,0,P|328:252|424:268,1,200,8|8,0:0|0:0,0:0:0:0:
452,32,36456,1,0,0:0:0:0:
452,32,36524,1,0,0:0:0:0:
452,32,36593,1,8,0:0:0:0:
144,168,36729,1,8,0:0:0:0:
452,32,36865,6,0,P|368:88|264:88,1,200,0|8,0:0|0:0,0:0:0:0:
12,40,37274,1,4,0:0:0:0:
12,40,37547,1,0,0:0:0:0:
56,140,37684,1,0,0:0:0:0:
144,76,37820,1,0,0:0:0:0:
144,76,37888,1,0,0:0:0:0:
144,76,37956,2,0,L|256:76,1,100
320,156,38229,5,0,0:0:0:0:
224,208,38365,1,0,0:0:0:0:
320,264,38502,2,0,P|360:296|416:308,1,100
508,264,38774,1,0,0:0:0:0:
478,223,38843,1,0,0:0:0:0:
460,177,38911,1,0,0:0:0:0:
453,127,38979,1,0,0:0:0:0:
457,78,39047,5,4,0:0:0:0:
224,208,39184,1,0,0:0:0:0:
40,24,39320,1,8,0:0:0:0:
380,212,39456,1,4,0:0:0:0:
380,212,39729,1,0,0:0:0:0:
304,288,39865,2,0,B|264:320|264:320|160:320,1,150,0|0,0:0|0:0,0:0:0:0:
108,320,40138,1,0,0:0:0:0:
40,236,40274,1,0,0:0:0:0:
108,148,40411,2,0,B|212:148|212:148|296:88,2,200,0|0|0,0:0|0:0|0:0,0:0:0:0:
452,344,41229,5,4,0:0:0:0:
448,64,41365,1,0,0:0:0:0:
244,236,41502,1,8,0:0:0:0:
448,64,41638,1,4,0:0:0:0:
236,124,41911,1,0,0:0:0:0:
360,132,42047,2,0,P|360:184|384:224,1,100,0|0,0:0|0:0,0:0:0:0:
384,224,42252,1,0,0:0:0:0:
384,224,42320,1,0,0:0:0:0:
476,280,42456,1,0,0:0:0:0:
380,336,42593,6,0,P|280:328|192:252,1,200,0|0,0:0|0:0,0:0:0:0:
168,164,43002,1,0,0:0:0:0:
88,240,43138,2,0,P|60:192|60:140,1,100,0|0,0:0|0:0,0:0:0:0:
376,60,43411,2,0,P|292:108|208:56,1,200,4|0,0:0|0:0,0:0:0:0:
100,60,43820,1,0,0:0:0:0:
208,60,43956,2,0,P|160:144|212:228,1,200,0|8,0:0|0:0,0:0:0:0:
316,224,44365,1,0,0:0:0:0:
316,224,44502,1,0,0:0:0:0:
316,224,44774,2,0,P|336:288|408:332,1,150,8|0,0:0|0:0,0:0:0:0:
403,331,45047,5,8,0:0:0:0:
444,64,45183,1,8,0:0:0:0:
256,192,45320,1,8,0:0:0:0:
108,331,45456,1,8,0:0:0:0:
68,64,45593,1,4,0:0:0:0:
68,64,45865,5,8,0:0:0:0:
128,156,46002,2,0,P|212:204|300:156,1,200,4|0,0:0|0:0,0:0:0:0:
384,96,46411,1,0,0:0:0:0:
384,96,46547,1,0,0:0:0:0:
456,180,46683,2,0,L|456:280,1,100
368,348,46956,1,0,0:0:0:0:
260,324,47093,1,0,0:0:0:0:
222,291,47161,1,0,0:0:0:0:
176,272,47229,1,0,0:0:0:0:
126,267,47297,1,0,0:0:0:0:
78,277,47365,1,0,0:0:0:0:
16,184,47502,1,0,0:0:0:0:
16,184,47638,1,0,0:0:0:0:
276,40,47774,6,0,B|276:100|276:100|344:144|412:104,1,200,0|0,0:0|0:0,0:0:0:0:
492,180,48183,1,0,0:0:0:0:
408,252,48320,2,0,L|304:252,1,100
216,316,48593,1,0,0:0:0:0:
216,316,48729,1,0,0:0:0:0:
148,228,48865,1,0,0:0:0:0:
148,178,48933,1,0,0:0:0:0:
148,128,49002,1,0,0:0:0:0:
148,78,49070,1,0,0:0:0:0:
148,28,49138,1,4,0:0:0:0:
260,24,49274,1,0,0:0:0:0:
452,80,49547,1,0,0:0:0:0:
452,80,49683,1,4,0:0:0:0:
452,80,49752,1,0,0:0:0:0:
452,80,49820,1,0,0:0:0:0:
440,328,49956,6,0,L|332:328,1,100
236,288,50229,1,0,0:0:0:0:
136,336,50365,1,0,0:0:0:0:
236,288,50502,2,0,P|224:232|248:192,1,100
352,204,50774,1,0,0:0:0:0:
304,104,50911,1,0,0:0:0:0:
80,264,51047,6,0,B|80:200|80:200|164:192|216:128,1,200,0|0,0:0|0:0,0:0:0:0:
220,36,51456,1,4,0:0:0:0:
328,52,51593,1,0,0:0:0:0:
392,140,51729,1,0,0:0:0:0:
460,56,51865,1,0,0:0:0:0:
392,140,52002,1,0,0:0:0:0:
232,344,52138,6,0,B|292:344|292:344|416:256,1,200,0|0,0:0|0:0,0:0:0:0:
488,188,52547,1,0,0:0:0:0:
392,140,52683,2,0,P|348:152|296:128,1,100
224,52,52956,1,0,0:0:0:0:
148,132,53093,1,0,0:0:0:0:
328,340,53229,5,8,0:0:0:0:
184,44,53502,1,8,0:0:0:0:
488,188,53774,1,8,0:0:0:0:
256,188,53911,1,0,0:0:0:0:
24,188,54047,1,8,0:0:0:0:
256,188,54183,1,4,0:0:0:0:
256,192,54320,12,4,55206,0:0:0:0:
216,296,55547,1,0,0:0:0:0:
156,180,55683,1,8,0:0:0:0:
284,204,55819,1,0,0:0:0:0:
244,80,55955,2,0,P|284:44|336:36,1,100,0|0,0:0|0:0,0:0:0:0:
448,92,56228,1,8,0:0:0:0:
452,220,56364,1,0,0:0:0:0:
336,156,56501,1,0,0:0:0:0:
336,156,56569,1,0,0:0:0:0:
336,156,56637,1,0,0:0:0:0:
348,284,56773,6,0,P|316:320|256:332,1,100,8|0,0:0|0:0,0:0:0:0:
48,244,57046,1,0,0:0:0:0:
224,136,57182,1,0,0:0:0:0:
224,136,57251,1,0,0:0:0:0:
224,136,57319,1,8,0:0:0:0:
224,136,57387,1,0,0:0:0:0:
224,136,57455,1,4,0:0:0:0:
512,272,57728,6,0,P|496:320|440:348,1,100,0|8,0:0|0:0,0:0:0:0:
320,348,58001,1,0,0:0:0:0:
280,224,58137,1,0,0:0:0:0:
164,288,58273,2,0,L|60:288,1,100,0|8,0:0|0:0,0:0:0:0:
148,44,58546,5,0,0:0:0:0:
256,296,58682,1,2,0:0:0:0:
364,44,58819,1,2,0:0:0:0:
364,44,58955,1,8,0:0:0:0:
92,212,59092,1,0,0:0:0:0:
92,212,59364,2,0,L|92:312,1,100,0|8,0:0|0:0,0:0:0:0:
256,100,59637,6,0,B|308:136|308:136|456:136,1,200,4|0,0:0|0:0,0:0:0:0:
496,256,60046,1,8,0:0:0:0:
384,324,60182,2,0,L|276:324,1,100,0|0,0:0|0:0,0:0:0:0:
188,236,60455,2,0,L|300:236,2,100,0|8|0,0:0|0:0|0:0,0:0:0:0:
56,236,60864,2,8,P|24:140|52:44,1,200,0|8,0:0|0:0,0:0:0:0:
49,47,61205,1,0,0:0:0:0:
49,47,61273,1,0,0:0:0:0:
236,49,61410,2,0,B|192:96|192:96|192:248,1,200,0|8,0:0|0:0,0:0:0:0:
472,336,61819,5,4,0:0:0:0:
84,324,62228,1,0,0:0:0:0:
268,140,62501,1,0,0:0:0:0:
84,324,62773,1,0,0:0:0:0:
52,128,63046,5,0,0:0:0:0:
68,100,63319,1,8,0:0:0:0:
88,72,63592,1,0,0:0:0:0:
212,36,63728,2,0,P|264:40|312:76,1,100,0|8,0:0|0:0,0:0:0:0:
136,328,64001,6,0,P|196:256|308:284,1,200,4|0,0:0|0:0,0:0:0:0:
408,328,64410,1,8,0:0:0:0:
464,212,64546,2,0,P|484:160|480:112,1,100
376,44,64819,1,0,0:0:0:0:
276,128,64955,1,8,0:0:0:0:
276,128,65023,1,0,0:0:0:0:
276,128,65092,2,0,L|164:128,1,100
72,48,65364,1,0,0:0:0:0:
60,176,65501,2,0,P|88:224|132:248,1,100,8|0,0:0|0:0,0:0:0:0:
356,328,65773,5,0,0:0:0:0:
480,292,65910,1,0,0:0:0:0:
480,292,65978,1,0,0:0:0:0:
480,292,66046,1,0,0:0:0:0:
404,80,66182,2,0,P|384:168|276:152,1,200,4|0,0:0|0:0,0:0:0:0:
200,72,66592,1,8,0:0:0:0:
112,164,66728,1,0,0:0:0:0:
112,164,66796,1,0,0:0:0:0:
112,164,66864,5,0,0:0:0:0:
188,272,67001,2,0,P|220:312|276:328,1,100,0|8,0:0|0:0,0:0:0:0:
388,288,67273,1,0,0:0:0:0:
324,176,67410,1,0,0:0:0:0:
456,184,67546,2,0,L|456:80,1,100,0|8,0:0|0:0,0:0:0:0:
208,128,67819,1,0,0:0:0:0:
45,38,68092,2,0,P|32:132|112:200,1,200
376,52,68501,6,0,B|376:120|376:120|308:120|252:184,1,200,4|8,0:0|0:0,0:0:0:0:
204,292,68910,1,0,0:0:0:0:
80,252,69046,1,0,0:0:0:0:
204,292,69183,2,0,P|244:260|308:260,1,100,0|8,0:0|0:0,0:0:0:0:
396,332,69455,2,0,P|472:204|392:84,1,300,0|8,0:0|0:0,0:0:0:0:
140,92,70137,1,0,0:0:0:0:
260,40,70273,1,0,0:0:0:0:
280,168,70410,1,8,0:0:0:0:
160,216,70546,1,0,0:0:0:0:
160,108,75046,5,4,0:0:0:0:
160,108,75183,2,0,P|192:156|200:200,1,100,0|0,0:0|0:0,0:0:0:0:
140,276,75455,1,0,0:0:0:0:
220,336,75592,1,0,0:0:0:0:
312,296,75728,2,0,P|364:296|424:272,1,100,0|0,0:0|0:0,0:0:0:0:
464,196,76001,1,0,0:0:0:0:
464,196,76069,1,0,0:0:0:0:
464,196,76137,1,0,0:0:0:0:
404,116,76273,5,0,0:0:0:0:
320,168,76410,1,0,0:0:0:0:
316,68,76546,2,0,P|276:32|220:20,1,100
0,128,76819,1,2,0:0:0:0:
0,128,76887,1,0,0:0:0:0:
0,128,76955,1,2,0:0:0:0:
220,208,77092,1,2,0:0:0:0:
36,340,77228,6,0,L|144:328,1,100,4|0,0:0|0:0,0:0:0:0:
236,344,77501,1,0,0:0:0:0:
308,276,77637,1,0,0:0:0:0:
384,344,77773,1,0,0:0:0:0:
476,308,77910,2,0,P|464:252|424:208,1,100,0|0,0:0|0:0,0:0:0:0:
360,156,78183,1,0,0:0:0:0:
412,72,78319,1,0,0:0:0:0:
312,68,78455,2,0,L|208:68,1,100
112,72,78728,5,0,0:0:0:0:
112,72,78796,1,0,0:0:0:0:
112,72,78864,1,2,0:0:0:0:
256,248,79001,1,0,0:0:0:0:
24,352,79137,1,4,0:0:0:0:
256,248,79273,1,0,0:0:0:0:
488,352,79410,1,0,0:0:0:0:
452,156,79683,5,8,0:0:0:0:
252,156,80228,1,8,0:0:0:0:
356,328,80773,1,8,0:0:0:0:
156,328,81319,1,8,0:0:0:0:
172,52,81592,1,0,0:0:0:0:
141,91,81660,1,0,0:0:0:0:
103,124,81728,1,0,0:0:0:0:
59,146,81796,1,0,0:0:0:0:
11,159,81864,5,8,0:0:0:0:
192,248,82410,1,8,0:0:0:0:
336,112,82955,1,8,0:0:0:0:
424,292,83501,1,8,0:0:0:0:
36,256,83773,1,0,0:0:0:0:
43,304,83842,1,0,0:0:0:0:
80,336,83910,1,0,0:0:0:0:
129,336,83978,1,0,0:0:0:0:
167,305,84046,5,8,0:0:0:0:
316,172,84592,1,8,0:0:0:0:
148,64,85137,1,8,0:0:0:0:
24,220,85683,1,8,0:0:0:0:
336,348,85955,1,0,0:0:0:0:
320,300,86023,1,0,0:0:0:0:
287,263,86092,1,0,0:0:0:0:
242,242,86160,1,0,0:0:0:0:
193,239,86228,5,8,0:0:0:0:
193,239,86501,1,0,0:0:0:0:
104,192,86637,1,0,0:0:0:0:
192,140,86773,1,8,0:0:0:0:
448,48,86910,2,2,P|468:236|248:328,1,450,2|4,0:0|0:0,0:0:0:0:
64,276,88410,5,0,0:0:0:0:
160,244,88546,1,0,0:0:0:0:
84,180,88683,1,0,0:0:0:0:
180,152,88819,2,0,P|216:112|264:100,1,100
344,152,89092,1,0,0:0:0:0:
440,124,89228,1,0,0:0:0:0:
344,152,89364,5,0,0:0:0:0:
380,244,89501,1,0,0:0:0:0:
280,232,89637,1,0,0:0:0:0:
320,324,89773,1,0,0:0:0:0:
320,324,89910,2,0,P|280:348|220:352,1,100
92,124,90183,1,2,0:0:0:0:
92,124,90251,1,0,0:0:0:0:
92,124,90319,6,0,P|172:176|272:160,1,200,2|0,0:0|0:0,0:0:0:0:
336,84,90728,1,0,0:0:0:0:
420,140,90864,1,0,0:0:0:0:
368,224,91001,2,0,L|368:328,1,100
268,328,91273,1,0,0:0:0:0:
180,280,91410,1,0,0:0:0:0:
180,280,91478,1,0,0:0:0:0:
180,280,91546,2,0,P|144:244|84:232,1,100
16,176,91819,1,0,0:0:0:0:
208,24,91955,5,4,0:0:0:0:
432,196,92092,1,0,0:0:0:0:
208,352,92228,1,8,0:0:0:0:
208,24,92364,1,4,0:0:0:0:
112,164,92773,6,0,B|112:228|112:228|180:252|200:344,1,200
296,324,93183,1,0,0:0:0:0:
384,280,93319,1,0,0:0:0:0:
384,280,93455,2,0,P|456:220|416:128,1,200,0|0,0:0|0:0,0:0:0:0:
364,52,93864,2,0,P|276:96|172:44,1,200
92,28,94273,1,0,0:0:0:0:
24,100,94410,1,0,0:0:0:0:
140,328,94546,5,0,0:0:0:0:
208,252,94683,1,0,0:0:0:0:
208,252,94751,1,0,0:0:0:0:
208,252,94819,2,0,L|316:252,1,100,0|2,0:0|0:0,0:0:0:0:
312,252,95228,1,2,0:0:0:0:
312,252,95296,1,0,0:0:0:0:
312,252,95364,2,0,P|372:240|408:212,1,100
468,144,95637,5,2,0:0:0:0:
468,144,95910,1,2,0:0:0:0:
76,156,96046,1,0,0:0:0:0:
76,156,96183,1,0,0:0:0:0:
228,352,96319,1,2,0:0:0:0:
268,32,96455,1,0,0:0:0:0:
440,304,96592,1,2,0:0:0:0:
440,304,96728,1,0,0:0:0:0:
176,112,96864,6,0,P|192:160|240:196,1,100,4|0,0:0|0:0,0:0:0:0:
324,220,97137,1,8,0:0:0:0:
48,44,97273,1,2,0:0:0:0:
48,44,97546,2,0,L|52:148,1,100
120,216,97819,1,0,0:0:0:0:
48,284,97955,2,0,P|116:352|228:328,1,200
300,296,98364,1,0,0:0:0:0:
236,220,98501,2,0,P|252:164|284:140,1,100
384,132,98773,1,0,0:0:0:0:
427,155,98842,1,0,0:0:0:0:
460,193,98910,1,0,0:0:0:0:
478,239,98978,1,0,0:0:0:0:
479,289,99046,5,4,0:0:0:0:
152,344,99183,1,0,0:0:0:0:
272,56,99319,1,8,0:0:0:0:
324,352,99455,1,2,0:0:0:0:
168,228,99728,5,0,0:0:0:0:
80,180,99864,1,0,0:0:0:0:
168,132,100001,1,0,0:0:0:0:
168,132,100069,1,0,0:0:0:0:
168,132,100137,1,0,0:0:0:0:
256,180,100273,2,0,P|288:212|344:208,1,100
464,56,100683,1,0,0:0:0:0:
376,104,100819,2,0,L|272:104,1,100
208,28,101092,1,0,0:0:0:0:
124,84,101228,1,0,0:0:0:0:
85,115,101296,1,0,0:0:0:0:
60,158,101364,1,0,0:0:0:0:
53,207,101433,1,0,0:0:0:0:
64,256,101501,1,2,0:0:0:0:
328,344,101637,6,0,P|388:264|376:160,1,200,4|0,0:0|0:0,0:0:0:0:
316,88,102046,1,0,0:0:0:0:
244,156,102183,1,0,0:0:0:0:
244,156,102251,1,0,0:0:0:0:
244,156,102319,1,0,0:0:0:0:
168,92,102455,1,0,0:0:0:0:
132,184,102592,2,0,B|116:260|116:260|176:248|236:292,1,200
328,256,103001,1,0,0:0:0:0:
396,332,103137,1,0,0:0:0:0:
432,40,103410,6,0,P|396:72|356:124,1,100
80,40,103683,2,0,P|116:72|156:124,1,100
432,344,103955,2,0,P|396:312|356:260,1,100
80,344,104228,2,0,P|116:312|156:260,1,100
256,28,104501,2,0,L|256:140,1,100
256,356,104773,2,0,L|256:244,1,100
512,192,105046,5,8,0:0:0:0:
0,192,105183,1,8,0:0:0:0:
400,92,105319,1,8,0:0:0:0:
112,92,105455,1,8,0:0:0:0:
256,356,105592,1,4,0:0:0:0:
256,28,105864,1,0,0:0:0:0:
216,120,106001,6,0,P|168:208|56:260,1,200,0|0,0:0|0:0,0:0:0:0:
40,344,106410,1,0,0:0:0:0:
140,344,106546,2,0,L|252:344,1,100
328,300,106819,1,0,0:0:0:0:
416,344,106955,1,0,0:0:0:0:
476,264,107092,1,0,0:0:0:0:
465,215,107160,1,0,0:0:0:0:
443,170,107228,1,0,0:0:0:0:
348,140,107364,1,0,0:0:0:0:
292,56,107501,1,0,0:0:0:0:
228,132,107637,1,0,0:0:0:0:
32,276,107773,6,0,B|84:276|84:276|40:184|104:132,1,200
176,76,108183,1,0,0:0:0:0:
252,140,108319,2,0,B|307:184|263:276|263:276|315:276,1,200
416,276,108728,1,0,0:0:0:0:
492,208,108864,2,0,P|480:112|380:60,1,200
296,60,109273,2,0,P|213:111|201:207,1,200
144,288,109683,1,0,0:0:0:0:
144,288,109819,1,0,0:0:0:0:
476,336,109955,6,0,B|408:256|408:256|300:256,1,200,4|0,0:0|0:0,0:0:0:0:
276,164,110364,1,0,0:0:0:0:
180,196,110501,1,0,0:0:0:0:
184,96,110637,1,0,0:0:0:0:
84,92,110773,1,0,0:0:0:0:
72,192,110910,1,0,0:0:0:0:
308,32,111046,6,0,P|400:56|440:160,1,200,4|0,0:0|0:0,0:0:0:0:
408,240,111455,1,0,0:0:0:0:
320,192,111592,1,0,0:0:0:0:
284,284,111728,1,0,0:0:0:0:
184,284,111864,1,0,0:0:0:0:
208,188,112001,1,0,0:0:0:0:
412,344,112137,6,0,B|464:316|464:316|464:168,1,200,4|0,0:0|0:0,0:0:0:0:
396,100,112546,1,0,0:0:0:0:
332,176,112683,1,0,0:0:0:0:
300,80,112819,1,0,0:0:0:0:
236,156,112955,1,0,0:0:0:0:
208,60,113092,1,0,0:0:0:0:
36,336,113228,5,8,0:0:0:0:
476,336,113501,1,8,0:0:0:0:
128,52,113773,1,8,0:0:0:0:
384,332,113910,1,0,0:0:0:0:
384,52,114046,1,4,0:0:0:0:
128,332,114183,1,2,0:0:0:0:
256,192,114455,12,4,115273,0:0:0:0:
168,76,115546,5,0,0:0:0:0:
240,196,115683,1,8,0:0:0:0:
348,108,115819,2,0,P|400:124|440:164,1,100
444,296,116092,1,0,0:0:0:0:
444,296,116160,1,0,0:0:0:0:
444,296,116228,1,8,0:0:0:0:
316,352,116364,1,0,0:0:0:0:
328,212,116501,1,0,0:0:0:0:
208,280,116637,6,0,L|104:280,1,100,0|8,0:0|0:0,0:0:0:0:
8,184,116910,1,0,0:0:0:0:
8,184,116978,1,0,0:0:0:0:
8,184,117046,1,0,0:0:0:0:
88,68,117183,1,2,0:0:0:0:
164,184,117319,1,8,0:0:0:0:
384,44,117455,6,0,P|460:100|468:216,1,200,4|0,0:0|0:0,0:0:0:0:
380,304,117864,1,8,0:0:0:0:
260,236,118001,2,0,P|216:216|156:232,1,100
16,248,118273,1,0,0:0:0:0:
16,248,118342,1,0,0:0:0:0:
16,248,118410,1,8,0:0:0:0:
60,116,118546,1,0,0:0:0:0:
196,84,118683,1,0,0:0:0:0:
312,160,118819,2,0,L|416:160,1,100
180,328,119092,5,2,0:0:0:0:
196,84,119364,2,0,L|96:44,1,100,2|8,0:0|0:0,0:0:0:0:
412,252,119637,2,0,P|344:316|280:252,1,200,4|0,0:0|0:0,0:0:0:0:
148,204,120046,1,8,0:0:0:0:
264,124,120183,2,0,P|288:72|320:36,1,100
456,44,120455,1,0,0:0:0:0:
456,44,120523,1,0,0:0:0:0:
456,44,120592,1,8,0:0:0:0:
480,180,120728,1,0,0:0:0:0:
408,308,120864,6,0,P|316:272|228:324,1,200,0|0,0:0|0:0,0:0:0:0:
32,120,121410,1,2,0:0:0:0:
232,316,121683,1,2,0:0:0:0:
408,96,121819,6,0,B|384:148|384:148|320:92|232:144,1,200,4|0,0:0|0:0,0:0:0:0:
136,56,122228,1,8,0:0:0:0:
28,316,122501,1,8,0:0:0:0:
308,316,122773,2,0,P|400:272|440:176,2,200,8|0|8,0:0|0:0|0:0,0:0:0:0:
168,124,123455,5,0,0:0:0:0:
28,316,123592,1,0,0:0:0:0:
24,32,123728,1,0,0:0:0:0:
168,216,123864,1,8,0:0:0:0:
236,56,124001,6,0,P|332:72|384:168,1,200
464,268,124410,1,8,0:0:0:0:
324,272,124546,1,0,0:0:0:0:
204,344,124683,1,0,0:0:0:0:
204,344,124751,1,0,0:0:0:0:
204,344,124819,2,0,L|92:344,1,100,0|8,0:0|0:0,0:0:0:0:
48,216,125092,5,0,0:0:0:0:
140,112,125228,1,0,0:0:0:0:
236,216,125364,2,0,P|276:176|316:160,1,100,0|8,0:0|0:0,0:0:0:0:
428,76,125637,1,0,0:0:0:0:
508,192,125773,1,0,0:0:0:0:
416,296,125910,1,0,0:0:0:0:
416,296,125978,1,0,0:0:0:0:
416,296,126046,1,8,0:0:0:0:
268,52,126183,6,0,B|268:116|268:116|196:96|128:148,1,200,4|0,0:0|0:0,0:0:0:0:
52,252,126592,1,8,0:0:0:0:
160,340,126728,2,0,P|208:352|268:332,1,100
356,240,127001,1,0,0:0:0:0:
356,240,127069,1,0,0:0:0:0:
356,240,127137,1,8,0:0:0:0:
480,172,127273,1,0,0:0:0:0:
472,312,127410,1,0,0:0:0:0:
356,240,127546,2,8,L|252:240,1,100,8|8,0:0|0:0,0:0:0:0:
124,284,127819,5,2,0:0:0:0:
308,72,128092,1,2,0:0:0:0:
36,28,128364,1,2,0:0:0:0:
124,136,128501,1,4,0:0:0:0:
252,192,128637,1,0,0:0:0:0:
252,192,128705,1,0,0:0:0:0:
252,192,128773,1,8,0:0:0:0:
256,328,128910,1,0,0:0:0:0:
392,296,129046,2,0,P|436:256|444:208,1,100
368,100,129319,1,8,0:0:0:0:
236,152,129455,2,0,P|188:236|88:256,1,200
256,28,129864,5,8,0:0:0:0:
372,104,130001,1,0,0:0:0:0:
448,220,130137,1,8,0:0:0:0:
428,265,130205,1,0,0:0:0:0:
389,295,130273,1,0,0:0:0:0:
340,301,130342,1,0,0:0:0:0:
294,281,130410,1,0,0:0:0:0:
96,76,130546,6,0,P|36:148|88:228,1,200,4|0,0:0|0:0,0:0:0:0:
184,328,130955,1,8,0:0:0:0:
268,216,131092,1,0,0:0:0:0:
192,100,131228,1,0,0:0:0:0:
223,61,131296,1,0,0:0:0:0:
269,43,131364,1,0,0:0:0:0:
318,51,131433,1,0,0:0:0:0:
356,82,131501,1,8,0:0:0:0:
472,160,131637,1,0,0:0:0:0:
368,256,131773,1,0,0:0:0:0:
232,288,131910,5,0,0:0:0:0:
156,172,132046,1,8,0:0:0:0:
100,44,132183,2,0,P|60:64|28:108,1,100
28,107,132387,1,0,0:0:0:0:
28,107,132455,1,0,0:0:0:0:
36,248,132592,1,8,0:0:0:0:
304,336,132728,6,0,L|408:336,1,100,0|2,0:0|0:0,0:0:0:0:
432,68,133001,1,2,0:0:0:0:
432,68,133137,1,8,0:0:0:0:
304,124,133273,1,0,0:0:0:0:
180,60,133410,2,0,B|180:136|180:136|112:136|80:212,1,200,0|8,0:0|0:0,0:0:0:0:
44,336,133819,1,0,0:0:0:0:
44,336,133887,1,0,0:0:0:0:
44,336,133955,1,8,0:0:0:0:
136,232,134092,1,8,0:0:0:0:
228,336,134228,1,8,0:0:0:0:
324,232,134364,2,0,P|400:288|472:232,1,200,2|2,0:0|0:0,0:0:0:0:
396,112,134773,1,0,0:0:0:0:
44,112,134910,6,0,P|120:56|192:112,1,200,4|0,0:0|0:0,0:0:0:0:
108,224,135319,2,0,L|108:336,1,100,8|0,0:0|0:0,0:0:0:0:
196,212,135592,2,0,L|196:312,1,100
280,200,135864,2,0,L|280:304,1,100,8|0,0:0|0:0,0:0:0:0:
364,188,136137,2,0,P|368:92|284:48,1,200,0|8,0:0|0:0,0:0:0:0:
144,68,136546,1,0,0:0:0:0:
52,176,136683,2,0,P|40:228|48:280,1,100
164,348,136955,1,8,0:0:0:0:
364,188,137092,6,0,B|444:248|444:248|444:356,1,200,4|0,0:0|0:0,0:0:0:0:
304,320,137501,1,8,0:0:0:0:
212,212,137637,1,0,0:0:0:0:
92,288,137773,1,0,0:0:0:0:
212,212,137910,2,0,P|176:168|168:120,1,100,0|8,0:0|0:0,0:0:0:0:
167,126,138114,1,0,0:0:0:0:
167,126,138183,1,0,0:0:0:0:
288,56,138319,2,0,P|376:100|460:52,1,200,0|8,0:0|0:0,0:0:0:0:
288,56,138728,6,0,L|176:56,1,100,4|0,0:0|0:0,0:0:0:0:
48,60,139001,1,0,0:0:0:0:
28,200,139137,1,8,0:0:0:0:
256,344,139273,6,0,B|272:292|272:292|428:292,1,200,4|0,0:0|0:0,0:0:0:0:
484,168,139683,1,8,0:0:0:0:
344,168,139819,2,0,L|240:168,1,100
164,52,140092,1,0,0:0:0:0:
56,140,140228,1,8,0:0:0:0:
140,256,140364,2,0,P|164:304|212:332,1,100
201,328,140569,1,0,0:0:0:0:
201,328,140637,1,0,0:0:0:0:
332,280,140773,1,8,0:0:0:0:
472,264,140910,2,0,P|464:208|436:168,1,100
364,56,141183,1,0,0:0:0:0:
364,56,141251,1,0,0:0:0:0:
364,56,141319,1,0,0:0:0:0:
104,76,141455,6,0,B|192:76|192:76|148:120|168:192,1,200,4|0,0:0|0:0,0:0:0:0:
44,248,141864,1,8,0:0:0:0:
148,340,142001,1,0,0:0:0:0:
268,272,142137,1,0,0:0:0:0:
268,272,142205,1,0,0:0:0:0:
268,272,142273,2,0,P|320:288|368:272,1,100,0|8,0:0|0:0,0:0:0:0:
496,232,142546,1,0,0:0:0:0:
384,148,142683,2,0,B|352:112|352:112|184:112,1,200,0|8,0:0|0:0,0:0:0:0:
84,36,143092,1,2,0:0:0:0:
284,232,143364,1,2,0:0:0:0:
16,308,143637,1,2,0:0:0:0:
336,340,143773,6,0,P|432:320|476:236,1,200,4|8,0:0|0:0,0:0:0:0:
408,112,144183,1,0,0:0:0:0:
280,172,144319,1,0,0:0:0:0:
236,40,144455,1,0,0:0:0:0:
236,40,144523,1,0,0:0:0:0:
236,40,144592,1,8,0:0:0:0:
204,340,144728,5,0,0:0:0:0:
84,88,145001,1,0,0:0:0:0:
84,88,145069,1,0,0:0:0:0:
84,88,145137,1,8,0:0:0:0:
180,192,145273,1,0,0:0:0:0:
300,264,145410,1,0,0:0:0:0:
324,124,145546,2,0,P|364:84|412:76,1,100,0|8,0:0|0:0,0:0:0:0:
256,192,145819,12,0,147864,0:0:0:0:
60,84,148001,6,0,P|108:168|208:192,1,200
268,116,148410,1,0,0:0:0:0:
360,76,148546,2,0,P|408:92|448:132,1,100
360,180,148819,1,0,0:0:0:0:
360,180,148887,1,0,0:0:0:0:
360,180,148955,1,0,0:0:0:0:
76,328,149092,6,2,P|116:244|208:276,1,200,2|0,0:0|0:0,0:0:0:0:
296,312,149501,1,8,0:0:0:0:
388,276,149637,1,0,0:0:0:0:
388,276,149705,1,0,0:0:0:0:
388,276,149773,2,0,P|432:240|448:200,1,100
424,104,150046,1,8,0:0:0:0:
328,84,150183,2,0,P|256:20|160:56,1,200
88,112,150592,5,0,0:0:0:0:
88,112,150864,1,0,0:0:0:0:
124,204,151001,1,0,0:0:0:0:
220,180,151137,1,0,0:0:0:0:
220,180,151205,1,0,0:0:0:0:
220,180,151273,1,0,0:0:0:0:
196,276,151410,2,0,P|228:320|272:344,1,100
364,320,151683,2,0,P|448:260|480:168,1,200
408,100,152092,1,0,0:0:0:0:
408,100,152228,1,0,0:0:0:0:
160,48,152364,6,2,P|88:108|88:208,1,200,2|0,0:0|0:0,0:0:0:0:
136,296,152773,1,0,0:0:0:0:
224,248,152910,1,0,0:0:0:0:
224,248,152978,1,0,0:0:0:0:
224,248,153046,2,0,L|340:248,1,100
396,316,153319,1,0,0:0:0:0:
480,260,153455,1,0,0:0:0:0:
308,32,153592,5,2,0:0:0:0:
308,32,153728,1,0,0:0:0:0:
208,32,153864,1,0,0:0:0:0:
52,332,154001,2,0,B|100:284|100:284|240:284,1,200,2|0,0:0|0:0,0:0:0:0:
308,352,154410,1,2,0:0:0:0:
64,128,154546,5,4,0:0:0:0:
148,184,154683,1,0,0:0:0:0:
148,184,154751,1,0,0:0:0:0:
148,184,154819,1,0,0:0:0:0:
240,144,154955,2,0,P|288:128|336:148,1,100
416,196,155228,1,0,0:0:0:0:
332,252,155364,1,0,0:0:0:0:
424,296,155501,1,0,0:0:0:0:
416,196,155637,2,0,L|416:88,1,100
336,36,155910,5,0,0:0:0:0:
240,64,156046,1,0,0:0:0:0:
241,112,156114,1,0,0:0:0:0:
205,143,156183,1,0,0:0:0:0:
157,134,156251,1,0,0:0:0:0:
135,91,156319,1,0,0:0:0:0:
36,92,156455,2,0,L|36:204,1,100
236,348,156728,6,0,B|236:296|236:296|320:324|384:284,1,200,4|0,0:0|0:0,0:0:0:0:
480,224,157137,1,8,0:0:0:0:
400,132,157273,2,0,P|360:100|308:100,1,100
204,148,157546,1,0,0:0:0:0:
204,148,157614,1,0,0:0:0:0:
204,148,157683,1,8,0:0:0:0:
304,212,157819,1,0,0:0:0:0:
196,268,157955,2,0,P|104:288|40:208,1,200,0|8,0:0|0:0,0:0:0:0:
48,96,158364,2,0,P|140:76|204:156,1,200,2|2,0:0|0:0,0:0:0:0:
204,148,158910,1,2,0:0:0:0:
320,112,159046,5,0,0:0:0:0:
412,188,159183,2,0,P|412:240|388:280,1,100,0|8,0:0|0:0,0:0:0:0:
152,332,159592,1,0,0:0:0:0:
52,264,159728,1,0,0:0:0:0:
52,264,159796,1,0,0:0:0:0:
52,264,159864,2,0,P|68:164|136:88,1,200,8|0,0:0|0:0,0:0:0:0:
252,100,160273,1,0,0:0:0:0:
248,220,160410,1,8,0:0:0:0:
282,255,160478,1,0,0:0:0:0:
327,275,160546,1,0,0:0:0:0:
377,276,160614,1,0,0:0:0:0:
423,258,160683,5,8,0:0:0:0:
88,258,160819,1,8,0:0:0:0:
196,32,160955,1,8,0:0:0:0:
316,352,161092,1,8,0:0:0:0:
488,64,161228,6,0,B|468:112|468:112|400:52|328:116,1,200,4|10,0:0|0:0,0:0:0:0:
340,232,161637,1,0,0:0:0:0:
48,176,161773,1,0,0:0:0:0:
48,176,161910,1,2,0:0:0:0:
48,176,161978,1,0,0:0:0:0:
48,176,162046,2,8,P|64:240|108:264,1,100,8|0,0:0|0:0,0:0:0:0:
184,332,162319,1,0,0:0:0:0:
252,232,162455,6,0,L|352:232,1,100,0|8,0:0|0:0,0:0:0:0:
436,320,162728,1,0,0:0:0:0:
436,320,162796,1,0,0:0:0:0:
436,320,162864,1,0,0:0:0:0:
504,220,163001,1,0,0:0:0:0:
428,128,163137,2,0,P|360:56|252:56,1,200,8|0,0:0|0:0,0:0:0:0:
48,176,163546,1,0,0:0:0:0:
280,316,163683,6,0,P|352:244|336:144,1,200,10|0,0:0|0:0,0:0:0:0:
220,148,164092,1,2,0:0:0:0:
220,148,164160,1,0,0:0:0:0:
220,148,164228,1,8,0:0:0:0:
244,28,164364,2,0,P|148:48|96:132,1,200
96,129,164705,1,0,0:0:0:0:
96,129,164773,1,8,0:0:0:0:
56,244,164910,1,0,0:0:0:0:
176,224,165046,2,0,L|288:224,1,100
384,276,165319,1,8,0:0:0:0:
384,276,165387,1,0,0:0:0:0:
384,276,165455,1,0,0:0:0:0:
88,328,165592,6,0,L|192:328,1,100
384,276,165864,1,2,0:0:0:0:
420,242,165933,1,0,0:0:0:0:
431,194,166001,1,0,0:0:0:0:
414,148,166069,1,0,0:0:0:0:
374,120,166137,1,0,0:0:0:0:
276,52,166273,2,0,L|176:52,1,100,2|8,0:0|0:0,0:0:0:0:
72,116,166546,6,0,B|72:168|72:168|152:132|224:172,1,200
328,208,166955,1,8,0:0:0:0:
244,292,167092,1,0,0:0:0:0:
244,292,167160,1,0,0:0:0:0:
244,292,167228,1,0,0:0:0:0:
364,312,167364,1,0,0:0:0:0:
452,232,167501,1,8,0:0:0:0:
452,232,167569,1,0,0:0:0:0:
452,232,167637,1,0,0:0:0:0:
312,20,167773,6,0,P|300:64|256:104,1,100
64,296,168046,1,2,0:0:0:0:
72,247,168114,1,0,0:0:0:0:
109,215,168183,1,0,0:0:0:0:
158,213,168251,1,0,0:0:0:0:
198,241,168319,1,0,0:0:0:0:
292,316,168455,1,0,0:0:0:0:
340,208,168592,1,8,0:0:0:0:
456,232,168728,2,0,P|452:136|352:88,1,200
256,128,169137,5,8,0:0:0:0:
256,128,169205,1,0,0:0:0:0:
256,128,169273,1,0,0:0:0:0:
184,224,169410,1,8,0:0:0:0:
116,124,169546,1,0,0:0:0:0:
456,316,169683,1,2,0:0:0:0:
416,346,169751,1,0,0:0:0:0:
367,353,169819,1,0,0:0:0:0:
321,336,169887,1,0,0:0:0:0:
287,300,169955,5,0,0:0:0:0:
168,300,170092,1,0,0:0:0:0:
292,32,170228,1,2,0:0:0:0:
339,43,170296,1,0,0:0:0:0:
372,80,170364,1,0,0:0:0:0:
376,129,170433,1,0,0:0:0:0:
352,172,170501,1,8,0:0:0:0:
256,244,170637,1,2,0:0:0:0:
196,140,170773,1,8,0:0:0:0:
120,48,170910,6,2,P|48:112|40:216,1,200,2|0,0:0|0:0,0:0:0:0:
124,296,171319,1,8,0:0:0:0:
124,296,171455,1,0,0:0:0:0:
236,336,171592,1,8,0:0:0:0:
258,291,171660,1,0,0:0:0:0:
299,264,171728,1,0,0:0:0:0:
348,260,171796,1,0,0:0:0:0:
393,281,171864,1,8,0:0:0:0:
500,228,172001,1,0,0:0:0:0:
432,128,172137,1,8,0:0:0:0:
348,40,172273,5,0,0:0:0:0:
156,200,172410,1,8,0:0:0:0:
156,200,172478,1,0,0:0:0:0:
156,200,172546,2,0,P|104:196|56:164,1,100,0|8,0:0|0:0,0:0:0:0:
28,56,172819,1,0,0:0:0:0:
148,48,172955,1,8,0:0:0:0:
232,136,173092,2,2,P|292:216|392:232,1,200,2|0,0:0|0:0,0:0:0:0:
472,148,173501,5,8,0:0:0:0:
496,264,173637,1,0,0:0:0:0:
472,148,173773,1,8,0:0:0:0:
453,101,173842,1,0,0:0:0:0:
421,63,173910,1,0,0:0:0:0:
379,37,173978,1,0,0:0:0:0:
330,25,174046,1,8,0:0:0:0:
281,30,174114,1,0,0:0:0:0:
235,49,174183,1,0,0:0:0:0:
144,128,174319,1,8,0:0:0:0:
32,88,174455,5,0,0:0:0:0:
228,340,174592,1,8,0:0:0:0:
245,293,174660,1,0,0:0:0:0:
283,262,174728,1,0,0:0:0:0:
332,255,174796,1,0,0:0:0:0:
377,274,174864,1,8,0:0:0:0:
496,260,175001,2,0,L|496:152,1,100,0|8,0:0|0:0,0:0:0:0:
388,112,175273,2,2,P|320:180|224:168,1,200,2|0,0:0|0:0,0:0:0:0:
108,204,175683,5,8,0:0:0:0:
116,84,175819,2,0,P|152:44|208:36,1,100,0|8,0:0|0:0,0:0:0:0:
292,108,176092,1,0,0:0:0:0:
376,24,176228,1,8,0:0:0:0:
376,24,176296,1,0,0:0:0:0:
376,24,176364,1,0,0:0:0:0:
480,80,176501,1,8,0:0:0:0:
432,188,176637,1,0,0:0:0:0:
160,312,176773,6,0,P|184:264|176:216,1,100,8|0,0:0|0:0,0:0:0:0:
76,156,177046,1,8,0:0:0:0:
156,68,177183,1,0,0:0:0:0:
156,68,177251,1,0,0:0:0:0:
156,68,177319,1,8,0:0:0:0:
276,84,177455,2,2,P|352:132|356:244,1,200
268,312,177864,1,8,0:0:0:0:
239,271,177933,1,0,0:0:0:0:
195,247,178001,1,0,0:0:0:0:
146,245,178069,1,0,0:0:0:0:
100,264,178137,5,8,0:0:0:0:
411,264,178273,1,8,0:0:0:0:
100,119,178410,1,8,0:0:0:0:
411,119,178546,1,8,0:0:0:0:
