osu file format v13

[General]
AudioFilename: kano.mp3
AudioLeadIn: 0
PreviewTime: 419983
Countdown: 0
SampleSet: None
StackLeniency: 0.7
Mode: 0
LetterboxInBreaks: 1
WidescreenStoryboard: 1

[Editor]
DistanceSpacing: 1.2
BeatDivisor: 4
GridSize: 4
TimelineZoom: 1

[Metadata]
Title:Kano Medley
TitleUnicode:鹿乃メドレー
Artist:Kano
ArtistUnicode:鹿乃
Creator:Lalarun
Version:Unhappy
Source:
Tags:
BeatmapID:522603
BeatmapSetID:223778

[Difficulty]
HPDrainRate:5
CircleSize:4
OverallDifficulty:5
ApproachRate:9
SliderMultiplier:1.9
SliderTickRate:1

[Events]
//Background and Video events
0,0,"kano.png",0,0
//Break Periods
2,354915,361139
//Storyboard Layer 0 (Background)
//Storyboard Layer 1 (Fail)
//Storyboard Layer 2 (Pass)
//Storyboard Layer 3 (Foreground)
//Storyboard Sound Samples
//Background Colour Transformations
3,100,163,162,255

[TimingPoints]
396,357.142857142857,4,1,0,100,1,0
5984,-100,4,1,0,60,0,0
60568,-100,4,1,0,60,0,0
76208,389.61038961039,4,1,0,100,1,0
149881,-100,4,1,0,40,0,0
150111,-100,4,1,0,30,0,0
150342,-100,4,1,0,20,0,0
150573,-100,4,1,0,5,0,0
157415,230.769230769231,4,1,0,5,1,0
210781,-100,4,1,0,30,0,0
260700,322.58064516129,4,1,0,30,1,0
326618,292.682926829268,4,1,1,70,1,0
335764,-100,4,1,1,60,0,0
354642,-100,4,1,1,20,0,0
361666,-100,4,1,1,60,0,0
438935,-100,4,1,1,40,0,0
446616,230.769230769231,4,1,0,70,1,0
528240,206.896551724138,4,1,0,60,1,0

[Colours]
Combo1 : 255,255,17
Combo2 : 255,89,172
Combo3 : 113,225,0

[HitObjects]
272,96,335837,6,0,L|348:84|424:72,1,142.5,4|0,0:0|0:0,0:0:0:0:
472,48,336130,2,0,P|464:104|456:164,1,95
436,244,336422,1,0,0:0:0:0:
364,320,336569,1,0,0:0:0:0:
268,276,336715,1,2,0:0:0:0:
268,276,337008,6,0,P|176:256|100:236,1,142.5
84,284,337300,2,0,P|68:208|56:152,1,95
36,88,337593,1,0,0:0:0:0:
140,104,337739,1,0,0:0:0:0:
220,36,337886,1,2,0:0:0:0:
220,36,338178,6,0,P|248:80|280:128,1,95
392,120,338471,2,0,P|364:164|332:212,1,95
416,300,338764,2,0,P|364:306|306:313,2,95,0|0|2,0:0|0:0|0:0,0:0:0:0:
392,120,339349,5,0,0:0:0:0:
308,72,339496,1,0,0:0:0:0:
220,36,339642,2,0,P|164:48|104:64,1,95
284,164,339935,2,0,P|228:152|168:136,2,95,0|0|2,0:0|0:0|0:0,0:0:0:0:
92,148,340520,5,0,0:0:0:0:
136,284,340666,2,0,P|208:268|260:256,1,95
284,164,340959,1,0,0:0:0:0:
412,228,341105,2,0,P|392:300|376:352,2,95,0|0|2,0:0|0:0|0:0,0:0:0:0:
412,228,341691,6,0,P|432:156|448:104,1,95,0|0,0:0|0:0,0:0:0:0:
312,68,341983,2,0,P|384:48|436:32,1,95,0|0,0:0|0:0,0:0:0:0:
284,164,342276,1,0,0:0:0:0:
412,228,342422,1,0,0:0:0:0:
332,348,342569,1,2,0:0:0:0:
48,336,342861,6,0,L|112:320|160:308,1,95
332,348,343154,2,0,L|268:332|220:320,1,95
196,232,343447,1,0,0:0:0:0:
148,140,343593,1,0,0:0:0:0:
68,76,343739,1,2,0:0:0:0:
68,76,344032,6,0,P|180:40|240:20,1,142.5
264,16,344325,2,0,P|248:64|232:116,1,95
148,140,344618,1,0,0:0:0:0:
196,232,344764,1,0,0:0:0:0:
332,348,344910,1,2,0:0:0:0:
476,40,345349,5,4,0:0:0:0:
256,192,345422,12,2,354715,0:0:0:0:
28,48,361739,5,0,0:0:0:0:
52,128,362325,1,0,0:0:0:0:
80,212,362910,2,0,P|156:200|252:184,1,142.5,2|0,0:0|0:0,0:0:0:0:
272,236,363203,2,0,P|348:224|444:208,1,142.5,2|0,0:0|0:0,0:0:0:0:
440,324,363496,2,0,P|364:312|268:296,1,142.5,2|0,0:0|0:0,0:0:0:0:
248,348,363788,2,0,P|172:336|76:320,1,142.5,2|0,0:0|0:0,0:0:0:0:
40,312,364081,5,4,0:0:0:0:
144,88,364374,1,2,0:0:0:0:
40,312,364666,2,0,P|96:304|176:292,1,95
196,216,364959,1,2,0:0:0:0:
292,172,365105,6,0,P|340:260|400:356,1,190
420,184,365544,2,0,P|444:224|484:288,1,95,2|0,0:0|0:0,0:0:0:0:
468,88,365837,1,0,0:0:0:0:
372,48,365983,1,0,0:0:0:0:
372,48,366057,1,0,0:0:0:0:
372,48,366130,1,2,0:0:0:0:
292,172,366276,1,0,0:0:0:0:
268,72,366422,6,0,P|212:68|128:60,1,95
72,36,366715,1,2,0:0:0:0:
44,136,366861,2,0,P|184:188|264:216,1,190
328,204,367300,1,2,0:0:0:0:
392,288,367447,2,0,P|244:312|160:324,1,190,0|0,0:0|0:0,0:0:0:0:
24,304,367886,2,0,P|76:284|120:264,1,95,2|0,0:0|0:0,0:0:0:0:
84,200,368105,1,0,0:0:0:0:
44,136,368178,2,0,P|184:188|264:216,1,190,0|2,0:0|0:0,0:0:0:0:
472,340,368764,5,0,0:0:0:0:
192,276,369057,1,2,0:0:0:0:
472,228,369349,2,0,P|396:240|348:248,1,95
192,276,369642,1,2,0:0:0:0:
228,180,369788,6,0,P|320:148|416:116,1,190
472,340,370227,2,0,P|396:328|348:320,1,95,2|0,0:0|0:0,0:0:0:0:
192,276,370520,1,0,0:0:0:0:
100,324,370666,1,0,0:0:0:0:
100,324,370739,1,0,0:0:0:0:
100,324,370813,1,2,0:0:0:0:
44,192,370959,1,0,0:0:0:0:
112,48,371105,6,0,P|132:108|160:188,1,142.5
228,180,371398,1,2,0:0:0:0:
292,52,371544,2,0,P|372:40|420:32,1,95
464,108,371837,1,0,0:0:0:0:
464,108,371983,1,2,0:0:0:0:
512,256,372130,6,0,P|420:236|324:212,1,190
228,180,372569,1,2,0:0:0:0:
156,56,372715,1,0,0:0:0:0:
156,56,372788,1,0,0:0:0:0:
156,56,372861,2,0,P|80:64|20:72,1,95
56,236,373154,2,0,P|109:181|149:136,1,95,2|0,0:0|0:0,0:0:0:0:
228,180,373447,5,4,0:0:0:0:
264,300,373593,2,0,P|192:280|140:264,1,95,0|2,0:0|0:0,0:0:0:0:
360,344,373886,2,0,P|456:328|520:316,1,142.5
472,252,374178,1,0,0:0:0:0:
416,132,374325,2,0,P|388:192|364:244,1,95,2|0,0:0|0:0,0:0:0:0:
360,344,374617,1,0,0:0:0:0:
264,300,374764,2,0,P|164:244|80:196,1,190
40,296,375203,5,0,0:0:0:0:
264,300,375349,1,0,0:0:0:0:
416,132,375496,1,2,0:0:0:0:
416,132,375788,6,0,P|428:64|436:12,1,95,4|0,0:0|0:0,0:0:0:0:
328,52,376081,1,2,0:0:0:0:
312,156,376227,2,0,P|220:120|124:80,1,190
40,36,376666,1,2,0:0:0:0:
36,228,376813,2,0,P|82:210|130:189,1,95
200,320,377105,2,0,P|230:280|261:239,1,95,0|2,0:0|0:0,0:0:0:0:
312,156,377398,1,0,0:0:0:0:
420,344,377544,2,0,P|431:245|441:142,1,190,0|2,0:0|0:0,0:0:0:0:
448,52,377983,1,0,0:0:0:0:
312,156,378130,5,4,0:0:0:0:
236,84,378276,1,0,0:0:0:0:
236,84,378349,1,0,0:0:0:0:
236,84,378422,1,2,0:0:0:0:
52,136,378569,1,0,0:0:0:0:
132,68,378715,5,0,0:0:0:0:
212,188,378861,1,0,0:0:0:0:
76,240,379008,1,2,0:0:0:0:
236,84,379154,6,0,L|336:64|436:44,1,190,0|0,0:0|0:0,0:0:0:0:
364,160,379593,2,0,P|436:144|492:132,1,95,2|0,0:0|0:0,0:0:0:0:
464,244,379886,1,0,0:0:0:0:
368,348,380032,1,0,0:0:0:0:
368,348,380105,1,0,0:0:0:0:
368,348,380178,1,2,0:0:0:0:
316,256,380325,5,0,0:0:0:0:
240,324,380471,2,0,L|152:308|108:300,1,95
48,344,380764,1,2,0:0:0:0:
28,240,380910,2,0,P|128:204|236:168,1,190
140,96,381349,1,2,0:0:0:0:
224,32,381496,2,0,P|327:56|437:84,1,190
468,164,381935,1,2,0:0:0:0:
468,164,382081,1,0,0:0:0:0:
460,352,382227,6,0,L|440:292|416:220,1,95,4|0,0:0|0:0,0:0:0:0:
300,284,382520,2,0,L|320:224|344:152,1,95,6|0,0:0|0:0,0:0:0:0:
468,164,382813,5,4,0:0:0:0:
224,32,383105,1,2,0:0:0:0:
468,164,383398,2,0,L|448:104|424:32,1,95
224,32,383691,1,2,0:0:0:0:
100,104,383837,2,0,P|200:140|308:176,1,190
468,164,384276,1,2,0:0:0:0:
468,164,384422,1,0,0:0:0:0:
412,252,384569,6,0,L|428:316|440:364,1,95
484,324,384788,1,0,0:0:0:0:
484,324,384861,1,2,0:0:0:0:
304,260,385008,1,0,0:0:0:0:
224,324,385154,6,0,P|172:316|100:304,1,95
32,348,385447,1,2,0:0:0:0:
212,172,385593,2,0,L|108:208|4:244,1,190
32,348,386032,1,2,0:0:0:0:
224,324,386178,5,0,0:0:0:0:
212,172,386325,1,0,0:0:0:0:
60,156,386471,1,0,0:0:0:0:
32,348,386617,6,0,P|160:272|224:232,1,190,2|0,0:0|0:0,0:0:0:0:
60,156,387057,1,0,0:0:0:0:
88,56,387203,2,0,P|140:64|212:76,1,95,2|0,0:0|0:0,0:0:0:0:
212,172,387496,5,0,0:0:0:0:
468,44,387788,1,2,0:0:0:0:
212,172,388081,2,0,P|292:140|340:120,1,95
468,44,388374,1,2,0:0:0:0:
472,268,388520,2,0,P|376:261|269:248,1,190
212,172,388959,1,2,0:0:0:0:
212,172,389105,1,0,0:0:0:0:
476,140,389252,2,0,P|416:136|348:128,1,95
244,76,389544,2,0,P|292:56|360:32,1,95,2|0,0:0|0:0,0:0:0:0:
212,172,389837,5,0,0:0:0:0:
104,328,389983,1,0,0:0:0:0:
52,144,390130,1,2,0:0:0:0:
212,172,390276,2,0,P|144:212|96:240,1,95
72,40,390569,5,0,0:0:0:0:
72,40,390715,1,2,0:0:0:0:
212,172,390861,2,0,P|309:115|376:75,1,190
468,244,391300,2,0,P|371:187|304:147,1,190,2|0,0:0|0:0,0:0:0:0:
200,308,391739,2,0,P|248:279|282:259,1,95,0|2,0:0|0:0,0:0:0:0:
468,244,392032,1,0,0:0:0:0:
412,332,392178,6,0,P|292:324|228:316,1,142.5,4|0,0:0|0:0,0:0:0:0:
200,308,392471,1,2,0:0:0:0:
60,336,392617,1,0,0:0:0:0:
60,336,392764,1,0,0:0:0:0:
116,248,392910,1,0,0:0:0:0:
60,160,393057,6,0,L|52:92|44:24,1,95,2|0,0:0|0:0,0:0:0:0:
116,248,393349,1,0,0:0:0:0:
176,164,393496,2,0,L|168:96|160:28,1,95,0|2,0:0|0:0,0:0:0:0:
200,308,393788,1,0,0:0:0:0:
264,224,393935,2,0,B|324:240|392:244|464:264,1,190,0|2,0:0|0:0,0:0:0:0:
368,104,394374,5,0,0:0:0:0:
368,104,394447,1,0,0:0:0:0:
368,104,394520,2,0,P|316:112|248:124,1,95,4|0,0:0|0:0,0:0:0:0:
264,224,394813,1,2,0:0:0:0:
184,60,394959,2,0,P|132:52|36:36,1,142.5
36,104,395252,2,0,P|48:156|72:240,1,95,0|2,0:0|0:0,0:0:0:0:
264,224,395544,2,0,P|252:276|228:360,1,95
36,308,395837,6,0,P|132:296|220:284,1,142.5
241,316,396130,1,0,0:0:0:0:
340,276,396276,5,0,0:0:0:0:
464,344,396422,1,0,0:0:0:0:
440,156,396569,1,2,0:0:0:0:
264,224,396715,1,0,0:0:0:0:
241,316,396861,5,4,0:0:0:0:
36,308,397008,1,0,0:0:0:0:
36,308,397081,1,0,0:0:0:0:
36,308,397154,2,0,L|100:284|164:260,1,95,2|0,0:0|0:0,0:0:0:0:
44,156,397447,2,0,L|111:168|178:180,1,95
264,224,397739,1,2,0:0:0:0:
340,100,397886,6,0,B|280:84|212:80|140:60,1,190
44,156,398325,1,2,0:0:0:0:
44,156,398471,1,0,0:0:0:0:
264,224,398617,2,0,B|294:216|328:214|364:204,1,95
496,340,398910,6,0,B|454:328|406:326|356:312,1,142.5,2|0,0:0|0:0,0:0:0:0:
292,324,399203,2,0,B|262:332|228:334|192:344,1,95
264,224,399496,1,2,0:0:0:0:
168,132,399642,2,0,B|228:116|296:112|368:92,1,190
264,224,400081,1,2,0:0:0:0:
192,300,400227,2,0,B|132:284|64:280|-8:260,1,190
24,120,400666,1,2,0:0:0:0:
24,120,400813,1,0,0:0:0:0:
168,132,400959,5,4,0:0:0:0:
176,184,401032,1,0,0:0:0:0:
212,224,401105,1,0,0:0:0:0:
264,224,401178,1,0,0:0:0:0:
308,196,401252,1,0,0:0:0:0:
360,188,401325,1,0,0:0:0:0:
412,188,401398,1,0,0:0:0:0:
464,196,401471,1,0,0:0:0:0:
432,256,401544,5,6,0:0:0:0:
424,72,401837,6,0,L|376:80|328:88,1,95,0|2,0:0|0:0,0:0:0:0:
432,256,402276,1,2,0:0:0:0:
360,332,402422,2,0,L|312:324|264:316,1,95,2|0,0:0|0:0,0:0:0:0:
168,352,402715,1,2,0:0:0:0:
424,72,403008,6,0,L|376:80|328:88,1,95,0|2,0:0|0:0,0:0:0:0:
168,352,403447,1,0,0:0:0:0:
156,248,403593,6,0,P|96:264|40:280,1,95
232,152,403886,2,0,P|170:145|112:140,1,95,6|0,0:0|0:0,0:0:0:0:
36,168,404178,1,0,0:0:0:0:
36,168,404325,1,0,0:0:0:0:
348,92,404471,2,0,P|293:61|242:34,1,95,2|0,0:0|0:0,0:0:0:0:
36,168,404764,6,0,P|90:137|141:110,1,95
232,152,405057,1,2,0:0:0:0:
232,152,405203,1,0,0:0:0:0:
348,92,405349,2,0,P|336:192|328:260,1,142.5
268,212,405642,2,0,P|284:284|356:296,1,142.5,2|0,0:0|0:0,0:0:0:0:
396,260,405935,2,0,P|410:143|419:63,1,190,2|6,0:0|0:0,0:0:0:0:
48,36,406520,6,0,P|41:94|36:134,1,95,0|2,0:0|0:0,0:0:0:0:
396,260,406959,1,0,0:0:0:0:
324,188,407105,2,0,P|280:236|228:288,1,95,2|0,0:0|0:0,0:0:0:0:
172,196,407398,2,0,P|114:258|47:326,1,142.5,2|0,0:0|0:0,0:0:0:0:
40,236,407691,1,0,0:0:0:0:
84,100,407837,2,0,P|188:84|308:60,1,190,2|0,0:0|0:0,0:0:0:0:
396,260,408276,6,0,P|336:248|264:232,1,95
440,164,408569,2,0,P|380:152|308:136,1,95,6|0,0:0|0:0,0:0:0:0:
284,344,408861,2,0,P|224:332|152:316,1,95,0|0,0:0|0:0,0:0:0:0:
164,184,409154,2,0,P|100:264|28:348,1,190,2|0,0:0|0:0,0:0:0:0:
276,224,409593,1,0,0:0:0:0:
248,124,409739,6,0,P|260:64|276:-8,1,95,2|0,0:0|0:0,0:0:0:0:
164,184,410032,1,0,0:0:0:0:
276,224,410178,2,0,P|356:160|440:88,1,190,0|0,0:0|0:0,0:0:0:0:
336,348,410617,2,0,P|382:290|433:229,1,142.5
472,292,410910,2,0,B|436:336|436:336|384:348|292:312|208:336,1,285,6|2,0:0|0:0,0:0:0:0:
36,36,411642,5,0,0:0:0:0:
136,64,411788,2,0,P|212:56|276:48,1,95,2|0,0:0|0:0,0:0:0:0:
260,180,412081,2,0,P|322:122|390:55,1,142.5,2|0,0:0|0:0,0:0:0:0:
300,48,412374,1,0,0:0:0:0:
136,64,412520,2,0,P|144:168|156:284,1,190,2|0,0:0|0:0,0:0:0:0:
252,288,412959,5,2,0:0:0:0:
340,344,413105,1,0,0:0:0:0:
436,300,413252,2,0,P|404:252|380:212,1,95,6|0,0:0|0:0,0:0:0:0:
464,48,413544,5,0,0:0:0:0:
384,116,413691,1,0,0:0:0:0:
284,92,413837,2,0,P|256:136|224:188,1,95,2|0,0:0|0:0,0:0:0:0:
32,36,414130,5,0,0:0:0:0:
124,88,414276,1,0,0:0:0:0:
128,192,414422,2,0,P|108:292|96:348,1,142.5,2|0,0:0|0:0,0:0:0:0:
36,296,414715,1,0,0:0:0:0:
124,88,414861,1,0,0:0:0:0:
228,232,415008,2,0,P|214:299|206:337,1,95,2|0,0:0|0:0,0:0:0:0:
128,192,415300,5,0,0:0:0:0:
244,108,415447,1,0,0:0:0:0:
244,108,415520,1,0,0:0:0:0:
244,108,415593,2,0,P|332:144|384:164,1,142.5,6|0,0:0|0:0,0:0:0:0:
424,108,415886,1,0,0:0:0:0:
332,260,416032,1,0,0:0:0:0:
332,260,416105,1,0,0:0:0:0:
332,260,416178,2,0,P|420:296|472:316,1,142.5,2|0,0:0|0:0,0:0:0:0:
328,328,416471,6,0,B|276:316|236:312|188:300,1,142.5
60,252,416764,2,0,B|112:240|152:236|200:224,1,142.5,6|0,0:0|0:0,0:0:0:0:
328,176,417057,2,0,B|276:164|236:160|188:148,1,142.5
60,100,417349,2,0,B|112:88|152:84|200:72,1,142.5,2|0,0:0|0:0,0:0:0:0:
24,36,417642,1,0,0:0:0:0:
328,176,417935,5,6,0:0:0:0:
60,252,418227,1,2,0:0:0:0:
328,328,418520,1,2,0:0:0:0:
400,252,418666,1,2,0:0:0:0:
60,252,418959,5,2,0:0:0:0:
364,24,419252,5,2,0:0:0:0:
264,80,419398,1,2,0:0:0:0:
156,120,419544,1,2,0:0:0:0:
44,156,419691,1,2,0:0:0:0:
44,156,419983,6,0,P|148:124|228:92,1,190,0|4,0:0|0:0,0:0:0:0:
352,32,420422,1,0,0:0:0:0:
420,156,420569,2,0,L|320:144,1,95,8|0,0:0|0:0,0:0:0:0:
84,300,420861,2,0,L|184:288,1,95,0|0,0:0|0:0,0:0:0:0:
420,156,421154,1,8,0:0:0:0:
420,156,421300,1,0,0:0:0:0:
352,32,421447,2,0,L|252:44,1,95
116,60,421739,6,0,P|148:164|180:244,1,190,8|0,0:0|0:0,0:0:0:0:
264,124,422178,1,0,0:0:0:0:
116,60,422325,2,0,P|60:40|8:24,1,95,8|0,0:0|0:0,0:0:0:0:
0,192,422617,1,0,0:0:0:0:
264,124,422764,5,0,0:0:0:0:
264,124,422837,1,0,0:0:0:0:
264,124,422910,1,8,0:0:0:0:
180,348,423057,5,0,0:0:0:0:
180,348,423130,1,0,0:0:0:0:
180,348,423203,1,0,0:0:0:0:
116,60,423349,6,0,P|128:124|140:180,1,95,0|8,0:0|0:0,0:0:0:0:
180,348,423642,2,0,P|216:212|232:136,1,190
24,312,424081,2,0,P|72:280|116:252,1,95,8|0,0:0|0:0,0:0:0:0:
388,308,424374,2,0,P|330:314|278:321,1,95
464,240,424666,1,8,0:0:0:0:
464,240,424813,1,0,0:0:0:0:
476,52,424959,6,0,P|418:45|366:38,1,95
192,24,425252,2,0,P|198:81|205:133,1,95,8|0,0:0|0:0,0:0:0:0:
392,136,425544,6,0,P|334:129|282:122,1,95
12,104,425837,2,0,P|69:97|121:90,1,95,8|0,0:0|0:0,0:0:0:0:
476,52,426130,1,0,0:0:0:0:
476,52,426276,1,0,0:0:0:0:
464,240,426422,6,0,P|344:224|276:212,1,190,8|0,0:0|0:0,0:0:0:0:
180,104,426861,1,0,0:0:0:0:
84,212,427008,2,0,P|100:268|116:312,1,95,8|0,0:0|0:0,0:0:0:0:
464,240,427300,1,0,0:0:0:0:
180,104,427447,5,0,0:0:0:0:
180,104,427520,1,0,0:0:0:0:
180,104,427593,1,8,0:0:0:0:
236,356,427739,5,0,0:0:0:0:
236,356,427813,1,0,0:0:0:0:
236,356,427886,1,0,0:0:0:0:
464,240,428032,6,0,P|403:231|369:226,1,95,0|8,0:0|0:0,0:0:0:0:
180,104,428325,2,0,P|300:80|384:60,1,190
92,40,428764,2,0,L|84:136,1,95,8|0,0:0|0:0,0:0:0:0:
272,272,429057,2,0,L|264:176,1,95,8|0,0:0|0:0,0:0:0:0:
92,40,429349,5,8,0:0:0:0:
92,40,429496,1,0,0:0:0:0:
36,348,429642,2,0,P|64:304|92:252,1,95,4|0,0:0|0:0,0:0:0:0:
180,104,429935,2,0,P|204:148|236:200,1,95,8|0,0:0|0:0,0:0:0:0:
388,300,430227,5,0,0:0:0:0:
368,40,430374,2,0,P|340:156|320:224,1,190
36,348,430813,1,0,0:0:0:0:
36,348,430959,1,0,0:0:0:0:
48,156,431105,2,0,P|72:224|92:272,1,95,8|0,0:0|0:0,0:0:0:0:
80,56,431398,1,0,0:0:0:0:
80,56,431544,1,0,0:0:0:0:
220,48,431691,2,0,P|200:96|180:140,1,95,8|0,0:0|0:0,0:0:0:0:
36,348,431983,1,0,0:0:0:0:
80,56,432130,5,0,0:0:0:0:
80,56,432203,1,0,0:0:0:0:
80,56,432276,1,8,0:0:0:0:
412,260,432422,5,0,0:0:0:0:
412,260,432496,1,0,0:0:0:0:
412,260,432569,1,0,0:0:0:0:
36,348,432715,6,0,P|80:320|116:296,1,95,0|8,0:0|0:0,0:0:0:0:
280,196,433008,2,0,P|144:176|76:168,1,190
36,348,433447,1,8,0:0:0:0:
36,348,433593,1,0,0:0:0:0:
412,260,433739,2,0,P|392:204|376:164,1,95
28,48,434032,2,0,P|84:68|124:84,1,95,8|0,0:0|0:0,0:0:0:0:
468,44,434325,5,4,0:0:0:0:
328,68,434471,2,0,P|268:64|204:60,1,95,0|8,0:0|0:0,0:0:0:0:
28,48,434764,1,0,0:0:0:0:
28,48,434910,1,0,0:0:0:0:
40,192,435057,2,0,B|100:176|168:172|240:152,1,190
468,44,435496,5,0,0:0:0:0:
468,44,435642,1,0,0:0:0:0:
28,48,435788,2,0,B|88:32|156:28|228:8,1,190,8|0,0:0|0:0,0:0:0:0:
468,44,436227,1,0,0:0:0:0:
468,44,436300,1,0,0:0:0:0:
468,44,436374,1,8,0:0:0:0:
332,192,436520,5,0,0:0:0:0:
40,192,436666,2,0,B|100:176|168:172|240:152,1,190,0|8,0:0|0:0,0:0:0:0:
480,344,437105,1,0,0:0:0:0:
480,344,437252,2,0,B|450:336|416:334|380:324,1,95
332,192,437544,1,8,0:0:0:0:
448,108,437691,2,0,L|368:88|256:60,1,190
40,192,438130,2,0,P|100:180|156:168,1,95,8|0,0:0|0:0,0:0:0:0:
412,320,438422,5,12,0:0:0:0:
360,316,438496,1,0,0:0:0:0:
308,304,438569,1,0,0:0:0:0:
264,276,438642,1,0,0:0:0:0:
244,228,438715,1,8,0:0:0:0:
228,180,438788,1,0,0:0:0:0:
224,128,438861,1,0,0:0:0:0:
232,76,438935,1,0,0:0:0:0:
204,32,439008,6,0,P|144:44|88:56,1,95,2|0,0:0|0:0,0:0:0:0:
40,192,439300,2,0,P|100:204|156:216,1,95,0|0,0:0|0:0,0:0:0:0:
164,308,439593,1,2,0:0:0:0:
412,320,440032,6,0,P|400:260|388:204,1,95,0|2,0:0|0:0,0:0:0:0:
452,140,440325,1,0,0:0:0:0:
376,68,440471,2,0,P|312:156|256:224,1,190,0|2,0:0|0:0,0:0:0:0:
164,308,441203,6,0,P|152:248|140:192,1,95,0|2,0:0|0:0,0:0:0:0:
36,56,441496,2,0,P|48:116|60:172,1,95,0|0,0:0|0:0,0:0:0:0:
152,112,441788,1,0,0:0:0:0:
256,92,441935,2,0,P|316:104|372:116,1,95,2|0,0:0|0:0,0:0:0:0:
364,124,442374,5,0,0:0:0:0:
468,124,442520,2,0,P|456:184|444:240,1,95,2|0,0:0|0:0,0:0:0:0:
376,340,442813,1,0,0:0:0:0:
256,260,442959,2,0,P|316:248|372:236,1,95,2|0,0:0|0:0,0:0:0:0:
364,124,443691,5,4,0:0:0:0:
