osu file format v13

[General]
AudioFilename: kano.mp3
AudioLeadIn: 0
PreviewTime: 47628
Countdown: 0
SampleSet: None
StackLeniency: 0.7
Mode: 0
LetterboxInBreaks: 1
WidescreenStoryboard: 1

[Editor]
DistanceSpacing: 1.5
BeatDivisor: 4
GridSize: 4
TimelineZoom: 1

[Metadata]
Title:Kano Medley
TitleUnicode:鹿乃メドレー的な何か。
Artist:Kano
ArtistUnicode:鹿乃
Creator:Lalarun
Version:Mush
Source:
Tags:
BeatmapID:522602
BeatmapSetID:223778

[Difficulty]
HPDrainRate:5
CircleSize:4
OverallDifficulty:5
ApproachRate:9
SliderMultiplier:1.9
SliderTickRate:1

[Events]
//Background and Video events
0,0,"kano.png",0,0
//Break Periods
//Storyboard Layer 0 (Background)
//Storyboard Layer 1 (Fail)
//Storyboard Layer 2 (Pass)
//Storyboard Layer 3 (Foreground)
//Storyboard Sound Samples
//Background Colour Transformations
3,100,163,162,255

[TimingPoints]
396,357.142857142857,4,1,0,100,1,0
5984,-100,4,1,0,60,0,0
60568,-100,4,1,0,60,0,0
76204,389.61038961039,4,1,0,60,1,0
149881,-100,4,1,0,40,0,0
150111,-100,4,1,0,30,0,0
150342,-100,4,1,0,20,0,0
150573,-100,4,1,0,5,0,0
157415,230.769230769231,4,1,0,5,1,0
210781,-100,4,1,0,30,0,0
260700,322.58064516129,4,1,0,30,1,0
326618,292.682926829268,4,1,1,70,1,0
335764,-100,4,1,1,60,0,0
354642,-100,4,1,1,20,0,0
361666,-100,4,1,1,60,0,0
438935,-100,4,1,1,40,0,0
446616,230.769230769231,4,1,0,70,1,0
528240,206.896551724138,4,1,0,60,1,0

[Colours]
Combo1 : 255,255,17
Combo2 : 255,89,172
Combo3 : 113,225,0

[HitObjects]
56,312,47717,5,0,0:0:0:0:
60,180,47895,2,0,P|160:192|200:200,1,142.5
236,256,48253,1,0,0:0:0:0:
256,264,48610,6,0,P|356:252|396:244,1,142.5
436,184,48967,1,0,0:0:0:0:
448,168,49324,6,0,P|348:156|308:148,1,142.5,0|0,0:0|0:0,0:0:0:0:
344,64,49681,2,0,P|288:64|244:68,1,95
180,88,49949,1,0,0:0:0:0:
128,136,50038,1,0,0:0:0:0:
268,160,50217,1,0,0:0:0:0:
132,208,50395,2,0,P|76:208|32:204,1,95
168,264,50753,2,0,P|220:244|260:226,1,95
268,160,51020,1,0,0:0:0:0:
248,92,51110,1,0,0:0:0:0:
108,68,51288,6,0,P|260:48|304:40,1,190
368,52,51735,2,0,L|352:96,1,47.5
328,236,52003,1,0,0:0:0:0:
364,296,52092,1,0,0:0:0:0:
424,332,52181,1,0,0:0:0:0:
380,196,52360,1,0,0:0:0:0:
284,304,52538,6,0,P|192:260|164:244,1,95
208,192,52806,1,0,0:0:0:0:
56,344,53074,2,0,P|76:252|84:204,1,142.5
32,140,53431,6,0,P|72:112|120:80,1,95
248,120,53788,2,0,P|276:80|308:32,1,95,0|0,0:0|0:0,0:0:0:0:
384,296,54145,2,0,P|408:200|428:104,1,190
340,144,54592,2,0,L|304:180,1,47.5
200,272,54860,6,0,L|300:260,1,95
176,180,55217,1,0,0:0:0:0:
176,180,55306,1,0,0:0:0:0:
176,180,55395,2,0,P|104:112|48:52,1,142.5
32,152,55753,2,0,L|28:200|24:248,1,95
176,180,56110,5,0,0:0:0:0:
336,76,56288,1,0,0:0:0:0:
448,228,56467,1,0,0:0:0:0:
288,332,56645,1,0,0:0:0:0:
176,180,56824,6,0,P|248:112|304:52,1,142.5
320,152,57181,2,0,L|324:200|328:248,1,95
440,336,57538,1,0,0:0:0:0:
420,196,57717,1,0,0:0:0:0:
420,196,57806,1,0,0:0:0:0:
420,196,57895,1,0,0:0:0:0:
288,332,58074,1,0,0:0:0:0:
272,188,58253,6,0,L|224:200|136:220,1,95
36,348,58610,2,0,L|48:300|68:212,1,95
108,204,58878,2,0,L|84:152,1,47.5
76,56,59145,1,0,0:0:0:0:
148,56,59235,1,0,0:0:0:0:
220,56,59324,1,0,0:0:0:0:
292,56,59413,1,0,0:0:0:0:
364,56,59503,1,0,0:0:0:0:
432,56,59592,1,0,0:0:0:0:
504,56,59681,6,0,P|484:172|472:236,1,142.5
472,276,60038,2,0,P|416:252|384:236,1,95
328,104,60395,6,0,P|308:220|296:284,1,142.5
296,324,60753,2,0,P|240:300|208:284,1,95
208,140,61110,1,0,0:0:0:0:
48,68,61288,1,0,0:0:0:0:
48,68,61378,1,0,0:0:0:0:
48,68,61467,2,0,P|68:184|80:248,1,142.5
116,276,61824,2,0,P|152:232|180:192,1,95
208,140,62092,2,0,L|180:96,1,47.5
312,40,62360,1,0,0:0:0:0:
452,60,62538,6,0,P|436:108|420:152,1,95
512,280,62895,2,0,P|464:264|420:248,1,95
296,340,63253,2,0,P|312:292|328:248,1,95
236,124,63610,2,0,P|284:140|328:156,1,95
376,200,63878,1,0,0:0:0:0:
376,200,63967,1,0,0:0:0:0:
240,248,64145,5,0,0:0:0:0:
188,296,64235,1,0,0:0:0:0:
140,348,64324,1,0,0:0:0:0:
72,324,64413,1,0,0:0:0:0:
32,264,64503,2,0,P|40:180|44:144,1,95
20,100,64770,2,0,L|68:80,1,47.5
108,140,64949,1,0,0:0:0:0:
176,168,65038,1,0,0:0:0:0:
256,48,65217,1,0,0:0:0:0:
256,48,65306,1,0,0:0:0:0:
256,48,65395,6,0,P|276:164|288:228,1,142.5
288,268,65753,2,0,P|344:244|376:228,1,95
456,112,66110,1,0,0:0:0:0:
256,48,66288,1,0,0:0:0:0:
256,48,66378,1,0,0:0:0:0:
256,48,66467,2,0,P|244:96|228:156,1,95
152,312,66824,6,0,P|152:228|156:124,1,142.5
164,88,67181,2,0,L|116:80|68:72,1,95
28,192,67538,5,0,0:0:0:0:
76,264,67895,5,0,0:0:0:0:
152,312,68253,6,0,L|292:284,1,142.5
460,296,68610,2,0,L|353:317,1,95,0|0,0:0|0:0,0:0:0:0:
272,208,68967,6,0,L|378:186,1,95,0|0,0:0|0:0,0:0:0:0:
172,104,69503,6,0,L|278:82,1,95,0|0,0:0|0:0,0:0:0:0:
