osu file format v12

[General]
AudioFilename: houkago stride kano.mp3
AudioLeadIn: 500
PreviewTime: 86174
Countdown: 0
SampleSet: Normal
StackLeniency: 0.7
Mode: 1
LetterboxInBreaks: 0

[Editor]
DistanceSpacing: 1
BeatDivisor: 4
GridSize: 16

[Metadata]
Title:Houkago Stride (Short Ver.)
TitleUnicode:放課後ストライド (Short Ver.)
Artist:Kano
ArtistUnicode:鹿乃
Creator:Lundlerol
Version:Muzukashii
Source:
Tags:vocaloid vocaloid2 gumi Last Note.
BeatmapID:225249
BeatmapSetID:80983

[Difficulty]
HPDrainRate:4
CircleSize:4
OverallDifficulty:4
ApproachRate:5
SliderMultiplier:1.4
SliderTickRate:1

[Events]
//Background and Video events
0,0,"bg.jpg",0,90
//Break Periods
//Storyboard Layer 0 (Background)
//Storyboard Layer 1 (Fail)
//Storyboard Layer 2 (Pass)
//Storyboard Layer 3 (Foreground)
//Storyboard Sound Samples
//Background Colour Transformations
3,100,163,162,255

[TimingPoints]
1357,266.666666666667,4,1,0,75,1,0
86690,-100,4,1,0,85,0,1
109090,-100,4,1,0,85,0,0

[HitObjects]
256,192,1357,1,4,0:0:0:0:
256,192,3223,1,0,0:0:0:0:
256,192,3490,1,4,0:0:0:0:
256,192,5357,1,0,0:0:0:0:
256,192,5623,1,4,0:0:0:0:
256,192,7490,1,0,0:0:0:0:
256,192,7757,1,4,0:0:0:0:
256,192,8290,1,4,0:0:0:0:
256,192,8823,5,12,0:0:0:0:
256,192,9090,1,8,0:0:0:0:
256,192,9357,5,0,0:0:0:0:
256,192,9490,1,0,0:0:0:0:
256,192,9623,5,8,0:0:0:0:
256,192,9890,5,4,0:0:0:0:
256,192,10157,5,8,0:0:0:0:
256,192,10423,5,0,0:0:0:0:
256,192,10557,1,0,0:0:0:0:
256,192,10690,5,8,0:0:0:0:
256,192,10823,5,4,0:0:0:0:
256,192,11090,1,0,0:0:0:0:
256,192,11223,5,8,0:0:0:0:
256,192,11490,1,0,0:0:0:0:
256,192,11623,5,0,0:0:0:0:
256,192,11756,5,8,0:0:0:0:
256,192,11890,5,4,0:0:0:0:
256,192,12156,1,0,0:0:0:0:
256,192,12290,5,8,0:0:0:0:
256,192,12556,5,0,0:0:0:0:
256,192,12690,1,0,0:0:0:0:
256,192,12823,5,8,0:0:0:0:
256,192,12956,5,0,0:0:0:0:
256,192,13223,1,0,0:0:0:0:
256,192,13356,5,8,0:0:0:0:
256,192,13623,1,8,0:0:0:0:
256,192,13756,5,0,0:0:0:0:
256,192,13890,5,8,0:0:0:0:
256,192,14023,5,8,0:0:0:0:
256,192,14156,5,4,0:0:0:0:
256,192,14423,5,8,0:0:0:0:
256,192,14690,1,0,0:0:0:0:
256,192,14823,1,0,0:0:0:0:
256,192,14956,5,8,0:0:0:0:
256,192,15090,5,0,0:0:0:0:
256,192,15356,1,0,0:0:0:0:
256,192,15490,5,8,0:0:0:0:
256,192,15756,5,0,0:0:0:0:
256,192,15890,1,0,0:0:0:0:
256,192,16023,5,8,0:0:0:0:
256,192,16156,5,4,0:0:0:0:
256,192,16423,1,0,0:0:0:0:
256,192,16556,5,8,0:0:0:0:
256,192,16823,5,0,0:0:0:0:
256,192,16956,1,0,0:0:0:0:
256,192,17090,5,8,0:0:0:0:
256,192,17223,5,0,0:0:0:0:
256,192,17490,1,0,0:0:0:0:
256,192,17623,5,8,0:0:0:0:
256,192,17890,1,8,0:0:0:0:
256,192,18023,5,0,0:0:0:0:
256,192,18156,5,8,0:0:0:0:
256,192,18290,1,8,0:0:0:0:
256,192,18423,5,4,0:0:0:0:
256,192,18690,5,8,0:0:0:0:
256,192,18957,5,0,0:0:0:0:
256,192,19090,1,0,0:0:0:0:
256,192,19223,5,8,0:0:0:0:
256,192,19357,5,0,0:0:0:0:
256,192,19623,1,0,0:0:0:0:
256,192,19757,5,8,0:0:0:0:
256,192,20023,5,0,0:0:0:0:
256,192,20157,1,0,0:0:0:0:
256,192,20290,5,8,0:0:0:0:
256,192,20423,5,4,0:0:0:0:
256,192,20690,1,0,0:0:0:0:
256,192,20823,5,8,0:0:0:0:
256,192,21090,5,0,0:0:0:0:
256,192,21223,1,0,0:0:0:0:
256,192,21357,5,8,0:0:0:0:
256,192,21490,5,0,0:0:0:0:
256,192,21757,1,0,0:0:0:0:
256,192,21890,5,8,0:0:0:0:
256,192,22157,1,8,0:0:0:0:
256,192,22290,5,0,0:0:0:0:
256,192,22423,5,8,0:0:0:0:
256,192,22557,5,8,0:0:0:0:
256,192,22690,5,4,0:0:0:0:
256,192,22957,1,8,0:0:0:0:
256,192,23223,5,0,0:0:0:0:
256,192,23357,1,0,0:0:0:0:
256,192,23490,5,8,0:0:0:0:
256,192,23623,5,0,0:0:0:0:
256,192,23890,1,0,0:0:0:0:
256,192,24023,5,8,0:0:0:0:
256,192,24290,1,0,0:0:0:0:
256,192,24423,1,0,0:0:0:0:
256,192,24557,5,8,0:0:0:0:
256,192,24690,5,4,0:0:0:0:
256,192,24957,1,0,0:0:0:0:
256,192,25090,5,8,0:0:0:0:
256,192,25357,5,0,0:0:0:0:
256,192,25490,1,0,0:0:0:0:
256,192,25623,5,8,0:0:0:0:
256,192,25757,5,0,0:0:0:0:
256,192,26023,1,0,0:0:0:0:
256,192,26157,5,8,0:0:0:0:
256,192,26423,1,8,0:0:0:0:
256,192,26557,5,0,0:0:0:0:
256,192,26690,5,8,0:0:0:0:
256,192,26823,1,8,0:0:0:0:
256,192,26957,5,4,0:0:0:0:
256,192,27223,1,0,0:0:0:0:
256,192,27357,5,8,0:0:0:0:
256,192,27490,5,0,0:0:0:0:
256,192,27623,1,0,0:0:0:0:
256,192,27757,5,8,0:0:0:0:
256,192,28023,5,0,0:0:0:0:
256,192,28157,1,0,0:0:0:0:
256,192,28290,5,8,0:0:0:0:
256,192,28423,5,0,0:0:0:0:
256,192,28557,1,0,0:0:0:0:
256,192,28823,5,8,0:0:0:0:
256,192,29090,5,0,0:0:0:0:
256,192,29223,1,0,0:0:0:0:
256,192,29357,5,8,0:0:0:0:
256,192,29490,5,0,0:0:0:0:
256,192,29623,5,8,0:0:0:0:
256,192,29890,5,8,0:0:0:0:
256,192,30023,1,8,0:0:0:0:
256,192,30290,5,0,0:0:0:0:
256,192,30423,5,8,0:0:0:0:
256,192,30557,1,0,0:0:0:0:
256,192,30690,5,0,0:0:0:0:
256,192,30823,1,0,0:0:0:0:
256,192,30957,5,8,0:0:0:0:
256,192,31223,5,4,0:0:0:0:
256,192,31490,5,8,0:0:0:0:
256,192,31623,5,0,0:0:0:0:
256,192,31757,1,0,0:0:0:0:
256,192,31890,5,8,0:0:0:0:
256,192,32157,5,0,0:0:0:0:
256,192,32290,5,8,0:0:0:0:
256,192,32423,5,0,0:0:0:0:
256,192,32690,1,0,0:0:0:0:
256,192,32823,5,8,0:0:0:0:
256,192,33090,5,0,0:0:0:0:
256,192,33357,5,12,0:0:0:0:
256,192,33623,5,0,0:0:0:0:
256,192,33757,5,8,0:0:0:0:
256,192,34023,5,0,0:0:0:0:
256,192,34157,5,12,0:0:0:0:
256,192,34423,5,0,0:0:0:0:
256,192,34557,5,8,0:0:0:0:
256,192,34690,5,0,0:0:0:0:
256,192,34823,1,0,0:0:0:0:
256,192,34957,5,12,0:0:0:0:
256,192,35223,1,12,0:0:0:0:
256,192,35490,1,8,0:0:0:0:
256,192,35623,5,0,0:0:0:0:
256,192,35757,1,0,0:0:0:0:
256,192,35890,5,0,0:0:0:0:
256,192,36023,5,8,0:0:0:0:
256,192,36290,5,8,0:0:0:0:
256,192,36423,5,0,0:0:0:0:
256,192,36690,5,0,0:0:0:0:
256,192,36823,5,8,0:0:0:0:
256,192,36957,5,0,0:0:0:0:
256,192,37090,1,0,0:0:0:0:
256,192,37357,5,8,0:0:0:0:
256,192,37623,5,0,0:0:0:0:
256,192,37757,1,0,0:0:0:0:
256,192,37890,5,8,0:0:0:0:
256,192,38023,5,0,0:0:0:0:
256,192,38157,5,8,0:0:0:0:
256,192,38423,1,8,0:0:0:0:
256,192,38557,5,0,0:0:0:0:
256,192,38823,1,0,0:0:0:0:
256,192,38957,5,8,0:0:0:0:
256,192,39090,1,8,0:0:0:0:
256,192,39223,5,0,0:0:0:0:
256,192,39357,1,0,0:0:0:0:
256,192,39490,5,8,0:0:0:0:
256,192,39757,5,4,0:0:0:0:
256,192,40023,5,8,0:0:0:0:
256,192,40156,5,0,0:0:0:0:
256,192,40290,5,8,0:0:0:0:
256,192,40423,5,0,0:0:0:0:
256,192,40690,5,8,0:0:0:0:
256,192,40823,1,8,0:0:0:0:
256,192,40956,5,0,0:0:0:0:
256,192,41223,1,0,0:0:0:0:
256,192,41356,5,8,0:0:0:0:
256,192,41490,5,0,0:0:0:0:
256,192,41623,5,8,0:0:0:0:
256,192,41756,5,0,0:0:0:0:
256,192,41890,5,12,0:0:0:0:
256,192,42156,5,0,0:0:0:0:
256,192,42290,5,8,0:0:0:0:
256,192,42556,5,0,0:0:0:0:
256,192,42690,5,12,0:0:0:0:
256,192,42956,5,0,0:0:0:0:
256,192,43090,5,8,0:0:0:0:
256,192,43223,5,0,0:0:0:0:
256,192,43356,1,0,0:0:0:0:
256,192,43490,5,12,0:0:0:0:
256,192,43756,1,12,0:0:0:0:
256,192,44023,5,4,0:0:0:0:
256,192,44290,5,8,0:0:0:0:
256,192,44556,5,0,0:0:0:0:
256,192,44690,1,0,0:0:0:0:
256,192,44823,5,8,0:0:0:0:
256,192,44956,5,0,0:0:0:0:
256,192,45223,1,0,0:0:0:0:
256,192,45356,5,8,0:0:0:0:
256,192,45623,5,0,0:0:0:0:
256,192,45756,1,0,0:0:0:0:
256,192,45890,5,8,0:0:0:0:
256,192,46023,5,4,0:0:0:0:
256,192,46290,1,0,0:0:0:0:
256,192,46423,5,8,0:0:0:0:
256,192,46690,5,0,0:0:0:0:
256,192,46823,1,0,0:0:0:0:
256,192,46956,5,8,0:0:0:0:
256,192,47090,5,0,0:0:0:0:
256,192,47356,1,0,0:0:0:0:
256,192,47490,5,8,0:0:0:0:
256,192,47756,1,8,0:0:0:0:
256,192,47890,5,0,0:0:0:0:
256,192,48023,5,8,0:0:0:0:
256,192,48156,5,8,0:0:0:0:
256,192,48290,5,4,0:0:0:0:
256,192,48556,5,0,0:0:0:0:
256,192,48823,1,0,0:0:0:0:
256,192,48956,1,0,0:0:0:0:
256,192,49090,5,8,0:0:0:0:
256,192,49223,5,0,0:0:0:0:
256,192,49490,1,0,0:0:0:0:
256,192,49623,5,8,0:0:0:0:
256,192,49890,5,0,0:0:0:0:
256,192,50023,1,0,0:0:0:0:
256,192,50156,5,8,0:0:0:0:
256,192,50290,5,4,0:0:0:0:
256,192,50556,1,0,0:0:0:0:
256,192,50690,5,8,0:0:0:0:
256,192,50956,5,0,0:0:0:0:
256,192,51090,1,0,0:0:0:0:
256,192,51223,5,8,0:0:0:0:
256,192,51356,5,0,0:0:0:0:
256,192,51623,1,0,0:0:0:0:
256,192,51756,5,8,0:0:0:0:
256,192,52023,1,8,0:0:0:0:
256,192,52156,5,0,0:0:0:0:
256,192,52290,5,8,0:0:0:0:
256,192,52423,1,8,0:0:0:0:
256,192,52556,5,4,0:0:0:0:
256,192,52823,1,0,0:0:0:0:
256,192,52956,5,8,0:0:0:0:
256,192,53090,5,0,0:0:0:0:
256,192,53356,5,8,0:0:0:0:
256,192,53490,5,0,0:0:0:0:
256,192,53623,1,0,0:0:0:0:
256,192,53756,1,0,0:0:0:0:
256,192,53890,5,8,0:0:0:0:
256,192,54023,5,0,0:0:0:0:
256,192,54156,1,0,0:0:0:0:
256,192,54423,5,8,0:0:0:0:
256,192,54690,5,0,0:0:0:0:
256,192,54823,1,0,0:0:0:0:
256,192,54956,5,8,0:0:0:0:
256,192,55090,5,0,0:0:0:0:
256,192,55223,5,8,0:0:0:0:
256,192,55490,1,8,0:0:0:0:
256,192,55623,5,0,0:0:0:0:
256,192,55890,1,0,0:0:0:0:
256,192,56023,5,8,0:0:0:0:
256,192,56156,1,8,0:0:0:0:
256,192,56290,5,0,0:0:0:0:
256,192,56423,1,0,0:0:0:0:
256,192,56556,5,8,0:0:0:0:
256,192,56823,5,4,0:0:0:0:
256,192,57090,5,8,0:0:0:0:
256,192,57223,5,0,0:0:0:0:
256,192,57356,1,0,0:0:0:0:
256,192,57490,5,8,0:0:0:0:
256,192,57756,5,0,0:0:0:0:
256,192,57890,5,8,0:0:0:0:
256,192,58023,5,0,0:0:0:0:
256,192,58290,1,0,0:0:0:0:
256,192,58423,5,8,0:0:0:0:
256,192,58556,5,0,0:0:0:0:
256,192,58690,5,8,0:0:0:0:
256,192,58823,5,0,0:0:0:0:
256,192,58956,5,12,0:0:0:0:
256,192,59223,5,0,0:0:0:0:
256,192,59356,5,8,0:0:0:0:
256,192,59623,5,0,0:0:0:0:
256,192,59756,5,12,0:0:0:0:
256,192,60023,5,0,0:0:0:0:
256,192,60156,5,8,0:0:0:0:
256,192,60290,5,0,0:0:0:0:
256,192,60423,1,0,0:0:0:0:
256,192,60556,5,12,0:0:0:0:
256,192,60823,1,12,0:0:0:0:
256,192,61090,1,8,0:0:0:0:
256,192,61356,1,0,0:0:0:0:
256,192,61490,5,8,0:0:0:0:
256,192,61623,5,0,0:0:0:0:
256,192,61890,5,8,0:0:0:0:
256,192,62023,5,0,0:0:0:0:
256,192,62290,5,0,0:0:0:0:
256,192,62423,5,8,0:0:0:0:
256,192,62556,5,0,0:0:0:0:
256,192,62690,1,0,0:0:0:0:
256,192,62956,5,8,0:0:0:0:
256,192,63223,5,0,0:0:0:0:
256,192,63356,1,0,0:0:0:0:
256,192,63490,5,8,0:0:0:0:
256,192,63623,5,0,0:0:0:0:
256,192,63756,5,8,0:0:0:0:
256,192,64023,5,8,0:0:0:0:
256,192,64156,1,8,0:0:0:0:
256,192,64423,5,0,0:0:0:0:
256,192,64556,5,8,0:0:0:0:
256,192,64690,1,8,0:0:0:0:
256,192,64823,5,0,0:0:0:0:
256,192,64956,1,0,0:0:0:0:
256,192,65090,5,8,0:0:0:0:
256,192,65356,5,4,0:0:0:0:
256,192,65623,5,8,0:0:0:0:
256,192,65756,5,0,0:0:0:0:
256,192,65890,5,8,0:0:0:0:
256,192,66023,5,0,0:0:0:0:
256,192,66290,1,0,0:0:0:0:
256,192,66423,5,8,0:0:0:0:
256,192,66556,5,0,0:0:0:0:
256,192,66823,1,0,0:0:0:0:
256,192,66956,5,8,0:0:0:0:
256,192,67090,5,0,0:0:0:0:
256,192,67223,5,8,0:0:0:0:
256,192,67356,5,0,0:0:0:0:
256,192,67490,5,12,0:0:0:0:
256,192,67756,5,0,0:0:0:0:
256,192,67890,5,8,0:0:0:0:
256,192,68156,5,0,0:0:0:0:
256,192,68290,5,12,0:0:0:0:
256,192,68556,5,0,0:0:0:0:
256,192,68690,5,8,0:0:0:0:
256,192,68823,5,0,0:0:0:0:
256,192,68956,1,0,0:0:0:0:
256,192,69090,5,12,0:0:0:0:
256,192,69356,1,12,0:0:0:0:
256,192,69623,5,0,0:0:0:0:
256,192,69890,1,0,0:0:0:0:
256,192,70023,5,8,0:0:0:0:
256,192,70156,1,8,0:0:0:0:
256,192,70290,1,8,0:0:0:0:
256,192,70423,5,0,0:0:0:0:
256,192,70690,1,0,0:0:0:0:
256,192,70823,5,8,0:0:0:0:
256,192,71090,5,0,0:0:0:0:
256,192,71223,5,8,0:0:0:0:
256,192,71490,5,0,0:0:0:0:
256,192,71756,1,4,0:0:0:0:
256,192,72023,1,0,0:0:0:0:
256,192,72156,5,8,0:0:0:0:
256,192,72290,1,8,0:0:0:0:
256,192,72423,1,8,0:0:0:0:
256,192,72556,5,0,0:0:0:0:
256,192,72823,1,0,0:0:0:0:
256,192,72956,5,8,0:0:0:0:
256,192,73223,5,0,0:0:0:0:
256,192,73356,5,8,0:0:0:0:
256,192,73623,5,0,0:0:0:0:
256,192,73756,5,8,0:0:0:0:
256,192,73890,5,4,0:0:0:0:
256,192,74156,1,0,0:0:0:0:
256,192,74290,5,8,0:0:0:0:
256,192,74423,1,8,0:0:0:0:
256,192,74556,1,8,0:0:0:0:
256,192,74690,5,0,0:0:0:0:
256,192,74956,1,0,0:0:0:0:
256,192,75090,5,8,0:0:0:0:
256,192,75356,5,0,0:0:0:0:
256,192,75490,5,8,0:0:0:0:
256,192,75756,5,0,0:0:0:0:
256,192,76023,1,4,0:0:0:0:
256,192,76290,1,0,0:0:0:0:
256,192,76423,5,8,0:0:0:0:
256,192,76556,1,8,0:0:0:0:
256,192,76690,1,8,0:0:0:0:
256,192,76823,5,4,0:0:0:0:
256,192,77090,1,0,0:0:0:0:
256,192,77223,5,8,0:0:0:0:
256,192,77490,5,0,0:0:0:0:
256,192,77623,1,8,0:0:0:0:
256,192,77756,1,0,0:0:0:0:
256,192,77890,5,8,0:0:0:0:
256,192,78023,1,8,0:0:0:0:
256,192,78156,5,4,0:0:0:0:
256,192,78423,5,8,0:0:0:0:
256,192,78557,5,0,0:0:0:0:
256,192,78690,5,8,0:0:0:0:
256,192,78823,5,0,0:0:0:0:
256,192,78957,5,8,0:0:0:0:
256,192,79090,1,8,0:0:0:0:
256,192,79357,5,0,0:0:0:0:
256,192,79490,5,8,0:0:0:0:
256,192,79623,5,0,0:0:0:0:
256,192,79757,5,8,0:0:0:0:
256,192,79890,5,0,0:0:0:0:
256,192,80023,5,8,0:0:0:0:
256,192,80290,5,0,0:0:0:0:
256,192,80557,5,8,0:0:0:0:
256,192,80690,5,0,0:0:0:0:
256,192,80823,1,0,0:0:0:0:
256,192,80957,1,0,0:0:0:0:
256,192,81090,5,8,0:0:0:0:
256,192,81223,5,0,0:0:0:0:
256,192,81490,1,0,0:0:0:0:
256,192,81623,5,8,0:0:0:0:
256,192,81757,5,0,0:0:0:0:
256,192,81890,5,8,0:0:0:0:
256,192,82157,1,8,0:0:0:0:
256,192,82290,1,8,0:0:0:0:
256,192,82423,5,4,0:0:0:0:
256,192,82690,5,8,0:0:0:0:
256,192,82823,5,0,0:0:0:0:
256,192,82957,1,0,0:0:0:0:
256,192,83090,1,0,0:0:0:0:
256,192,83223,5,8,0:0:0:0:
256,192,83357,5,0,0:0:0:0:
256,192,83623,1,0,0:0:0:0:
256,192,83757,5,8,0:0:0:0:
256,192,83890,5,0,0:0:0:0:
256,192,84023,1,0,0:0:0:0:
256,192,84157,1,0,0:0:0:0:
256,192,84290,5,8,0:0:0:0:
256,192,84423,1,8,0:0:0:0:
256,192,84557,5,4,0:0:0:0:
256,192,84823,5,8,0:0:0:0:
256,192,84957,5,0,0:0:0:0:
256,192,85090,5,8,0:0:0:0:
256,192,85223,5,0,0:0:0:0:
256,192,85357,5,8,0:0:0:0:
256,192,85490,5,0,0:0:0:0:
256,192,85623,1,4,0:0:0:0:
256,192,86423,5,8,0:0:0:0:
256,192,86690,5,4,0:0:0:0:
256,192,86957,5,8,0:0:0:0:
256,192,87090,1,8,0:0:0:0:
256,192,87223,5,0,0:0:0:0:
256,192,87357,1,0,0:0:0:0:
256,192,87490,5,8,0:0:0:0:
256,192,87623,5,0,0:0:0:0:
256,192,87890,1,0,0:0:0:0:
256,192,88157,5,8,0:0:0:0:
256,192,88423,5,0,0:0:0:0:
256,192,88690,1,0,0:0:0:0:
256,192,88823,5,8,0:0:0:0:
256,192,88957,5,0,0:0:0:0:
256,192,89090,5,8,0:0:0:0:
256,192,89223,1,8,0:0:0:0:
256,192,89357,5,0,0:0:0:0:
256,192,89490,1,0,0:0:0:0:
256,192,89623,5,8,0:0:0:0:
256,192,89757,5,0,0:0:0:0:
256,192,90023,1,0,0:0:0:0:
256,192,90290,5,8,0:0:0:0:
256,192,90557,1,8,0:0:0:0:
256,192,90823,1,8,0:0:0:0:
256,192,90957,5,0,0:0:0:0:
256,192,91090,1,0,0:0:0:0:
256,192,91223,5,8,0:0:0:0:
256,192,91357,5,0,0:0:0:0:
256,192,91490,1,0,0:0:0:0:
256,192,91623,1,0,0:0:0:0:
256,192,91757,5,8,0:0:0:0:
256,192,92023,5,0,0:0:0:0:
256,192,92157,1,0,0:0:0:0:
256,192,92290,5,8,0:0:0:0:
256,192,92423,1,8,0:0:0:0:
256,192,92557,5,0,0:0:0:0:
256,192,92690,1,0,0:0:0:0:
256,192,92823,5,8,0:0:0:0:
256,192,93090,1,8,0:0:0:0:
256,192,93223,5,0,0:0:0:0:
256,192,93357,5,8,0:0:0:0:
256,192,93490,1,8,0:0:0:0:
256,192,93623,5,0,0:0:0:0:
256,192,93757,1,0,0:0:0:0:
256,192,93890,5,8,0:0:0:0:
256,192,94157,5,0,0:0:0:0:
256,192,94423,5,8,0:0:0:0:
256,192,94690,1,8,0:0:0:0:
256,192,94823,5,0,0:0:0:0:
256,192,95090,1,0,0:0:0:0:
256,192,95223,5,8,0:0:0:0:
256,192,95357,5,0,0:0:0:0:
256,192,95490,5,8,0:0:0:0:
256,192,95623,1,8,0:0:0:0:
256,192,95757,1,0,0:0:0:0:
256,192,95890,5,0,0:0:0:0:
256,192,96023,5,8,0:0:0:0:
256,192,96157,5,0,0:0:0:0:
256,192,96423,1,0,0:0:0:0:
256,192,96690,5,8,0:0:0:0:
256,192,96957,1,8,0:0:0:0:
256,192,97223,1,8,0:0:0:0:
256,192,97357,5,0,0:0:0:0:
256,192,97490,1,0,0:0:0:0:
256,192,97623,5,8,0:0:0:0:
256,192,97757,1,8,0:0:0:0:
256,192,97890,5,0,0:0:0:0:
256,192,98023,1,0,0:0:0:0:
256,192,98157,5,8,0:0:0:0:
256,192,98290,5,0,0:0:0:0:
256,192,98557,1,0,0:0:0:0:
256,192,98823,5,8,0:0:0:0:
256,192,99090,1,8,0:0:0:0:
256,192,99357,1,8,0:0:0:0:
256,192,99490,1,8,0:0:0:0:
256,192,99623,5,0,0:0:0:0:
256,192,99757,5,8,0:0:0:0:
256,192,99890,1,8,0:0:0:0:
256,192,100023,5,0,0:0:0:0:
256,192,100157,1,0,0:0:0:0:
256,192,100290,5,8,0:0:0:0:
256,192,100557,5,0,0:0:0:0:
256,192,100823,5,8,0:0:0:0:
256,192,101090,5,0,0:0:0:0:
256,192,101223,1,0,0:0:0:0:
256,192,101357,5,8,0:0:0:0:
256,192,101490,5,0,0:0:0:0:
256,192,101623,1,0,0:0:0:0:
256,192,101757,1,0,0:0:0:0:
256,192,101890,5,8,0:0:0:0:
256,192,102023,1,8,0:0:0:0:
256,192,102157,5,0,0:0:0:0:
256,192,102290,1,0,0:0:0:0:
256,192,102423,5,8,0:0:0:0:
256,192,102690,5,0,0:0:0:0:
256,192,102823,1,0,0:0:0:0:
256,192,102957,5,8,0:0:0:0:
256,192,103090,1,8,0:0:0:0:
256,192,103223,1,8,0:0:0:0:
256,192,103357,5,0,0:0:0:0:
256,192,103490,1,0,0:0:0:0:
256,192,103757,1,0,0:0:0:0:
256,192,104023,5,8,0:0:0:0:
256,192,104157,5,0,0:0:0:0:
256,192,104290,5,8,0:0:0:0:
256,192,104557,1,8,0:0:0:0:
256,192,104823,1,8,0:0:0:0:
256,192,104957,5,0,0:0:0:0:
256,192,105090,5,8,0:0:0:0:
256,192,105223,5,0,0:0:0:0:
256,192,105357,1,0,0:0:0:0:
256,192,105490,1,0,0:0:0:0:
256,192,105623,5,8,0:0:0:0:
256,192,105890,1,8,0:0:0:0:
256,192,106023,5,0,0:0:0:0:
256,192,106157,5,8,0:0:0:0:
256,192,106290,5,0,0:0:0:0:
256,192,106423,5,8,0:0:0:0:
256,192,106557,5,0,0:0:0:0:
256,192,106690,5,8,0:0:0:0:
256,192,106957,5,4,0:0:0:0:
256,192,107490,5,12,0:0:0:0:
256,192,107757,1,8,0:0:0:0:
256,192,107890,5,0,0:0:0:0:
256,192,108023,5,12,0:0:0:0:
256,192,108423,1,12,0:0:0:0:
256,192,108823,1,12,0:0:0:0:
256,192,109090,1,12,0:0:0:0:
