osu file format v12

[General]
AudioFilename: houkago stride kano.mp3
AudioLeadIn: 500
PreviewTime: 86174
Countdown: 0
SampleSet: Normal
StackLeniency: 0.7
Mode: 1
LetterboxInBreaks: 0

[Editor]
DistanceSpacing: 1
BeatDivisor: 2
GridSize: 32

[Metadata]
Title:Houkago Stride (Short Ver.)
TitleUnicode:放課後ストライド (Short Ver.)
Artist:Kano
ArtistUnicode:鹿乃
Creator:Lundlerol
Version:Kantan
Source:
Tags:vocaloid vocaloid2 gumi Last Note.
BeatmapID:225276
BeatmapSetID:80983

[Difficulty]
HPDrainRate:4
CircleSize:2
OverallDifficulty:2
ApproachRate:5
SliderMultiplier:1.2
SliderTickRate:1

[Events]
//Background and Video events
0,0,"bg.jpg",0,90
//Break Periods
//Storyboard Layer 0 (Background)
//Storyboard Layer 1 (Fail)
//Storyboard Layer 2 (Pass)
//Storyboard Layer 3 (Foreground)
//Storyboard Sound Samples
//Background Colour Transformations
3,100,163,162,255

[TimingPoints]
1357,266.666666666667,4,1,0,75,1,0
86690,-100,4,1,0,85,0,1
109090,-100,4,1,0,85,0,0

[HitObjects]
256,192,1357,1,4,0:0:0:0:
256,192,3490,1,4,0:0:0:0:
256,192,5623,1,4,0:0:0:0:
256,192,7757,1,4,0:0:0:0:
256,192,8290,1,0,0:0:0:0:
256,192,8823,1,0,0:0:0:0:
256,192,9357,5,12,0:0:0:0:
256,192,9890,5,0,0:0:0:0:
256,192,10823,1,0,0:0:0:0:
256,192,11490,5,8,0:0:0:0:
256,192,12023,5,0,0:0:0:0:
256,192,12957,1,0,0:0:0:0:
256,192,13623,5,8,0:0:0:0:
256,192,14157,5,0,0:0:0:0:
256,192,15090,1,0,0:0:0:0:
256,192,15757,5,8,0:0:0:0:
256,192,16290,5,0,0:0:0:0:
256,192,17223,1,0,0:0:0:0:
256,192,17890,5,8,0:0:0:0:
256,192,18157,1,8,0:0:0:0:
256,192,18423,5,0,0:0:0:0:
256,192,19490,1,0,0:0:0:0:
256,192,20023,5,8,0:0:0:0:
256,192,20557,5,0,0:0:0:0:
256,192,21623,1,0,0:0:0:0:
256,192,22157,5,8,0:0:0:0:
256,192,22690,5,0,0:0:0:0:
256,192,23756,1,0,0:0:0:0:
256,192,24290,5,8,0:0:0:0:
256,192,24823,5,0,0:0:0:0:
256,192,25356,1,8,0:0:0:0:
256,192,25757,5,0,0:0:0:0:
256,192,26423,5,8,0:0:0:0:
256,192,26956,5,0,0:0:0:0:
256,192,27223,5,8,0:0:0:0:
256,192,27756,1,8,0:0:0:0:
256,192,28290,1,8,0:0:0:0:
256,192,28823,1,8,0:0:0:0:
256,192,29090,5,0,0:0:0:0:
256,192,29356,5,8,0:0:0:0:
256,192,29890,1,8,0:0:0:0:
256,192,30423,1,8,0:0:0:0:
256,192,30690,5,0,0:0:0:0:
256,192,30956,1,8,0:0:0:0:
256,192,31223,5,0,0:0:0:0:
256,192,31756,5,8,0:0:0:0:
256,192,32290,1,0,0:0:0:0:
256,192,32823,5,8,0:0:0:0:
256,192,33356,12,0,34956,0:0:0:0:
256,192,35490,5,0,0:0:0:0:
256,192,35756,1,8,0:0:0:0:
256,192,36290,5,8,0:0:0:0:
256,192,36823,1,8,0:0:0:0:
256,192,37356,1,8,0:0:0:0:
256,192,37623,5,0,0:0:0:0:
256,192,37890,5,8,0:0:0:0:
256,192,38423,1,8,0:0:0:0:
256,192,38957,1,8,0:0:0:0:
256,192,39490,5,0,0:0:0:0:
256,192,39757,5,8,0:0:0:0:
256,192,40290,5,8,0:0:0:0:
256,192,40823,1,0,0:0:0:0:
256,192,41357,5,8,0:0:0:0:
256,192,41890,12,0,43490,0:0:0:0:
256,192,44023,5,0,0:0:0:0:
256,192,44290,5,8,0:0:0:0:
256,192,44823,1,8,0:0:0:0:
256,192,45357,1,8,0:0:0:0:
256,192,45890,1,8,0:0:0:0:
256,192,46157,5,0,0:0:0:0:
256,192,46423,5,8,0:0:0:0:
256,192,46957,1,8,0:0:0:0:
256,192,47490,1,8,0:0:0:0:
256,192,47757,5,0,0:0:0:0:
256,192,48023,5,8,0:0:0:0:
256,192,48290,1,0,0:0:0:0:
256,192,48557,1,8,0:0:0:0:
256,192,49090,1,8,0:0:0:0:
256,192,49623,1,8,0:0:0:0:
256,192,50157,1,8,0:0:0:0:
256,192,50423,5,0,0:0:0:0:
256,192,50690,1,8,0:0:0:0:
256,192,51223,1,8,0:0:0:0:
256,192,51757,5,8,0:0:0:0:
256,192,52023,1,8,0:0:0:0:
256,192,52557,5,0,0:0:0:0:
256,192,52823,5,8,0:0:0:0:
256,192,53357,1,8,0:0:0:0:
256,192,53890,1,8,0:0:0:0:
256,192,54423,1,8,0:0:0:0:
256,192,54690,5,0,0:0:0:0:
256,192,54957,5,8,0:0:0:0:
256,192,55490,1,8,0:0:0:0:
256,192,56023,1,8,0:0:0:0:
256,192,56290,5,0,0:0:0:0:
256,192,56557,5,8,0:0:0:0:
256,192,56823,5,0,0:0:0:0:
256,192,57357,1,8,0:0:0:0:
256,192,57890,5,0,0:0:0:0:
256,192,58423,1,8,0:0:0:0:
256,192,58957,12,0,60557,0:0:0:0:
256,192,61090,5,0,0:0:0:0:
256,192,61357,5,8,0:0:0:0:
256,192,61890,1,8,0:0:0:0:
256,192,62423,1,8,0:0:0:0:
256,192,62690,5,0,0:0:0:0:
256,192,62957,5,8,0:0:0:0:
256,192,63490,1,8,0:0:0:0:
256,192,64023,1,8,0:0:0:0:
256,192,64557,1,8,0:0:0:0:
256,192,64823,5,0,0:0:0:0:
256,192,65090,1,0,0:0:0:0:
256,192,65357,5,8,0:0:0:0:
256,192,65890,5,8,0:0:0:0:
256,192,66423,1,0,0:0:0:0:
256,192,66957,5,8,0:0:0:0:
256,192,67490,12,0,69090,0:0:0:0:
256,192,69623,5,4,0:0:0:0:
256,192,70423,1,0,0:0:0:0:
256,192,71223,1,0,0:0:0:0:
256,192,71490,5,8,0:0:0:0:
256,192,71757,5,0,0:0:0:0:
256,192,72557,1,0,0:0:0:0:
256,192,73357,1,0,0:0:0:0:
256,192,73623,5,8,0:0:0:0:
256,192,73890,5,0,0:0:0:0:
256,192,74690,1,0,0:0:0:0:
256,192,75490,1,0,0:0:0:0:
256,192,75757,5,8,0:0:0:0:
256,192,76023,5,4,0:0:0:0:
256,192,76823,1,0,0:0:0:0:
256,192,77623,5,8,0:0:0:0:
256,192,78157,5,0,0:0:0:0:
256,192,78957,1,8,0:0:0:0:
256,192,79490,1,8,0:0:0:0:
256,192,79756,5,0,0:0:0:0:
256,192,80023,5,8,0:0:0:0:
256,192,80290,5,0,0:0:0:0:
256,192,81090,5,8,0:0:0:0:
256,192,81623,1,8,0:0:0:0:
256,192,81890,5,0,0:0:0:0:
256,192,82156,5,8,0:0:0:0:
256,192,82423,5,0,0:0:0:0:
256,192,83223,5,8,0:0:0:0:
256,192,83756,1,8,0:0:0:0:
256,192,84023,5,0,0:0:0:0:
256,192,84290,5,8,0:0:0:0:
256,192,84556,5,4,0:0:0:0:
256,192,85090,1,4,0:0:0:0:
256,192,85623,5,4,0:0:0:0:
256,192,86690,5,4,0:0:0:0:
256,192,87223,5,8,0:0:0:0:
256,192,87756,5,0,0:0:0:0:
256,192,88023,1,0,0:0:0:0:
256,192,88290,5,8,0:0:0:0:
256,192,88823,5,0,0:0:0:0:
256,192,89356,5,8,0:0:0:0:
256,192,89890,5,0,0:0:0:0:
256,192,90156,5,8,0:0:0:0:
256,192,90423,1,8,0:0:0:0:
256,192,90956,5,0,0:0:0:0:
256,192,91490,1,8,0:0:0:0:
256,192,92023,1,0,0:0:0:0:
256,192,92556,5,8,0:0:0:0:
256,192,92823,1,8,0:0:0:0:
256,192,93090,5,0,0:0:0:0:
256,192,93623,1,8,0:0:0:0:
256,192,94156,1,0,0:0:0:0:
256,192,94690,5,8,0:0:0:0:
256,192,94957,1,8,0:0:0:0:
256,192,95223,5,0,0:0:0:0:
256,192,95756,5,8,0:0:0:0:
256,192,96290,5,0,0:0:0:0:
256,192,96556,1,0,0:0:0:0:
256,192,96823,5,8,0:0:0:0:
256,192,97356,5,0,0:0:0:0:
256,192,97890,5,8,0:0:0:0:
256,192,98423,5,0,0:0:0:0:
256,192,98690,5,8,0:0:0:0:
256,192,98956,1,8,0:0:0:0:
256,192,99490,5,0,0:0:0:0:
256,192,100023,1,8,0:0:0:0:
256,192,100556,1,0,0:0:0:0:
256,192,101090,5,8,0:0:0:0:
256,192,101356,1,8,0:0:0:0:
256,192,101623,5,0,0:0:0:0:
256,192,102156,1,8,0:0:0:0:
256,192,102690,1,0,0:0:0:0:
256,192,103223,5,8,0:0:0:0:
256,192,103490,5,0,0:0:0:0:
256,192,103756,1,0,0:0:0:0:
256,192,104290,1,0,0:0:0:0:
256,192,104823,1,0,0:0:0:0:
256,192,105356,5,8,0:0:0:0:
256,192,105623,1,8,0:0:0:0:
256,192,105890,5,0,0:0:0:0:
256,192,106423,1,0,0:0:0:0:
256,192,106956,1,8,0:0:0:0:
256,192,107490,5,8,0:0:0:0:
256,192,108023,5,12,0:0:0:0:
256,192,108423,1,12,0:0:0:0:
256,192,108823,1,12,0:0:0:0:
256,192,109090,1,12,0:0:0:0:
