osu file format v12

[General]
AudioFilename: houkago stride kano.mp3
AudioLeadIn: 500
PreviewTime: 86174
Countdown: 0
SampleSet: Normal
StackLeniency: 0.7
Mode: 1
LetterboxInBreaks: 0

[Editor]
DistanceSpacing: 1
BeatDivisor: 2
GridSize: 16

[Metadata]
Title:Houkago Stride (Short Ver.)
TitleUnicode:放課後ストライド (Short Ver.)
Artist:Kano
ArtistUnicode:鹿乃
Creator:Lundlerol
Version:Futsuu
Source:
Tags:vocaloid vocaloid2 gumi Last Note.
BeatmapID:225272
BeatmapSetID:80983

[Difficulty]
HPDrainRate:4
CircleSize:2
OverallDifficulty:3
ApproachRate:5
SliderMultiplier:1.2
SliderTickRate:1

[Events]
//Background and Video events
0,0,"bg.jpg",0,90
//Break Periods
//Storyboard Layer 0 (Background)
//Storyboard Layer 1 (Fail)
//Storyboard Layer 2 (Pass)
//Storyboard Layer 3 (Foreground)
//Storyboard Sound Samples
//Background Colour Transformations
3,100,163,162,255

[TimingPoints]
1357,266.666666666667,4,1,0,75,1,0
86690,-100,4,1,0,85,0,1
109090,-100,4,1,0,85,0,0

[HitObjects]
256,192,1357,1,4,0:0:0:0:
256,192,3223,1,0,0:0:0:0:
256,192,3490,1,4,0:0:0:0:
256,192,5357,1,0,0:0:0:0:
256,192,5623,1,4,0:0:0:0:
256,192,7490,1,0,0:0:0:0:
256,192,7757,1,4,0:0:0:0:
256,192,8290,1,4,0:0:0:0:
256,192,8823,1,4,0:0:0:0:
256,192,9357,5,12,0:0:0:0:
256,192,9890,5,0,0:0:0:0:
256,192,10157,5,8,0:0:0:0:
256,192,10423,5,0,0:0:0:0:
256,192,10823,1,0,0:0:0:0:
256,192,11223,1,0,0:0:0:0:
256,192,11490,1,0,0:0:0:0:
256,192,11757,5,8,0:0:0:0:
256,192,12290,1,8,0:0:0:0:
256,192,12557,5,0,0:0:0:0:
256,192,12957,1,0,0:0:0:0:
256,192,13357,1,0,0:0:0:0:
256,192,13623,5,8,0:0:0:0:
256,192,13890,1,8,0:0:0:0:
256,192,14423,5,0,0:0:0:0:
256,192,14690,1,0,0:0:0:0:
256,192,15090,1,0,0:0:0:0:
256,192,15490,5,8,0:0:0:0:
256,192,15757,5,0,0:0:0:0:
256,192,16023,5,8,0:0:0:0:
256,192,16557,5,0,0:0:0:0:
256,192,16823,1,0,0:0:0:0:
256,192,17223,1,0,0:0:0:0:
256,192,17623,1,0,0:0:0:0:
256,192,17890,5,8,0:0:0:0:
256,192,18157,1,8,0:0:0:0:
256,192,18423,1,4,0:0:0:0:
256,192,18957,5,8,0:0:0:0:
256,192,19357,1,0,0:0:0:0:
256,192,19757,1,0,0:0:0:0:
256,192,20023,1,0,0:0:0:0:
256,192,20290,5,8,0:0:0:0:
256,192,20823,1,8,0:0:0:0:
256,192,21090,5,0,0:0:0:0:
256,192,21490,1,0,0:0:0:0:
256,192,21890,1,0,0:0:0:0:
256,192,22157,5,8,0:0:0:0:
256,192,22423,1,8,0:0:0:0:
256,192,22957,1,8,0:0:0:0:
256,192,23223,5,0,0:0:0:0:
256,192,23623,1,0,0:0:0:0:
256,192,24023,1,0,0:0:0:0:
256,192,24290,5,8,0:0:0:0:
256,192,24556,1,8,0:0:0:0:
256,192,24823,5,4,0:0:0:0:
256,192,25356,1,0,0:0:0:0:
256,192,25757,1,0,0:0:0:0:
256,192,26157,1,0,0:0:0:0:
256,192,26423,1,0,0:0:0:0:
256,192,26690,1,8,0:0:0:0:
256,192,26956,1,0,0:0:0:0:
256,192,27223,1,0,0:0:0:0:
256,192,27490,1,0,0:0:0:0:
256,192,27890,5,0,0:0:0:0:
256,192,28290,1,0,0:0:0:0:
256,192,28556,1,0,0:0:0:0:
256,192,28823,5,8,0:0:0:0:
256,192,29090,5,0,0:0:0:0:
256,192,29357,1,0,0:0:0:0:
256,192,29623,5,8,0:0:0:0:
256,192,30023,5,0,0:0:0:0:
256,192,30423,1,0,0:0:0:0:
256,192,30690,1,0,0:0:0:0:
256,192,30956,1,0,0:0:0:0:
256,192,31223,1,4,0:0:0:0:
256,192,31756,1,0,0:0:0:0:
256,192,32290,1,0,0:0:0:0:
256,192,32823,1,0,0:0:0:0:
256,192,33090,1,0,0:0:0:0:
256,192,33356,5,8,0:0:0:0:
256,192,33756,5,0,0:0:0:0:
256,192,34156,5,8,0:0:0:0:
256,192,34556,5,0,0:0:0:0:
256,192,34956,5,8,0:0:0:0:
256,192,35223,1,8,0:0:0:0:
256,192,35490,1,0,0:0:0:0:
256,192,35756,5,0,0:0:0:0:
256,192,36023,1,0,0:0:0:0:
256,192,36423,5,8,0:0:0:0:
256,192,36823,5,0,0:0:0:0:
256,192,37090,5,8,0:0:0:0:
256,192,37356,1,8,0:0:0:0:
256,192,37623,5,0,0:0:0:0:
256,192,37890,1,0,0:0:0:0:
256,192,38157,1,8,0:0:0:0:
256,192,38557,5,8,0:0:0:0:
256,192,38957,1,8,0:0:0:0:
256,192,39223,1,8,0:0:0:0:
256,192,39490,5,0,0:0:0:0:
256,192,39757,1,4,0:0:0:0:
256,192,40290,1,8,0:0:0:0:
256,192,40823,5,0,0:0:0:0:
256,192,41357,5,0,0:0:0:0:
256,192,41623,1,0,0:0:0:0:
256,192,41890,1,0,0:0:0:0:
256,192,42290,1,0,0:0:0:0:
256,192,42690,1,0,0:0:0:0:
256,192,43090,5,8,0:0:0:0:
256,192,43490,1,8,0:0:0:0:
256,192,43757,1,8,0:0:0:0:
256,192,44023,5,4,0:0:0:0:
256,192,44290,5,8,0:0:0:0:
256,192,44557,5,0,0:0:0:0:
256,192,44957,1,0,0:0:0:0:
256,192,45357,1,0,0:0:0:0:
256,192,45623,1,0,0:0:0:0:
256,192,45890,5,8,0:0:0:0:
256,192,46423,1,8,0:0:0:0:
256,192,46690,5,0,0:0:0:0:
256,192,47090,1,0,0:0:0:0:
256,192,47490,5,8,0:0:0:0:
256,192,47757,5,0,0:0:0:0:
256,192,48023,5,8,0:0:0:0:
256,192,48557,5,0,0:0:0:0:
256,192,48823,5,8,0:0:0:0:
256,192,49223,5,0,0:0:0:0:
256,192,49623,1,0,0:0:0:0:
256,192,49890,1,0,0:0:0:0:
256,192,50157,5,8,0:0:0:0:
256,192,50423,5,0,0:0:0:0:
256,192,50957,1,0,0:0:0:0:
256,192,51357,1,0,0:0:0:0:
256,192,51757,1,0,0:0:0:0:
256,192,52023,1,0,0:0:0:0:
256,192,52290,1,8,0:0:0:0:
256,192,52557,1,0,0:0:0:0:
256,192,52823,1,0,0:0:0:0:
256,192,53090,5,8,0:0:0:0:
256,192,53490,1,8,0:0:0:0:
256,192,53890,1,0,0:0:0:0:
256,192,54157,1,0,0:0:0:0:
256,192,54423,5,8,0:0:0:0:
256,192,54690,5,0,0:0:0:0:
256,192,54957,1,0,0:0:0:0:
256,192,55223,1,8,0:0:0:0:
256,192,55623,5,0,0:0:0:0:
256,192,56023,1,0,0:0:0:0:
256,192,56290,5,0,0:0:0:0:
256,192,56557,1,0,0:0:0:0:
256,192,56823,1,4,0:0:0:0:
256,192,57357,1,0,0:0:0:0:
256,192,57890,1,0,0:0:0:0:
256,192,58423,1,0,0:0:0:0:
256,192,58690,5,8,0:0:0:0:
256,192,58957,5,0,0:0:0:0:
256,192,59357,1,0,0:0:0:0:
256,192,59757,1,0,0:0:0:0:
256,192,60157,1,0,0:0:0:0:
256,192,60557,5,8,0:0:0:0:
256,192,60823,1,8,0:0:0:0:
256,192,61090,1,8,0:0:0:0:
256,192,61357,5,0,0:0:0:0:
256,192,61623,1,0,0:0:0:0:
256,192,62023,5,8,0:0:0:0:
256,192,62423,5,0,0:0:0:0:
256,192,62690,5,8,0:0:0:0:
256,192,62957,1,8,0:0:0:0:
256,192,63223,5,0,0:0:0:0:
256,192,63490,1,0,0:0:0:0:
256,192,63757,1,0,0:0:0:0:
256,192,64157,5,8,0:0:0:0:
256,192,64557,1,0,0:0:0:0:
256,192,64823,5,8,0:0:0:0:
256,192,65090,5,0,0:0:0:0:
256,192,65357,1,4,0:0:0:0:
256,192,65890,1,0,0:0:0:0:
256,192,66423,5,8,0:0:0:0:
256,192,66957,5,0,0:0:0:0:
256,192,67223,5,8,0:0:0:0:
256,192,67490,5,0,0:0:0:0:
256,192,67890,1,0,0:0:0:0:
256,192,68290,1,0,0:0:0:0:
256,192,68690,5,8,0:0:0:0:
256,192,69090,1,8,0:0:0:0:
256,192,69357,1,8,0:0:0:0:
256,192,69623,5,0,0:0:0:0:
256,192,70023,1,0,0:0:0:0:
256,192,70423,1,0,0:0:0:0:
256,192,70823,5,8,0:0:0:0:
256,192,71223,5,0,0:0:0:0:
256,192,71490,5,8,0:0:0:0:
256,192,71757,5,0,0:0:0:0:
256,192,72157,1,0,0:0:0:0:
256,192,72557,1,0,0:0:0:0:
256,192,72957,5,8,0:0:0:0:
256,192,73357,5,0,0:0:0:0:
256,192,73623,1,0,0:0:0:0:
256,192,73890,1,0,0:0:0:0:
256,192,74290,5,8,0:0:0:0:
256,192,74690,5,0,0:0:0:0:
256,192,75090,5,8,0:0:0:0:
256,192,75490,5,0,0:0:0:0:
256,192,75757,1,0,0:0:0:0:
256,192,76023,1,0,0:0:0:0:
256,192,76423,5,8,0:0:0:0:
256,192,76823,5,0,0:0:0:0:
256,192,77890,1,0,0:0:0:0:
256,192,78157,1,0,0:0:0:0:
256,192,78557,1,8,0:0:0:0:
256,192,78957,1,0,0:0:0:0:
256,192,79357,1,0,0:0:0:0:
256,192,79756,5,8,0:0:0:0:
256,192,80023,1,8,0:0:0:0:
256,192,80290,5,0,0:0:0:0:
256,192,80690,1,0,0:0:0:0:
256,192,81090,5,8,0:0:0:0:
256,192,81490,5,0,0:0:0:0:
256,192,81890,5,8,0:0:0:0:
256,192,82156,1,8,0:0:0:0:
256,192,82423,5,0,0:0:0:0:
256,192,82823,1,0,0:0:0:0:
256,192,83223,5,8,0:0:0:0:
256,192,83623,1,8,0:0:0:0:
256,192,84023,5,0,0:0:0:0:
256,192,84290,1,0,0:0:0:0:
256,192,84556,1,4,0:0:0:0:
256,192,85090,5,12,0:0:0:0:
256,192,85623,5,4,0:0:0:0:
256,192,86423,5,8,0:0:0:0:
256,192,86690,5,4,0:0:0:0:
256,192,86956,5,8,0:0:0:0:
256,192,87223,1,8,0:0:0:0:
256,192,87623,5,0,0:0:0:0:
256,192,87890,1,0,0:0:0:0:
256,192,88156,5,8,0:0:0:0:
256,192,88423,5,0,0:0:0:0:
256,192,88823,1,0,0:0:0:0:
256,192,89090,1,0,0:0:0:0:
256,192,89356,1,0,0:0:0:0:
256,192,89756,1,0,0:0:0:0:
256,192,90023,1,0,0:0:0:0:
256,192,90290,5,8,0:0:0:0:
256,192,90556,1,8,0:0:0:0:
256,192,90956,5,0,0:0:0:0:
256,192,91356,1,0,0:0:0:0:
256,192,91756,1,0,0:0:0:0:
256,192,92290,5,8,0:0:0:0:
256,192,92556,5,0,0:0:0:0:
256,192,92823,5,8,0:0:0:0:
256,192,93090,1,8,0:0:0:0:
256,192,93490,1,8,0:0:0:0:
256,192,93890,1,8,0:0:0:0:
256,192,94423,5,0,0:0:0:0:
256,192,94690,5,8,0:0:0:0:
256,192,95223,5,0,0:0:0:0:
256,192,95490,1,0,0:0:0:0:
256,192,95756,1,8,0:0:0:0:
256,192,96156,5,0,0:0:0:0:
256,192,96423,5,8,0:0:0:0:
256,192,96690,5,8,0:0:0:0:
256,192,96956,1,8,0:0:0:0:
256,192,97356,5,0,0:0:0:0:
256,192,97623,1,0,0:0:0:0:
256,192,97890,1,8,0:0:0:0:
256,192,98290,5,8,0:0:0:0:
256,192,98556,5,0,0:0:0:0:
256,192,98823,5,8,0:0:0:0:
256,192,99090,1,8,0:0:0:0:
256,192,99490,5,0,0:0:0:0:
256,192,99890,1,0,0:0:0:0:
256,192,100290,1,0,0:0:0:0:
256,192,100823,5,8,0:0:0:0:
256,192,101090,5,0,0:0:0:0:
256,192,101356,5,8,0:0:0:0:
256,192,101623,5,0,0:0:0:0:
256,192,102023,5,8,0:0:0:0:
256,192,102423,1,8,0:0:0:0:
256,192,102956,1,8,0:0:0:0:
256,192,103223,1,8,0:0:0:0:
256,192,103490,5,0,0:0:0:0:
256,192,103756,1,4,0:0:0:0:
256,192,104156,1,0,0:0:0:0:
256,192,104556,5,8,0:0:0:0:
256,192,105090,5,0,0:0:0:0:
256,192,105356,1,0,0:0:0:0:
256,192,105623,1,0,0:0:0:0:
256,192,105890,5,8,0:0:0:0:
256,192,106290,5,0,0:0:0:0:
256,192,106690,5,8,0:0:0:0:
256,192,106956,5,0,0:0:0:0:
256,192,107490,5,8,0:0:0:0:
256,192,108023,1,12,0:0:0:0:
256,192,108423,1,12,0:0:0:0:
256,192,108823,1,12,0:0:0:0:
256,192,109090,1,12,0:0:0:0:
