osu file format v14

[General]
AudioFilename: Houkago Stride - Kano.mp3
AudioLeadIn: 0
PreviewTime: 86221
Countdown: 0
SampleSet: None
StackLeniency: 0.7
Mode: 0
LetterboxInBreaks: 0
EpilepsyWarning: 1
WidescreenStoryboard: 0

[Editor]
DistanceSpacing: 1
BeatDivisor: 2
GridSize: 4
TimelineZoom: 2.2

[Metadata]
Title:Houkago Stride
TitleUnicode:放課後ストライド
Artist:Kano
ArtistUnicode:鹿乃
Creator:Pho
Version:Normal
Source:
Tags:After School Stride ミカグラ学園組曲 Mikagura Gakuen Kumikyoku School Suite Ichinomiya Eruna 一宮エルナ last note. first trip GUMI vocaloid Nico Nico Douga nnd guineaQ Milan- appleeaterx pkhg Backfire OzzyOzrock
BeatmapID:781362
BeatmapSetID:289985

[Difficulty]
HPDrainRate:4
CircleSize:3
OverallDifficulty:3.5
ApproachRate:5
SliderMultiplier:0.799999999999999
SliderTickRate:1

[Events]
//Background and Video events
0,0,"mikagura.jpg",0,0
Video,188,"houkago.avi"
//Break Periods
2,10088,25755
//Storyboard Layer 0 (Background)
//Storyboard Layer 1 (Fail)
//Storyboard Layer 2 (Pass)
//Storyboard Layer 3 (Foreground)
//Storyboard Sound Samples

[TimingPoints]
1355,266.666666666667,4,1,1,50,1,0
26955,-100,4,1,1,45,0,0
33355,-100,4,1,1,50,0,0
35621,-100,4,1,1,45,0,0
41888,-100,4,1,1,50,0,0
52688,-100,4,1,1,45,0,0
67488,-100,4,1,1,50,0,0
69620,-100,4,1,1,40,0,0
78155,-100,4,1,1,45,0,0
86688,-100,4,1,1,50,0,1
109088,-100,4,1,1,50,0,0
109888,-100,4,1,1,45,0,0
114421,-100,4,1,1,50,0,0
118688,-100,4,1,1,45,0,0
122955,-100,4,1,1,50,0,0
127220,-100,4,1,1,40,0,0
135754,-100,4,1,1,45,0,0
144288,-100,4,1,1,50,0,1
166688,-100,4,1,1,50,0,0
184821,-100,4,1,1,50,0,1
206088,-100,4,1,1,50,0,0
206155,-100,4,1,1,50,0,1
210355,-100,4,1,1,50,0,0
210421,-100,4,1,1,50,0,1
216288,-100,4,1,1,50,0,0
222421,-100,4,2,1,30,0,0

[Colours]
Combo1 : 4,123,97
Combo2 : 254,193,167
Combo3 : 158,81,48
Combo4 : 231,248,135
Combo5 : 255,107,36
Combo6 : 242,0,0
Combo7 : 14,182,119
Combo8 : 211,198,20

[HitObjects]
120,45,1355,5,0,0:0:0:0:
81,318,3221,6,0,L|169:318,1,79.9999999999999,4|0,0:0|0:0,0:0:0:0:
431,318,5355,6,0,L|343:318,1,79.9999999999999,4|0,0:0|0:0,0:0:0:0:
256,52,7488,6,0,L|256:148,1,79.9999999999999,4|4,0:0|0:0,0:0:0:0:
368,248,8288,1,4,0:0:0:0:
498,155,8821,1,0,0:0:0:0:
402,25,9355,2,0,P|322:65|230:33,1,160,8|4,0:3|0:0,0:0:0:0:
67,217,26955,6,0,P|45:143|88:62,1,160,6|0,0:0|0:0,0:0:0:0:
231,115,28021,2,0,L|406:105,1,160,0|2,0:0|0:0,0:0:0:0:
334,255,29088,6,0,P|361:317|451:375,1,160,2|0,0:0|0:0,0:0:0:0:
487,219,30155,2,0,P|507:181|457:73,1,160,0|2,0:0|0:0,0:0:0:0:
311,113,31221,5,6,0:0:0:0:
336,272,31755,1,2,0:0:0:0:
192,344,32288,1,0,0:0:0:0:
72,236,32821,1,2,0:0:0:0:
136,88,33355,6,0,L|184:208,2,120,14|10|14,0:0|0:0|0:0,0:0:0:0:
240,28,34555,2,0,P|284:28|360:76,1,120,14|14,0:0|0:0,0:0:0:0:
392,132,35221,1,14,0:0:0:0:
352,204,35488,6,0,L|192:204,1,160,6|0,0:0|0:0,0:0:0:0:
60,116,36555,1,0,0:0:0:0:
128,260,37088,1,2,0:0:0:0:
208,120,37621,2,0,P|241:87|356:80,1,160,2|0,0:0|0:0,0:0:0:0:
448,204,38688,2,0,L|444:364,1,160,0|2,0:0|0:0,0:0:0:0:
276,376,39755,5,6,0:0:0:0:
200,236,40288,1,2,0:0:0:0:
52,296,40821,1,0,0:0:0:0:
0,144,41355,1,2,0:0:0:0:
160,128,41888,2,0,L|292:88,2,120,14|14|14,0:0|0:0|0:0,0:0:0:0:
52,72,43088,2,0,L|248:12,1,200,14|14,0:0|0:0,0:0:0:0:
312,56,44021,6,0,P|350:103|456:116,1,160,4|0,0:0|0:0,0:0:0:0:
480,276,45088,2,0,B|445:305|445:305|381:312|381:312|330:343,1,160,0|0,0:0|0:0,0:0:0:0:
173,338,46155,2,0,B|130:312|130:312|66:305|66:305|32:276,1,160,0|0,0:0|0:0,0:0:0:0:
67,119,47221,2,0,P|145:112|200:56,1,160,0|8,0:0|0:0,0:0:0:0:
256,208,48288,6,0,L|256:376,1,160,4|0,0:0|0:0,0:0:0:0:
376,260,49355,2,0,P|384:196|336:116,1,160,0|0,0:0|0:0,0:0:0:0:
175,116,50421,2,0,P|131:181|136:260,1,160,0|0,0:0|0:0,0:0:0:0:
256,368,51488,1,0,0:0:0:0:
256,208,52021,1,8,0:0:0:0:
380,312,52555,6,0,P|432:324|464:320,2,79.9999999999999,6|10|0,0:0|0:0|0:0,0:0:0:0:
276,192,53621,2,0,P|340:180|428:228,1,160,0|0,0:0|0:0,0:0:0:0:
296,320,54688,2,0,L|216:328,2,79.9999999999999,2|10|0,0:0|0:0|0:0,0:0:0:0:
188,204,55755,2,0,P|139:228|90:320,1,160,0|0,0:0|0:0,0:0:0:0:
10,326,56555,2,0,L|1:237,1,79.9999999999999,10|6,0:0|0:0,0:0:0:0:
121,139,57355,5,2,0:0:0:0:
12,24,57888,1,2,0:0:0:0:
168,52,58421,2,0,L|256:64,1,79.9999999999999,2|10,0:0|0:0,0:0:0:0:
312,108,58955,2,0,P|352:164|412:184,2,120,14|14|14,0:0|0:0|0:0,0:0:0:0:
424,64,60155,2,0,L|428:268,1,200,14|14,0:0|0:0,0:0:0:0:
380,328,61088,6,0,B|316:360|276:304|216:320,1,160,6|0,0:0|0:0,0:0:0:0:
76,372,62155,2,0,P|124:332|92:244,1,160,0|2,0:0|0:0,0:0:0:0:
21,227,62955,2,0,B|7:193|7:193|10:133,1,79.9999999999999,10|2,0:0|0:0,0:0:0:0:
144,68,63755,1,0,0:0:0:0:
256,184,64288,1,0,0:0:0:0:
368,68,64821,1,0,0:0:0:0:
441,98,65088,2,0,B|470:121|470:121|483:166,1,79.9999999999999,10|4,0:0|0:0,0:0:0:0:
328,220,65888,5,2,0:0:0:0:
444,332,66421,1,0,0:0:0:0:
416,176,66955,2,0,P|388:140|340:128,1,79.9999999999999,0|8,0:0|0:0,0:0:0:0:
276,144,67488,2,0,L|140:168,2,120,14|14|14,0:0|0:0|0:0,0:0:0:0:
177,75,68688,2,0,P|117:79|77:207,1,200,14|14,0:0|0:0,0:0:0:0:
107,266,69621,6,0,L|239:278,2,120,4|8|0,0:0|0:0|0:0,0:0:0:0:
180,172,70821,1,8,0:0:0:0:
300,156,71221,2,0,L|388:144,1,79.9999999999999,8|0,0:0|0:0,0:0:0:0:
440,196,71755,6,0,P|456:239|437:327,2,120,4|8|0,0:0|0:0|0:0,0:0:0:0:
340,260,72955,1,8,0:0:0:0:
248,184,73355,2,0,L|240:276,1,79.9999999999999,8|0,0:0|0:0,0:0:0:0:
232,344,73888,6,0,P|184:360|108:348,1,120,4|8,0:0|0:0,0:0:0:0:
28,268,74688,2,0,P|76:252|152:264,1,120,0|8,0:0|0:0,0:0:0:0:
232,344,75488,2,0,L|244:264,1,79.9999999999999,8|0,0:0|0:0,0:0:0:0:
271,189,76021,6,0,L|402:190,1,120,4|8,0:0|0:0,0:0:0:0:
499,241,76821,2,0,P|512:186|491:126,1,120,0|8,0:0|0:0,0:0:0:0:
383,76,77621,2,0,L|283:73,1,79.9999999999999,10|8,0:0|0:0,0:0:0:0:
248,132,78155,6,0,L|243:275,2,120,6|0|0,0:0|0:0|0:0,0:0:0:0:
142,74,79355,1,0,0:0:0:0:
49,150,79755,2,0,L|44:238,1,79.9999999999999,2|10,0:0|0:0,0:0:0:0:
62,307,80288,6,0,P|114:322|201:292,1,120,6|0,0:0|0:0,0:0:0:0:
275,239,81088,2,0,P|332:225|390:240,1,120,10|0,0:0|0:0,0:0:0:0:
450,344,81888,2,0,L|471:260,1,79.9999999999999,2|10,0:0|0:0,0:0:0:0:
455,187,82421,6,0,P|437:139|457:44,2,120,6|0|10,0:0|0:0|0:0,0:0:0:0:
360,261,83621,1,0,0:0:0:0:
285,166,84021,2,0,L|281:72,1,79.9999999999999,2|10,0:0|0:0,0:0:0:0:
220,33,84555,5,6,0:0:0:0:
65,74,85088,1,10,0:0:0:0:
184,180,85621,1,2,0:0:0:0:
407,92,86421,1,4,0:0:0:0:
473,137,86688,6,0,P|427:169|330:110,1,160,2|2,0:0|0:0,0:0:0:0:
308,15,87621,2,0,L|91:43,1,200,2|0,0:0|0:0,0:0:0:0:
90,118,88555,1,8,0:0:0:0:
10,116,88821,6,0,P|39:181|137:182,1,160,6|2,0:0|0:0,0:0:0:0:
162,79,89755,2,0,L|380:131,1,200,2|0,0:0|0:0,0:0:0:0:
434,142,90688,1,8,0:0:0:0:
479,208,90955,6,0,P|507:177|498:90,1,120,6|2,0:0|0:0,0:0:0:0:
393,60,91755,2,0,P|355:101|363:201,1,160,10|10,0:0|0:0,0:0:0:0:
415,259,92555,2,0,P|426:308|416:340,1,79.9999999999999,0|10,0:0|0:0,0:0:0:0:
345,301,93088,6,0,L|215:302,1,120,6|2,0:0|0:0,0:0:0:0:
118,357,93888,2,0,P|79:307|87:208,1,160,10|10,0:0|0:0,0:0:0:0:
140,158,94688,2,0,L|236:160,1,79.9999999999999,10|8,0:0|0:0,0:0:0:0:
239,82,95221,6,0,P|273:51|400:29,1,160,4|0,0:0|0:0,0:0:0:0:
467,110,96155,2,0,L|466:249,1,120,2|8,0:0|0:0,0:0:0:0:
419,294,96821,2,0,P|374:310|319:300,1,79.9999999999999,0|8,0:0|0:0,0:0:0:0:
275,264,97355,6,0,P|216:259|134:327,1,160,4|0,0:0|0:0,0:0:0:0:
37,253,98288,2,0,L|37:100,1,120,2|8,0:0|0:0,0:0:0:0:
91,74,98955,2,0,L|170:76,1,79.9999999999999,0|8,0:0|0:0,0:0:0:0:
230,129,99488,6,0,P|284:154|370:136,2,120,4|10|10,0:0|0:0|0:0,0:0:0:0:
227,48,100555,2,0,P|289:21|409:54,1,160,0|2,0:0|0:0,0:0:0:0:
410,107,101355,1,10,0:0:0:0:
381,181,101621,6,0,P|371:236|437:296,2,120,4|10|10,0:0|0:0|0:0,0:0:0:0:
451,219,102688,2,0,L|291:232,1,160,0|10,0:0|0:0,0:0:0:0:
236,290,103488,1,4,0:3:0:0:
170,244,103755,2,0,P|154:207|154:136,1,79.9999999999999,4|10,0:0|0:0,0:0:0:0:
83,122,104288,2,0,P|128:88|186:94,1,79.9999999999999,10|10,0:0|0:0,0:0:0:0:
218,126,104821,2,0,L|395:123,1,160,10|10,0:0|0:0,0:0:0:0:
439,272,105888,6,0,L|350:277,1,79.9999999999999,4|10,0:0|0:0,0:0:0:0:
305,336,106421,2,0,L|216:341,1,79.9999999999999,10|10,0:0|0:0,0:0:0:0:
147,319,106955,2,0,B|112:256|182:207|126:133,1,160,10|10,0:0|0:0,0:0:0:0:
13,63,108021,6,0,P|83:38|138:49,2,120,4|4|0,0:0|0:0|0:0,0:0:0:0:
19,142,109088,1,4,0:0:0:0:
241,371,110155,6,0,B|289:360|289:360|341:366|341:366|410:348,1,160,6|8,0:0|0:0,0:0:0:0:
369,206,111221,2,0,P|340:140|411:66,1,160,0|8,0:0|0:0,0:0:0:0:
419,145,112021,1,2,0:0:0:0:
449,219,112288,2,0,L|484:296,2,79.9999999999999,2|0|10,0:0|0:0|0:0,0:0:0:0:
295,263,113355,2,0,P|241:297|137:276,1,160,0|0,0:0|0:0,0:0:0:0:
76,250,114155,2,0,L|70:144,1,79.9999999999999,8|6,0:0|0:0,0:0:0:0:
114,15,114955,5,2,0:0:0:0:
256,88,115488,1,0,0:0:0:0:
398,15,116021,1,2,0:0:0:0:
477,154,116555,6,0,L|471:284,2,120,14|14|14,0:0|0:0|0:0,0:0:0:0:
363,114,117755,2,0,P|313:131|335:272,1,200,14|6,0:0|0:0,0:0:0:0:
362,196,118688,6,0,B|314:234|349:313|314:348,1,160,6|8,0:0|0:0,0:0:0:0:
158,369,119755,2,0,P|103:368|62:258,1,160,0|8,0:0|0:0,0:0:0:0:
133,294,120555,1,2,0:0:0:0:
155,217,120821,2,0,L|263:199,2,79.9999999999999,2|0|8,0:0|0:0|0:0,0:0:0:0:
102,65,121888,2,0,P|162:46|261:105,1,160,0|2,0:0|0:0,0:0:0:0:
316,124,122688,2,0,L|401:98,1,79.9999999999999,8|6,0:0|0:0,0:0:0:0:
322,244,123488,1,0,0:0:0:0:
176,178,124021,1,0,0:0:0:0:
151,335,124555,2,0,P|191:316|212:278,1,79.9999999999999,2|10,0:0|0:0,0:0:0:0:
135,255,125088,6,0,L|1:250,2,120,14|14|14,0:0|0:0|0:0,0:0:0:0:
238,193,126288,2,0,P|301:145|258:38,1,200,14|10,0:0|0:0,0:0:0:0:
228,112,127221,6,0,B|181:92|150:133|100:113,2,120,4|8|0,0:0|0:0|0:0,0:0:0:0:
274,222,128421,2,0,P|347:263|411:238,1,120,8|8,0:0|0:0,0:0:0:0:
429,194,129088,1,0,0:0:0:0:
350,175,129355,6,0,L|366:26,1,120,4|8,0:0|0:0,0:0:0:0:
258,115,130155,2,0,P|191:134|116:97,1,120,0|8,0:0|0:0,0:0:0:0:
31,79,130955,2,0,P|21:131|38:186,1,79.9999999999999,8|0,0:0|0:0,0:0:0:0:
51,233,131488,6,0,L|191:246,1,120,4|8,0:0|0:0,0:0:0:0:
240,341,132288,2,0,L|370:319,1,120,0|8,0:0|0:0,0:0:0:0:
457,253,133088,2,0,L|457:157,1,79.9999999999999,8|0,1:0|0:0,0:0:0:0:
441,94,133621,6,0,P|379:114|313:99,1,120,4|8,0:0|0:0,0:0:0:0:
211,65,134421,2,0,P|156:56|92:117,2,120,0|8|10,0:0|0:0|0:0,0:0:0:0:
173,136,135488,1,8,0:0:0:0:
179,215,135755,6,0,L|185:349,1,120,6|0,0:0|0:0,0:0:0:0:
292,282,136555,2,0,L|297:162,1,120,10|0,0:0|0:0,0:0:0:0:
349,54,137355,2,0,L|452:62,1,79.9999999999999,0|10,0:0|0:0,0:0:0:0:
477,124,137888,6,0,P|470:172|407:220,1,120,6|0,0:0|0:0,0:0:0:0:
316,152,138688,2,0,L|182:134,1,120,10|0,0:0|0:0,0:0:0:0:
80,166,139488,2,0,P|67:215|74:252,1,79.9999999999999,0|10,0:0|0:0,0:0:0:0:
141,282,140021,6,0,B|212:265|212:265|231:212,1,120,6|0,0:0|0:0,0:0:0:0:
175,112,140821,2,0,P|203:62|281:50,2,120,10|0|0,0:0|0:0|0:0,0:0:0:0:
254,123,141888,1,10,0:0:0:0:
270,201,142155,6,0,B|357:248|425:132|523:207,1,240,6|10,0:0|0:0,0:0:0:0:
492,272,143221,2,0,B|464:347|464:347|409:373|358:362,1,160,10|8,0:0|0:0,0:0:0:0:
237,289,144288,6,0,L|232:188,2,79.9999999999999,6|8|2,0:0|0:0|0:0,0:0:0:0:
158,379,145221,2,0,P|129:341|128:251,1,120,2|8,0:0|0:0,0:0:0:0:
150,196,145888,2,0,L|60:156,1,79.9999999999999,0|8,0:0|0:0,0:0:0:0:
37,93,146421,6,0,P|49:37|70:6,2,79.9999999999999,6|8|2,0:0|0:0|0:0,0:0:0:0:
157,88,147355,2,0,L|301:83,1,120,2|8,0:0|0:0,0:0:0:0:
352,110,148021,2,0,P|358:166|340:218,1,79.9999999999999,0|8,0:0|0:0,0:0:0:0:
341,268,148555,6,0,P|383:314|462:330,2,120,6|8|10,0:0|0:0|0:0,0:0:0:0:
278,218,149621,2,0,L|190:219,1,79.9999999999999,0|10,0:0|0:0,0:0:0:0:
145,279,150155,1,0,0:0:0:0:
43,155,150688,6,0,P|14:198|23:277,2,120,6|8|10,0:0|0:0|0:0,0:0:0:0:
123,155,151755,2,0,L|211:154,1,79.9999999999999,0|10,0:0|0:0,0:0:0:0:
281,137,152288,2,0,P|301:102|287:41,1,79.9999999999999,10|8,0:0|0:0,0:0:0:0:
221,44,152821,6,0,L|413:31,1,160,6|2,0:0|0:0,0:0:0:0:
465,118,153755,2,0,P|480:171|423:245,1,120,2|8,0:0|0:0,0:0:0:0:
399,167,154421,2,0,L|313:170,1,79.9999999999999,0|8,0:0|0:0,0:0:0:0:
244,198,154955,6,0,P|225:274|238:306,2,79.9999999999999,6|8|2,0:0|0:0|0:0,0:0:0:0:
344,264,155888,2,0,P|331:333|264:385,1,120,2|8,0:0|0:0,0:0:0:0:
219,356,156555,2,0,P|162:373|122:362,1,79.9999999999999,0|8,0:0|0:0,0:0:0:0:
97,303,157088,6,0,L|101:167,1,120,4|8,0:0|0:0,0:0:0:0:
216,147,157888,2,0,P|294:157|385:109,1,160,10|10,0:0|0:0,0:0:0:0:
397,51,158688,2,0,P|422:65|449:128,1,79.9999999999999,2|10,0:0|0:0,0:0:0:0:
447,188,159221,6,0,B|444:225|444:225|422:262|422:262|415:311,1,120,4|8,0:0|0:0,0:0:0:0:
310,358,160021,2,0,P|237:376|148:333,1,160,10|10,0:0|0:0,0:0:0:0:
124,273,160821,2,0,P|132:222|173:191,1,79.9999999999999,10|8,0:0|0:0,0:0:0:0:
229,224,161355,6,0,L|325:211,1,79.9999999999999,4|10,0:0|0:0,0:0:0:0:
313,133,161888,2,0,L|217:146,1,79.9999999999999,10|10,0:0|0:0,0:0:0:0:
154,153,162421,2,0,B|92:132|83:63|83:63|62:108,1,160,10|10,0:0|0:0,0:0:0:0:
45,256,163488,6,0,L|145:266,1,79.9999999999999,4|10,0:0|0:0,0:0:0:0:
190,308,164021,2,0,L|290:298,1,79.9999999999999,10|10,0:0|0:0,0:0:0:0:
295,223,164555,2,0,P|345:201|459:243,1,160,10|10,0:0|0:0,0:0:0:0:
369,368,165621,6,0,B|289:376|289:376|242:348,2,120,4|4|4,0:0|0:0|0:0,0:0:0:0:
440,331,166688,1,4,0:0:0:0:
296,47,167755,6,0,P|234:50|205:76,2,79.9999999999999,4|8|0,0:0|0:0|0:0,0:0:0:0:
357,150,168688,2,0,P|321:197|235:197,1,120,4|8,0:0|0:0,0:0:0:0:
187,182,169355,2,0,B|150:164|150:164|104:172,1,79.9999999999999,2|10,0:0|0:0,0:0:0:0:
48,219,169888,6,0,L|38:318,2,79.9999999999999,0|8|0,0:0|0:0|0:0,0:0:0:0:
59,99,170821,2,0,B|137:82|137:82|177:37,1,120,4|8,1:0|0:0,0:0:0:0:
243,57,171488,2,0,L|272:142,1,79.9999999999999,10|10,0:0|0:0,0:0:0:0:
298,206,172021,6,0,B|271:233|271:233|219:250,2,79.9999999999999,4|8|0,0:0|0:0|0:0,0:0:0:0:
407,256,172955,2,0,P|449:214|440:127,1,120,4|8,0:0|0:0,0:0:0:0:
430,77,173621,2,0,L|342:76,1,79.9999999999999,2|2,0:0|0:0,0:0:0:0:
281,118,174155,6,0,L|281:210,2,79.9999999999999,0|8|0,0:0|0:0|0:0,0:0:0:0:
181,51,175088,2,0,P|129:48|74:97,1,120,4|8,0:0|0:0,0:0:0:0:
150,127,175755,2,0,B|160:170|160:170|151:235,1,79.9999999999999,10|10,0:0|0:0,0:0:0:0:
101,264,176288,6,0,L|-2:268,2,79.9999999999999,4|8|0,0:0|0:0|0:0,0:0:0:0:
191,343,177221,2,0,L|314:332,1,120,4|8,0:0|0:0,0:0:0:0:
364,272,177888,2,0,L|449:303,1,79.9999999999999,2|2,0:0|0:0,0:0:0:0:
479,230,178421,6,0,B|493:182|493:182|481:138|481:138|496:106|484:61,1,160,0|0,0:0|0:0,0:0:0:0:
381,18,179355,2,0,P|327:27|276:100,1,120,4|8,0:0|0:0,0:0:0:0:
223,124,180021,2,0,L|129:112,1,79.9999999999999,10|10,0:0|0:0,0:0:0:0:
74,155,180555,6,0,P|59:198|68:258,2,79.9999999999999,4|8|0,0:0|0:0|0:0,0:0:0:0:
180,210,181488,2,0,L|306:226,1,120,4|8,0:0|0:0,0:0:0:0:
256,192,182155,12,8,183755,0:0:0:0:
350,291,184821,6,0,P|370:232|368:201,2,79.9999999999999,6|10|2,0:0|0:0|0:0,0:0:0:0:
251,222,185755,2,0,P|191:223|141:263,1,120,2|8,0:0|0:0,0:0:0:0:
120,334,186421,2,0,P|156:337|208:307,1,79.9999999999999,0|8,0:0|0:0,0:0:0:0:
144,257,186955,6,0,L|126:165,2,79.9999999999999,6|10|2,0:0|0:0|0:0,0:0:0:0:
42,192,187888,2,0,P|57:127|135:89,1,120,2|8,0:0|0:0,0:0:0:0:
175,110,188555,2,0,L|277:103,1,79.9999999999999,0|8,0:0|0:0,0:0:0:0:
324,144,189088,6,0,P|345:205|332:284,1,120,6|8,0:0|0:0,0:0:0:0:
450,319,189888,2,0,P|437:269|465:138,1,160,10|10,0:0|0:0,0:0:0:0:
508,106,190688,2,0,P|466:84|429:87,1,79.9999999999999,10|10,0:0|0:0,0:0:0:0:
361,118,191221,6,0,P|303:134|223:114,1,120,6|8,0:0|0:0,0:0:0:0:
155,205,192021,2,0,P|235:239|335:211,1,160,10|10,0:0|0:0,0:0:0:0:
380,200,192821,2,0,L|395:280,1,79.9999999999999,10|8,0:0|0:0,0:0:0:0:
359,351,193355,6,0,B|320:363|320:363|281:356,1,79.9999999999999,4|10,0:0|0:0,0:0:0:0:
212,315,193887,1,0,0:0:0:0:
239,199,194288,2,0,P|174:194|114:229,1,120,2|8,0:0|0:0,0:0:0:0:
47,230,194955,2,0,L|37:144,1,79.9999999999999,0|8,0:0|0:0,0:0:0:0:
57,72,195488,6,0,L|136:64,1,79.9999999999999,4|10,0:0|0:0,0:0:0:0:
216,68,196021,1,0,0:0:0:0:
312,140,196421,2,0,P|370:155|436:52,1,200,2|0,0:0|0:0,0:0:0:0:
360,76,197355,1,8,0:0:0:0:
280,68,197621,6,0,P|247:94|237:168,1,120,6|8,0:0|0:0,0:0:0:0:
312,265,198421,2,0,L|137:282,1,160,10|10,0:0|0:0,0:0:0:0:
107,346,199221,2,0,P|76:305|76:261,1,79.9999999999999,10|10,0:0|0:0,0:0:0:0:
100,202,199755,6,0,P|113:148|72:70,1,120,6|8,0:0|0:0,0:0:0:0:
203,46,200555,2,0,B|254:37|254:37|319:52|319:52|371:36,1,160,10|10,0:0|0:0,0:0:0:0:
436,21,201355,2,0,L|458:121,1,79.9999999999999,10|4,0:0|0:3,0:0:0:0:
434,176,201888,6,0,L|330:183,1,79.9999999999999,4|10,0:0|0:0,0:0:0:0:
377,258,202421,2,0,L|273:265,1,79.9999999999999,10|10,0:0|0:0,0:0:0:0:
216,264,202955,2,0,L|136:258,1,79.9999999999999,10|10,0:0|0:0,0:0:0:0:
157,181,203488,2,0,L|78:176,1,79.9999999999999,10|10,0:0|0:0,0:0:0:0:
30,111,204021,6,0,P|56:42|160:10,3,160,4|10|10|8,0:0|0:0|0:0|0:0,0:0:0:0:
128,167,206155,6,0,L|139:270,1,79.9999999999999,4|10,0:0|0:0,0:0:0:0:
159,323,206688,2,0,P|206:289|217:243,1,79.9999999999999,10|10,0:0|0:0,0:0:0:0:
297,270,207221,2,0,P|318:304|353:323,1,79.9999999999999,10|10,0:0|0:0,0:0:0:0:
375,246,207754,2,0,L|384:167,1,79.9999999999999,10|10,0:0|0:0,0:0:0:0:
404,89,208288,6,0,P|352:70|222:110,1,160,4|10,0:0|0:0,0:0:0:0:
132,196,209355,2,0,P|184:215|314:175,1,160,10|10,0:0|0:0,0:0:0:0:
171,84,210421,6,0,P|104:47|44:71,2,120,6|6|6,0:0|0:0|0:0,0:0:0:0:
103,127,211488,1,10,0:0:0:0:
341,300,212555,6,0,P|408:337|468:313,2,120,6|6|6,0:0|0:0|0:0,0:0:0:0:
409,257,213622,1,6,0:0:0:0:
200,32,214688,6,0,P|256:12|312:32,2,120,6|6|6,0:0|0:0|0:0,0:0:0:0:
256,92,215755,1,6,0:0:0:0:
256,172,216021,2,0,L|255:218,2,40,0|0|4,0:0|0:0|0:0,0:0:0:0:
256,192,216421,12,2,222421,0:0:0:0:
