osu file format v14

[General]
AudioFilename: Houkago Stride - Kano.mp3
AudioLeadIn: 0
PreviewTime: 86221
Countdown: 0
SampleSet: Normal
StackLeniency: 0.7
Mode: 0
LetterboxInBreaks: 0
EpilepsyWarning: 1
WidescreenStoryboard: 0

[Editor]
Bookmarks: 9367,110155,167755,184821
DistanceSpacing: 1
BeatDivisor: 4
GridSize: 4
TimelineZoom: 3.099999

[Metadata]
Title:Houkago Stride
TitleUnicode:放課後ストライド
Artist:Kano
ArtistUnicode:鹿乃
Creator:Pho
Version:Extra Collab
Source:
Tags:After School Stride ミカグラ学園組曲 Mikagura Gakuen Kumikyoku School Suite Ichinomiya Eruna 一宮エルナ last note. first trip GUMI vocaloid Nico Nico Douga nnd guineaQ Milan- appleeaterx pkhg Backfire OzzyOzrock
BeatmapID:654220
BeatmapSetID:289985

[Difficulty]
HPDrainRate:7
CircleSize:4
OverallDifficulty:8
ApproachRate:9.5
SliderMultiplier:1.6
SliderTickRate:1

[Events]
//Background and Video events
0,0,"mikagura.jpg",0,0
Video,188,"houkago.avi"
//Break Periods
//Storyboard Layer 0 (Background)
//Storyboard Layer 1 (Fail)
//Storyboard Layer 2 (Pass)
//Storyboard Layer 3 (Foreground)
//Storyboard Sound Samples

[TimingPoints]
1355,266.666666666667,4,1,1,50,1,0
9888,-100,4,1,1,50,0,1
26955,-125,4,1,1,45,0,0
33355,-125,4,1,1,50,0,0
35621,-125,4,1,1,45,0,0
41888,-125,4,1,1,50,0,0
52688,-125,4,1,1,45,0,0
67488,-125,4,1,1,50,0,0
69620,-125,4,1,1,40,0,0
69621,-125,4,1,1,40,0,0
77621,-125,4,1,1,40,0,0
78155,-125,4,1,1,45,0,0
86688,-100,4,1,1,50,0,1
103755,-100,4,1,1,50,0,1
109888,-100,4,1,1,45,0,1
110155,-125,4,1,1,45,0,0
114421,-125,4,1,1,50,0,0
118688,-133.333333333333,4,1,1,45,0,0
122955,-100,4,1,1,50,0,0
127221,-133.333333333333,4,1,1,40,0,0
135755,-100,4,1,1,45,0,0
144288,-100,4,1,1,50,0,1
167755,-100,4,1,1,50,0,0
182688,-100,4,1,1,50,0,0
183221,-100,4,1,1,50,0,0
183755,-100,4,1,1,50,0,0
184288,-100,4,1,1,50,0,0
184821,-90.9090909090909,4,1,1,50,0,1
201888,-90.9090909090909,4,1,1,50,0,0
216421,-90.9090909090909,4,1,1,50,0,0
222421,-90.9090909090909,4,2,1,30,0,0

[Colours]
Combo1 : 4,123,97
Combo2 : 254,193,167
Combo3 : 158,81,48
Combo4 : 231,248,135
Combo5 : 255,107,36
Combo6 : 242,0,0
Combo7 : 14,182,119
Combo8 : 211,198,20

[HitObjects]
156,216,9355,6,0,L|108:228,4,40,8|8|4|4|4,0:3|0:3|0:3|0:3|0:0,0:0:0:0:
156,216,9888,6,0,P|188:248|292:224,1,160,0|8,0:0|0:0,0:0:0:0:
256,104,10288,1,0,0:0:0:0:
72,172,10421,2,0,P|64:216|68:256,1,80,0|0,0:0|0:0,0:0:0:0:
156,340,10688,1,8,0:0:0:0:
228,184,10821,6,0,L|244:24,1,160,4|0,0:0|0:0,0:0:0:0:
344,240,11221,2,0,L|348:320,1,80,8|0,0:0|0:0,0:0:0:0:
232,348,11488,1,0,0:0:0:0:
328,148,11621,1,0,0:0:0:0:
184,260,11755,1,8,0:0:0:0:
272,84,11888,6,0,P|320:64|412:124,1,160,4|0,0:0|0:0,0:0:0:0:
228,184,12288,2,0,P|184:188|148:184,1,80,8|0,0:0|0:0,0:0:0:0:
328,148,12555,1,0,0:0:0:0:
188,104,12688,2,0,L|196:24,1,80,0|8,0:0|0:0,0:0:0:0:
328,148,12955,6,0,L|340:312,1,160,4|0,0:0|0:0,0:0:0:0:
220,264,13355,2,0,L|228:184,1,80,8|0,0:0|0:0,0:0:0:0:
436,88,13621,2,0,L|444:168,1,80,8|0,0:0|0:0,0:0:0:0:
356,316,13888,1,8,0:0:0:0:
330,334,13954,1,8,0:3:0:0:
299,340,14021,1,4,0:3:0:0:
268,333,14087,1,4,0:3:0:0:
243,314,14155,6,0,P|200:284|112:328,1,160,4|8,0:0|0:0,0:0:0:0:
330,334,14555,1,0,0:0:0:0:
184,360,14688,1,0,0:0:0:0:
304,256,14821,2,0,L|308:176,1,80,0|8,0:0|0:0,0:0:0:0:
128,52,15088,6,0,L|140:220,1,160,4|0,0:0|0:0,0:0:0:0:
304,256,15488,2,0,L|308:176,1,80,8|0,0:0|0:0,0:0:0:0:
96,104,15755,2,0,L|100:184,1,80,0|0,0:0|0:0,0:0:0:0:
184,360,16021,1,8,0:0:0:0:
244,200,16155,6,0,P|284:176|380:220,1,160,4|0,0:0|0:0,0:0:0:0:
379,218,16555,1,8,0:0:0:0:
330,334,16688,1,0,0:0:0:0:
160,232,16821,2,0,P|160:192|168:148,1,80,0|0,0:0|0:0,0:0:0:0:
296,60,17088,1,8,0:0:0:0:
212,296,17221,6,0,P|164:316|80:256,1,160,4|0,0:0|0:0,0:0:0:0:
244,200,17621,1,8,0:0:0:0:
330,334,17755,1,0,0:0:0:0:
160,232,17888,2,0,P|156:188|156:152,1,80,8|0,0:0|0:0,0:0:0:0:
380,112,18155,1,8,0:0:0:0:
379,144,18221,1,8,0:0:0:0:
379,176,18288,1,8,0:0:0:0:
377,208,18355,1,8,0:0:0:0:
375,240,18421,6,0,P|360:284|256:304,1,160,4|8,0:0|0:0,0:0:0:0:
160,232,18821,1,0,0:0:0:0:
300,156,18955,2,0,P|301:196|296:236,1,80,0|0,0:0|0:0,0:0:0:0:
172,332,19221,1,8,0:0:0:0:
220,144,19355,6,0,P|264:84|352:96,1,160,4|0,0:0|0:0,0:0:0:0:
140,196,19755,2,0,P|131:154|132:112,1,80,8|0,0:0|0:0,0:0:0:0:
300,156,20021,1,0,0:0:0:0:
212,296,20155,1,0,0:0:0:0:
140,196,20288,1,8,0:0:0:0:
328,76,20421,6,0,L|320:236,1,160,4|0,0:0|0:0,0:0:0:0:
212,296,20821,2,0,P|172:300|128:296,1,80,8|0,0:0|0:0,0:0:0:0:
304,328,21088,1,0,0:0:0:0:
168,216,21221,1,0,0:0:0:0:
304,328,21355,1,8,0:0:0:0:
380,148,21488,6,0,P|352:92|256:88,1,160,4|0,0:0|0:0,0:0:0:0:
168,216,21888,2,0,P|212:224|256:216,1,80,8|0,0:0|0:0,0:0:0:0:
496,32,22155,2,0,P|452:24|408:32,1,80,8|0,0:0|0:0,0:0:0:0:
296,152,22421,1,8,0:0:0:0:
294,183,22487,1,8,0:3:0:0:
292,215,22554,1,4,0:3:0:0:
291,247,22621,1,4,0:3:0:0:
289,279,22688,6,0,P|348:332|420:312,1,160,4|8,0:0|0:0,0:0:0:0:
294,183,23088,1,0,0:0:0:0:
196,312,23221,1,0,0:0:0:0:
368,256,23355,2,0,L|372:168,1,80,0|8,0:0|0:0,0:0:0:0:
160,56,23621,6,0,L|168:216,1,160,4|0,0:0|0:0,0:0:0:0:
196,312,24021,1,8,0:0:0:0:
294,183,24155,1,0,0:0:0:0:
118,301,24288,2,0,P|156:312|196:312,1,80,0|0,0:0|0:0,0:0:0:0:
368,256,24555,1,8,0:0:0:0:
332,104,24688,6,0,P|254:102|208:164,1,160,4|0,0:0|0:0,0:0:0:0:
196,312,25088,1,8,0:0:0:0:
294,183,25221,1,0,0:0:0:0:
135,124,25355,2,0,P|131:164|136:204,1,80,0|0,0:0|0:0,0:0:0:0:
276,292,25621,1,8,0:0:0:0:
116,299,25755,6,0,L|276:292,1,160,4|0,0:0|0:0,0:0:0:0:
294,183,26155,1,8,0:0:0:0:
368,256,26288,1,0,0:0:0:0:
376,104,26421,1,8,0:0:0:0:
456,240,26555,1,0,0:0:0:0:
294,183,26688,1,8,0:0:0:0:
263,172,26754,1,8,0:0:0:0:
232,172,26821,1,8,0:0:0:0:
202,183,26888,1,8,0:0:0:0:
178,204,26955,6,0,P|148:208|112:200,1,64,4|0,0:0|0:0,0:0:0:0:
60,136,27221,1,8,0:0:0:0:
160,64,27354,1,0,0:0:0:0:
244,256,27488,2,0,L|236:384,1,128,0|8,0:0|0:0,0:0:0:0:
152,128,27888,6,0,L|159:64,1,64,0|0,0:0|0:0,0:0:0:0:
244,256,28155,1,0,0:0:0:0:
168,212,28288,2,0,P|128:212|92:224,1,64,8|0,0:0|0:0,0:0:0:0:
296,320,28555,2,0,P|327:327|358:326,1,64,0|0,0:0|0:0,0:0:0:0:
488,196,28821,2,0,P|457:189|426:190,1,64,8|0,0:0|0:0,0:0:0:0:
244,256,29088,5,0,0:0:0:0:
312,160,29221,2,0,L|316:92,1,64,0|8,0:0|0:0,0:0:0:0:
392,240,29488,1,0,0:0:0:0:
244,256,29621,2,0,P|208:268|120:232,1,128,0|8,0:0|0:0,0:0:0:0:
312,160,30021,1,0,0:0:0:0:
392,240,30155,6,0,L|388:304,1,64
196,184,30421,2,0,L|192:120,1,64,8|0,0:0|0:0,0:0:0:0:
276,56,30688,1,0,0:0:0:0:
244,256,30821,1,0,0:0:0:0:
312,160,30955,1,8,0:0:0:0:
172,128,31088,1,8,0:0:0:0:
356,92,31221,2,0,L|368:228,1,128,4|8,0:0|0:0,0:0:0:0:
244,256,31621,6,0,P|204:252|168:256,1,64,0|0,0:0|0:0,0:0:0:0:
40,288,31888,1,0,0:0:0:0:
40,288,32021,1,8,0:0:0:0:
172,128,32155,6,0,P|135:144|106:166,1,64,0|0,0:0|0:0,0:0:0:0:
132,336,32422,1,0,0:0:0:0:
132,336,32555,1,8,0:0:0:0:
244,256,32688,5,0,0:0:0:0:
172,128,32821,2,0,L|168:56,1,64,0|0,0:0|0:0,0:0:0:0:
36,224,33088,2,0,L|40:288,1,64,8|0,0:0|0:0,0:0:0:0:
244,256,33355,5,12,0:0:0:0:
132,336,33488,1,0,0:0:0:0:
140,228,33621,1,0,0:0:0:0:
292,336,33755,5,8,0:0:0:0:
168,284,33888,1,0,0:0:0:0:
288,204,34021,1,0,0:0:0:0:
204,176,34155,5,12,0:0:0:0:
340,264,34288,1,0,0:0:0:0:
224,292,34421,1,0,0:0:0:0:
376,324,34555,5,12,0:0:0:0:
208,368,34688,1,0,0:0:0:0:
276,252,34821,1,0,0:0:0:0:
124,316,34955,6,0,L|128:232,1,64,12|0,0:0|0:0,0:0:0:0:
360,124,35221,2,0,L|363:187,1,64,12|0,0:0|0:0,0:0:0:0:
224,292,35488,5,4,0:0:0:0:
204,176,35621,1,0,0:0:0:0:
128,280,35755,2,0,P|126:310|124:343,1,64,8|0,0:0|0:0,0:0:0:0:
276,252,36021,2,0,P|284:204|284:120,1,128,0|8,0:0|0:0,0:0:0:0:
180,60,36421,6,0,L|184:124,1,64,0|0,0:0|0:0,0:0:0:0:
364,188,36688,2,0,L|360:124,1,64,0|8,0:0|0:0,0:0:0:0:
280,60,36955,1,0,0:0:0:0:
136,200,37088,2,0,P|180:208|260:176,1,128,0|8,0:0|0:0,0:0:0:0:
368,88,37488,1,0,0:0:0:0:
300,260,37621,6,0,L|296:328,1,64,0|0,0:0|0:0,0:0:0:0:
140,264,37888,2,0,L|136:200,1,64,8|0,0:0|0:0,0:0:0:0:
252,176,38155,2,0,P|308:168|376:208,1,128,0|8,0:0|0:0,0:0:0:0:
136,200,38555,2,0,L|128:68,1,128,0|0,0:0|0:0,0:0:0:0:
323,88,38955,6,0,L|320:152,1,64,8|0,0:0|0:0,0:0:0:0:
160,280,39221,1,0,0:0:0:0:
240,176,39355,1,0,0:0:0:0:
371,246,39488,2,0,P|339:252|308:252,1,64,8|8,0:0|0:0,0:0:0:0:
128,112,39755,2,0,P|84:128|52:208,1,128,4|8,0:0|0:0,0:0:0:0:
222,288,40155,6,0,P|191:287|160:280,1,64,0|0,0:0|0:0,0:0:0:0:
240,176,40421,1,0,0:0:0:0:
240,176,40555,1,8,0:0:0:0:
348,324,40688,6,0,P|319:337|287:344,1,64,0|0,0:0|0:0,0:0:0:0:
152,192,40955,1,0,0:0:0:0:
152,192,41088,1,8,0:0:0:0:
288,92,41221,5,0,0:0:0:0:
320,232,41355,2,0,L|316:304,1,64,0|0,0:0|0:0,0:0:0:0:
152,192,41621,2,0,L|155:128,1,64,8|0,0:0|0:0,0:0:0:0:
400,104,41888,6,0,P|408:152|388:228,1,128,12|0,0:0|0:0,0:0:0:0:
112,104,42288,2,0,P|104:152|124:228,1,128,8|0,0:0|0:0,0:0:0:0:
421,158,42688,2,0,P|412:206|367:270,1,128,12|0,0:0|0:0,0:0:0:0:
90,158,43088,2,0,P|99:206|144:270,1,128,8|0,0:0|0:0,0:0:0:0:
256,328,43488,1,12,0:0:0:0:
204,224,43621,1,0,0:0:0:0:
340,296,43755,2,0,P|344:248|344:220,1,64,12|0,0:0|0:0,0:0:0:0:
207,96,44021,6,0,P|200:160|204:224,1,128,4|8,0:0|0:0,0:0:0:0:
340,296,44421,1,0,0:0:0:0:
371,175,44555,2,0,P|339:176|308:180,1,64,0|0,0:0|0:0,0:0:0:0:
204,312,44821,1,8,0:0:0:0:
84,236,44955,6,0,L|76:104,1,128,4|0,0:0|0:0,0:0:0:0:
184,168,45355,1,8,0:0:0:0:
120,316,45488,1,0,0:0:0:0:
184,168,45621,2,0,P|216:152|248:144,1,64,0|0,0:0|0:0,0:0:0:0:
372,176,45888,1,8,0:0:0:0:
251,351,46021,6,0,L|240:224,1,128,4|0,0:0|0:0,0:0:0:0:
324,88,46421,1,8,0:0:0:0:
316,240,46555,1,0,0:0:0:0:
243,144,46688,2,0,P|212:153|184:168,1,64,0|0,0:0|0:0,0:0:0:0:
120,316,46955,1,8,0:0:0:0:
80,184,47088,6,0,L|96:56,1,128,4|0,0:0|0:0,0:0:0:0:
244,144,47488,1,8,0:0:0:0:
316,240,47621,1,0,0:0:0:0:
296,72,47755,1,8,0:0:0:0:
232,240,47888,1,0,0:0:0:0:
384,176,48021,1,8,0:0:0:0:
384,176,48088,1,8,0:3:0:0:
384,176,48155,1,4,0:3:0:0:
160,80,48288,6,0,P|112:76|36:120,1,128,4|8,0:0|0:0,0:0:0:0:
116,228,48688,1,0,0:0:0:0:
244,144,48821,2,0,P|284:140|312:140,1,64,0|0,0:0|0:0,0:0:0:0:
372,252,49088,1,8,0:0:0:0:
275,331,49221,6,0,L|272:268,1,64,4|0,0:0|0:0,0:0:0:0:
396,96,49488,2,0,L|392:159,1,64,0|8,0:0|0:0,0:0:0:0:
276,332,49755,1,0,0:0:0:0:
192,200,49888,2,0,P|156:192|120:192,1,64,0|0,0:0|0:0,0:0:0:0:
276,332,50155,1,8,0:0:0:0:
295,152,50288,6,0,P|334:102|396:96,1,128,4|0,0:0|0:0,0:0:0:0:
264,228,50688,2,0,P|232:236|196:232,1,64,8|0,0:0|0:0,0:0:0:0:
308,336,50955,1,0,0:0:0:0:
380,236,51088,2,0,L|372:172,1,64,0|8,0:0|0:0,0:0:0:0:
268,48,51355,6,0,P|208:36|124:56,1,128,4|0,0:0|0:0,0:0:0:0:
64,240,51755,1,8,0:0:0:0:
136,144,51888,1,0,0:0:0:0:
168,284,52021,2,0,P|204:288|232:288,1,64,8|0,0:0|0:0,0:0:0:0:
380,236,52288,1,8,0:0:0:0:
404,216,52354,1,8,0:0:0:0:
420,188,52421,1,8,0:0:0:0:
424,157,52487,1,8,0:0:0:0:
416,126,52555,6,0,L|408:60,1,64,4|0,0:0|0:0,0:0:0:0:
404,216,52821,1,8,0:0:0:0:
316,112,52955,1,0,0:0:0:0:
404,216,53088,2,0,P|408:264|400:344,1,128,0|8,0:0|0:0,0:0:0:0:
312,268,53488,6,0,L|316:204,1,64,0|0,0:0|0:0,0:0:0:0:
492,244,53755,2,0,L|496:308,1,64,0|8,0:0|0:0,0:0:0:0:
392,348,54021,1,0,0:0:0:0:
244,336,54155,2,0,L|172:340,1,64,0|0,0:0|0:0,0:0:0:0:
200,176,54421,1,8,0:0:0:0:
312,268,54554,1,0,0:0:0:0:
100,296,54688,6,0,L|96:224,1,64,0|0,0:0|0:0,0:0:0:0:
203,112,54955,2,0,L|200:176,1,64,8|0,0:0|0:0,0:0:0:0:
192,256,55221,1,0,0:0:0:0:
108,136,55355,1,0,0:0:0:0:
192,256,55488,1,8,0:0:0:0:
288,136,55621,6,0,P|320:116|408:116,1,128,4|0,0:3|0:0,0:0:0:0:
312,268,56021,1,8,0:0:0:0:
204,112,56155,1,0,0:0:0:0:
192,256,56288,2,0,L|196:324,1,64,0|0,0:0|0:0,0:0:0:0:
368,272,56555,2,0,L|364:204,1,64,8|8,0:0|0:0,0:0:0:0:
268,84,56821,2,0,P|220:76|136:104,1,128,4|8,0:0|0:0,0:0:0:0:
88,192,57221,6,0,L|92:264,1,64,0|0,0:0|0:0,0:0:0:0:
128,352,57488,1,0,0:0:0:0:
184,232,57621,1,8,0:0:0:0:
315,320,57755,6,0,L|252:328,1,64,0|0,0:0|0:0,0:0:0:0:
88,192,58021,2,0,L|151:199,1,64,0|8,0:0|0:0,0:0:0:0:
128,352,58288,1,0,0:0:0:0:
268,240,58421,6,0,L|272:168,1,64,0|0,0:0|0:0,0:0:0:0:
48,52,58688,2,0,L|52:116,1,64,8|0,0:0|0:0,0:0:0:0:
128,352,58955,5,12,0:0:0:0:
184,232,59088,1,0,0:0:0:0:
88,196,59221,1,0,0:0:0:0:
200,316,59355,5,12,0:0:0:0:
88,268,59488,1,0,0:0:0:0:
184,176,59621,1,0,0:0:0:0:
128,296,59755,5,12,0:0:0:0:
280,316,59888,1,0,0:0:0:0:
236,208,60021,1,0,0:0:0:0:
200,316,60155,5,12,0:0:0:0:
328,232,60288,1,0,0:0:0:0:
196,208,60421,1,0,0:0:0:0:
380,88,60555,6,0,P|383:121|384:152,1,64,12|0,0:0|0:0,0:0:0:0:
120,252,60821,2,0,P|116:218|116:188,1,64,12|0,0:0|0:0,0:0:0:0:
264,84,61088,6,0,P|276:128|272:216,1,128,4|8,0:0|0:0,0:0:0:0:
200,316,61488,1,0,0:0:0:0:
312,312,61621,2,0,P|344:308|376:308,1,64,0|0,0:0|0:0,0:0:0:0:
200,316,61888,1,8,0:0:0:0:
108,244,62021,6,0,L|104:180,1,64,0|0,0:0|0:0,0:0:0:0:
264,84,62288,1,0,0:0:0:0:
268,212,62422,2,0,L|204:208,1,64,8|0,0:0|0:0,0:0:0:0:
72,88,62688,2,0,L|136:84,1,64,0|0,0:0|0:0,0:0:0:0:
268,212,62955,1,8,0:0:0:0:
264,84,63088,1,0,0:0:0:0:
104,180,63221,6,0,L|108:244,1,64,0|0,0:0|0:0,0:0:0:0:
200,316,63488,1,8,0:0:0:0:
192,140,63621,1,0,0:0:0:0:
330,217,63755,2,0,P|298:219|268:212,1,64,0|0,0:0|0:0,0:0:0:0:
184,56,64021,1,8,0:0:0:0:
404,180,64154,6,0,P|412:232|344:296,1,128,0|0,0:0|0:0,0:0:0:0:
200,316,64555,1,8,0:0:0:0:
330,217,64688,1,0,0:0:0:0:
328,360,64821,1,0,0:0:0:0:
224,212,64955,1,0,0:0:0:0:
100,288,65088,2,0,L|104:352,1,64,8|8,0:0|0:0,0:0:0:0:
231,84,65355,2,0,L|224:212,1,128,4|8,0:0|0:0,0:0:0:0:
328,360,65755,5,0,0:0:0:0:
200,316,65888,2,0,P|236:304|272:304,1,64,0|0,0:0|0:0,0:0:0:0:
416,360,66155,1,8,0:0:0:0:
416,360,66288,1,0,0:0:0:0:
484,224,66421,6,0,P|482:255|474:286,1,64,0|0,0:0|0:0,0:0:0:0:
328,360,66688,1,8,0:0:0:0:
328,360,66821,1,0,0:0:0:0:
228,212,66955,6,0,P|228:178|232:136,1,64,0|0,0:0|0:0,0:0:0:0:
486,160,67221,2,0,P|486:192|483:224,1,64,8|0,0:0|0:0,0:0:0:0:
416,360,67488,5,12,0:0:0:0:
376,216,67621,1,0,0:0:0:0:
476,268,67755,1,0,0:0:0:0:
328,360,67888,5,12,0:0:0:0:
396,288,68021,1,0,0:0:0:0:
288,192,68154,1,0,0:0:0:0:
252,328,68288,5,12,0:0:0:0:
348,240,68421,1,0,0:0:0:0:
400,360,68555,1,0,0:0:0:0:
240,276,68688,5,12,0:0:0:0:
328,352,68821,1,0,0:0:0:0:
344,208,68955,1,0,0:0:0:0:
168,320,69088,6,0,P|136:324|104:320,1,64,12|0,0:0|0:0,0:0:0:0:
392,136,69355,2,0,P|424:132|456:136,1,64,12|0,0:0|0:0,0:0:0:0:
224,224,69621,6,0,P|188:228|146:221,1,64,4|0,0:0|2:0,0:0:0:0:
104,160,69888,1,0,0:0:0:0:
276,172,70021,2,0,P|252:216|256:312,1,128,8|0,0:0|0:0,0:0:0:0:
328,327,70421,2,0,P|352:283|348:187,1,128
336,88,70821,1,8,0:0:0:0:
220,116,70955,2,0,L|152:112,1,64,0|0,2:0|0:0,0:0:0:0:
336,88,71221,2,0,L|464:96,1,128,8|0,0:0|0:0,0:0:0:0:
512,200,71621,1,0,2:0:0:0:
424,300,71755,6,0,P|380:312|312:272,1,128,4|0,0:0|0:0,0:0:0:0:
264,216,72155,2,0,P|280:264|260:348,1,128,8|0,0:0|0:0,0:0:0:0:
192,360,72555,1,0,0:0:0:0:
192,360,72821,2,0,L|120:356,1,64,0|8,0:0|0:0,0:0:0:0:
84,252,73088,2,0,L|156:248,1,64,0|0,2:0|0:0,0:0:0:0:
264,216,73355,2,0,P|272:168|252:84,1,128,8|0,0:0|0:0,0:0:0:0:
184,56,73755,1,8,0:0:0:0:
340,96,73888,6,0,P|384:104|440:48,1,128,4|0,0:0|0:0,0:0:0:0:
476,140,74288,2,0,P|465:203|468:276,1,128,8|0,0:0|2:0,0:0:0:0:
504,336,74688,1,0,0:0:0:0:
504,336,74955,2,0,L|436:340,1,64,0|8,0:0|0:0,0:0:0:0:
352,292,75221,2,0,L|288:288,1,64,0|0,2:0|0:0,0:0:0:0:
196,248,75488,2,0,P|144:240|88:304,1,128,8|0,0:0|0:0,0:0:0:0:
161,313,75888,1,0,2:0:0:0:
257,198,76021,6,0,L|250:67,1,128,4|0,0:0|0:0,0:0:0:0:
344,168,76421,1,8,0:0:0:0:
344,168,76555,2,0,L|340:240,1,64,0|0,2:0|0:0,0:0:0:0:
268,288,76821,1,0,0:0:0:0:
268,288,77088,2,0,L|200:292,1,64,0|8,0:0|0:0,0:0:0:0:
344,168,77355,2,0,L|412:172,1,64,0|0,2:0|0:0,0:0:0:0:
416,316,77621,1,8,0:0:0:0:
256,200,77888,5,8,0:0:0:0:
224,197,77954,1,8,0:3:0:0:
193,204,78021,1,4,0:3:0:0:
166,222,78088,1,4,0:3:0:0:
146,246,78155,6,0,L|140:328,1,64,4|0,0:0|0:0,0:0:0:0:
328,355,78421,2,0,L|324:292,1,64,8|0,0:0|0:0,0:0:0:0:
228,132,78688,2,0,L|224:196,1,64,0|0,0:0|0:0,0:0:0:0:
236,300,78955,1,8,0:0:0:0:
362,200,79088,2,0,P|330:200|300:208,1,64,0|0,0:0|0:0,0:0:0:0:
85,328,79355,2,0,P|116:336|148:336,1,64,0|0,0:0|0:0,0:0:0:0:
236,300,79621,1,0,0:0:0:0:
144,152,79755,2,0,L|148:88,1,64,0|0,0:0|0:0,0:0:0:0:
360,136,80021,2,0,L|364:200,1,64,8|8,0:0|0:0,0:0:0:0:
236,300,80288,6,0,P|192:320|112:300,1,128,4|8,0:0|0:0,0:0:0:0:
144,152,80688,1,0,0:0:0:0:
320,272,80821,2,0,P|321:303|316:335,1,64,0|0,0:0|0:0,0:0:0:0:
144,152,81088,2,0,P|139:120|140:88,1,64,8|0,0:0|0:0,0:0:0:0:
268,136,81355,1,0,0:0:0:0:
116,240,81488,2,0,L|48:244,1,64,0|0,0:0|0:0,0:0:0:0:
168,348,81755,1,0,0:0:0:0:
216,200,81888,2,0,L|220:124,1,64,0|0,0:0|0:0,0:0:0:0:
128,44,82155,1,8,0:0:0:0:
116,240,82288,1,8,0:0:0:0:
268,136,82421,6,0,P|332:120|400:128,1,128,4|8,0:0|0:0,0:0:0:0:
216,200,82821,2,0,P|180:208|148:208,1,64,0|0,0:0|0:0,0:0:0:0:
96,116,83088,1,0,0:0:0:0:
296,212,83221,2,0,L|292:280,1,64,8|0,0:0|0:0,0:0:0:0:
96,116,83488,2,0,L|92:48,1,64,0|0,0:0|0:0,0:0:0:0:
216,200,83755,1,8,0:0:0:0:
80,272,83888,1,0,0:0:0:0:
260,344,84021,2,0,P|296:348|328:344,1,64,0|0,0:0|0:0,0:0:0:0:
112,200,84288,2,0,P|80:197|48:201,1,64,8|8,0:0|0:0,0:0:0:0:
188,288,84555,5,4,0:0:0:0:
328,248,84821,1,8,0:0:0:0:
188,288,85088,5,8,0:0:0:0:
352,216,85221,1,0,0:0:0:0:
176,176,85355,1,8,0:0:0:0:
272,324,85488,1,8,0:0:0:0:
240,60,85621,1,0,0:0:0:0:
256,200,86288,5,0,0:0:0:0:
188,288,86421,1,4,0:0:0:0:
364,296,86555,1,0,0:0:0:0:
302,131,86688,6,0,P|227:118|176:176,1,160,0|8,0:0|0:0,0:0:0:0:
188,288,87088,1,8,0:0:0:0:
380,172,87221,2,0,P|384:128|380:92,1,80,0|0,0:0|0:0,0:0:0:0:
264,28,87488,1,8,0:0:0:0:
336,248,87621,6,0,P|376:256|424:252,1,80,0|0,0:0|0:0,0:0:0:0:
192,52,87888,2,0,P|152:44|104:48,1,80,0|8,0:0|0:0,0:0:0:0:
292,140,88155,6,0,P|296:92|296:48,1,80
116,232,88422,2,0,P|116:271|120:311,1,80,0|8,0:0|0:0,0:0:0:0:
336,248,88688,1,0,0:0:0:0:
152,156,88821,6,0,P|104:152|68:160,1,80,4|0,0:0|0:0,0:0:0:0:
28,328,89088,1,8,0:0:0:0:
216,268,89221,1,8,0:0:0:0:
120,311,89355,2,0,P|116:271|116:232,1,80,0|0,0:0|0:0,0:0:0:0:
224,72,89621,1,8,0:0:0:0:
336,248,89755,6,0,L|328:340,1,80,0|0,0:0|0:0,0:0:0:0:
145,76,90021,2,0,L|152:156,1,80,0|8,0:0|0:0,0:0:0:0:
324,152,90288,6,0,L|317:231,1,80
113,232,90555,2,0,L|120:312,1,80,0|8,0:0|0:0,0:0:0:0:
327,315,90821,5,8,0:0:0:0:
411,255,90955,2,0,L|431:175,1,80,4|0,0:0|0:0,0:0:0:0:
286,332,91221,5,8,0:0:0:0:
385,295,91355,2,0,L|426:221,1,80,0|0,0:0|0:0,0:0:0:0:
242,339,91621,5,0,0:0:0:0:
350,328,91755,2,0,L|410:266,1,80,8|0,0:0|0:0,0:0:0:0:
276,112,92021,2,0,L|284:212,1,80,0|0,0:0|2:0,0:0:0:0:
242,339,92288,1,8,0:0:0:0:
384,172,92421,1,0,0:0:0:0:
192,252,92555,2,0,P|149:258|108:256,1,80,0|0,0:0|0:0,0:0:0:0:
352,84,92821,2,0,P|391:82|431:88,1,80,8|0,0:0|0:0,0:0:0:0:
144,160,93088,6,0,L|136:80,1,80,4|0,0:0|0:0,0:0:0:0:
192,252,93355,1,8,0:0:0:0:
138,187,93488,6,0,L|109:110,1,80,0|0,0:0|0:0,0:0:0:0:
208,268,93755,1,0,0:0:0:0:
140,216,93888,6,0,L|91:148,1,80,8|0,0:0|0:0,0:0:0:0:
228,288,94155,2,0,P|267:286|312:292,1,80,0|0,0:0|2:0,0:0:0:0:
472,176,94421,2,0,P|432:180|392:179,1,80,8|0,0:0|0:0,0:0:0:0:
280,176,94688,1,8,0:0:0:0:
404,284,94821,1,0,0:0:0:0:
280,176,94955,1,8,0:0:0:0:
242,162,95021,1,8,0:3:0:0:
203,167,95088,1,4,0:3:0:0:
169,188,95155,1,4,0:3:0:0:
148,222,95221,6,0,L|156:312,1,80,4|0,0:0|0:0,0:0:0:0:
252,360,95488,1,8,0:0:0:0:
280,176,95621,1,8,0:0:0:0:
155,302,95755,2,0,L|148:222,1,80
232,92,96021,1,8,0:0:0:0:
446,189,96155,6,0,P|407:191|368:184,1,80,0|0,0:0|0:0,0:0:0:0:
88,144,96421,2,0,P|127:136|166:138,1,80,0|8,0:0|0:0,0:0:0:0:
316,336,96688,6,0,P|322:296|324:256,1,80,0|0,0:0|0:0,0:0:0:0:
80,64,96955,2,0,P|82:104|88:144,1,80,0|8,0:0|0:0,0:0:0:0:
155,302,97221,1,0,0:0:0:0:
280,176,97355,6,0,P|320:168|360:168,1,80,4|0,0:0|0:0,0:0:0:0:
316,336,97621,1,8,0:0:0:0:
184,208,97755,1,8,0:0:0:0:
316,336,97888,2,0,L|324:248,1,80,0|0,0:0|0:0,0:0:0:0:
304,72,98155,1,8,0:0:0:0:
184,208,98288,6,0,L|100:216,1,80,0|0,0:0|0:0,0:0:0:0:
316,336,98555,2,0,L|395:343,1,80,0|8,0:0|0:0,0:0:0:0:
144,336,98821,6,0,L|36:344,1,80,0|0,0:0|0:0,0:0:0:0:
368,196,99088,2,0,L|447:203,1,80,0|8,0:0|0:0,0:0:0:0:
316,336,99355,5,0,0:0:0:0:
184,208,99488,2,0,L|224:288,1,80,4|0,0:0|0:0,0:0:0:0:
277,350,99755,5,8,0:0:0:0:
180,188,99888,2,0,L|198:278,1,80,8|0,0:0|0:0,0:0:0:0:
234,354,100155,5,0,0:0:0:0:
182,168,100288,2,0,L|176:262,1,80,8|0,0:0|0:0,0:0:0:0:
192,346,100555,1,0,0:0:0:0:
189,149,100688,1,0,0:0:0:0:
120,284,100821,2,0,P|76:288|40:280,1,80,8|0,0:0|0:0,0:0:0:0:
148,80,101088,2,0,P|187:72|226:76,1,80,0|0,0:0|0:0,0:0:0:0:
280,316,101355,1,8,0:0:0:0:
189,149,101488,1,0,0:0:0:0:
356,88,101621,6,0,L|352:180,1,80,4|0,0:0|0:0,0:0:0:0:
280,316,101888,1,8,0:0:0:0:
189,149,102021,2,0,P|144:144|104:148,1,80,8|0,0:0|0:0,0:0:0:0:
120,288,102288,1,0,0:0:0:0:
240,208,102421,6,0,P|268:152|220:76,1,160,8|0,0:0|0:0,0:0:0:0:
152,220,102821,1,0,0:0:0:0:
280,316,102955,2,0,L|368:320,1,80,8|8,0:0|0:0,0:0:0:0:
240,208,103221,1,8,0:0:0:0:
120,288,103355,1,8,0:3:0:0:
328,232,103488,2,0,P|328:192|316:148,1,80,4|0,0:3|0:0,0:0:0:0:
172,68,103755,6,0,P|96:60|48:128,1,160,4|8,0:0|0:0,0:0:0:0:
128,240,104155,1,0,0:0:0:0:
252,116,104288,2,0,P|260:76|256:36,1,80,8|0,0:0|0:0,0:0:0:0:
48,204,104555,2,0,P|44:243|52:282,1,80,8|0,0:0|0:0,0:0:0:0:
168,344,104821,1,8,0:0:0:0:
168,148,104955,1,0,0:0:0:0:
311,264,105088,6,0,P|271:268|232:264,1,80,8|0,0:0|0:0,0:0:0:0:
88,148,105355,2,0,P|127:143|167:147,1,80,8|0,0:0|0:0,0:0:0:0:
311,264,105621,1,8,0:0:0:0:
276,104,105755,1,0,0:0:0:0:
276,104,105821,1,0,0:0:0:0:
276,104,105888,6,0,L|272:188,1,80,4|0,0:0|0:0,0:0:0:0:
260,356,106155,1,8,0:0:0:0:
128,240,106288,1,0,0:0:0:0:
312,264,106421,2,0,P|356:268|400:260,1,80,8|0,0:0|0:0,0:0:0:0:
176,92,106688,2,0,P|136:86|96:90,1,80,8|0,0:0|0:0,0:0:0:0:
128,240,106955,5,8,0:0:0:0:
276,104,107088,1,0,0:0:0:0:
312,264,107221,1,8,0:0:0:0:
196,164,107355,1,0,0:0:0:0:
312,264,107488,6,0,P|348:268|396:260,1,80,8|8,0:0|0:0,0:0:0:0:
240,84,107755,2,0,P|200:77|160:81,1,80,8|8,0:0|0:0,0:0:0:0:
128,240,108021,5,4,0:0:0:0:
196,164,108155,1,0,0:0:0:0:
276,268,108288,1,0,0:0:0:0:
208,336,108421,5,4,0:0:0:0:
172,228,108555,1,0,0:0:0:0:
264,152,108688,1,0,0:0:0:0:
288,296,108821,5,0,0:0:0:0:
160,292,108955,1,0,0:0:0:0:
336,196,109088,1,4,0:0:0:0:
336,196,110155,6,0,L|340:104,1,64,6|0,0:0|0:0,0:0:0:0:
392,264,110421,2,0,L|394:327,1,64,0|0,0:0|0:0,0:0:0:0:
453,201,110688,2,0,P|395:177|336:196,1,128,8|0,0:0|0:0,0:0:0:0:
192,276,111088,2,0,P|249:300|309:281,1,128,8|8,0:0|0:0,0:0:0:0:
336,104,111488,1,0,0:0:0:0:
256,220,111621,1,0,0:0:0:0:
168,128,111755,2,0,L|164:64,1,64,8|0,0:0|2:0,0:0:0:0:
336,192,112021,2,0,L|332:260,1,64,2|8,0:0|0:0,0:0:0:0:
132,332,112288,5,2,0:0:0:0:
180,196,112421,1,0,0:0:0:0:
223,347,112555,2,0,P|191:352|160:348,1,64,0|0,0:0|0:0,0:0:0:0:
192,176,112821,2,0,P|240:144|312:164,1,128,10|0,0:0|0:0,0:0:0:0:
344,256,113221,1,10,0:0:0:0:
396,156,113355,2,0,L|392:92,1,64,0|8,0:0|0:0,0:0:0:0:
256,220,113621,2,0,L|252:284,1,64,0|8,0:0|0:0,0:0:0:0:
300,376,113888,5,0,0:0:0:0:
248,200,114022,1,0,0:0:0:0:
164,348,114155,1,8,0:0:0:0:
133,355,114221,1,8,0:0:0:0:
101,354,114288,1,8,0:0:0:0:
70,344,114355,1,8,0:0:0:0:
44,326,114421,2,0,P|46:257|40:168,1,128,6|8,0:0|0:0,0:0:0:0:
164,72,114821,6,0,P|170:107|168:156,1,64,0|2,0:0|0:0,0:0:0:0:
124,244,115088,1,0,0:0:0:0:
124,244,115221,1,8,0:0:0:0:
264,180,115355,6,0,P|240:208|203:238,1,64,0|0,0:0|0:0,0:0:0:0:
107,262,115622,1,0,0:0:0:0:
107,262,115755,1,8,0:0:0:0:
232,336,115888,1,0,0:0:0:0:
164,168,116021,6,0,L|160:88,1,64,2|0,0:0|0:0,0:0:0:0:
404,208,116288,2,0,L|400:271,1,64,10|0,0:0|0:0,0:0:0:0:
232,336,116555,5,14,0:0:0:0:
268,204,116688,1,0,0:0:0:0:
368,256,116821,1,0,0:0:0:0:
204,212,116955,5,14,0:0:0:0:
332,252,117088,1,0,0:0:0:0:
236,320,117221,1,0,0:0:0:0:
312,204,117355,5,14,0:0:0:0:
380,308,117488,1,0,0:0:0:0:
240,264,117621,1,0,0:0:0:0:
312,356,117755,5,14,0:0:0:0:
368,216,117888,1,0,0:0:0:0:
236,280,118021,1,0,0:0:0:0:
184,164,118155,2,0,P|176:124|184:88,1,64,6|0,0:0|0:0,0:0:0:0:
312,20,118421,2,0,P|314:64|316:100,1,64,6|0,0:0|0:0,0:0:0:0:
319,242,118688,6,0,P|359:266|439:250,1,120.000004577637,6|0,0:0|0:0,0:0:0:0:
383,186,119088,1,0,0:0:0:0:
263,328,119221,2,0,L|143:312,1,120.000004577637,8|0,0:0|0:0,0:0:0:0:
49,162,119621,2,0,P|45:118|57:82,1,60.0000022888184,8|0,0:0|0:0,0:0:0:0:
194,186,119888,2,0,P|198:234|194:250,1,60.0000022888184,8|0,0:0|0:0,0:0:0:0:
121,128,120155,1,0,0:0:0:0:
216,56,120288,2,0,L|288:44,1,60.0000022888184,8|0,0:0|0:0,0:0:0:0:
376,182,120555,1,2,0:0:0:0:
400,25,120688,1,8,0:0:0:0:
296,140,120821,6,0,P|288:180|320:260,1,120.000004577637,2|0,0:0|0:0,0:0:0:0:
458,191,121221,1,2,0:0:0:0:
296,140,121355,2,0,L|212:144,1,60.0000022888184,8|0,0:0|0:0,0:0:0:0:
122,246,121621,1,2,0:0:0:0:
85,109,121755,2,0,P|81:65|85:45,1,60.0000022888184,8|0,0:0|0:0,0:0:0:0:
213,172,122021,2,0,P|217:128|213:108,1,60.0000022888184,10|0,0:0|0:0,0:0:0:0:
256,248,122288,1,8,0:0:0:0:
364,128,122421,6,0,B|368:144|368:144|356:176|356:176|368:208|368:208,1,60.0000022888184,2|0,0:0|0:0,0:0:0:0:
236,336,122688,1,8,0:0:0:0:
208,324,122755,1,8,0:0:0:0:
184,304,122821,1,8,0:0:0:0:
172,276,122888,1,8,0:0:0:0:
172,236,122955,2,0,P|192:188|224:168,1,80,6|0,0:0|0:0,0:0:0:0:
332,228,123221,1,10,0:0:0:0:
388,128,123355,6,0,P|352:96|304:88,1,80,0|0,0:0|0:0,0:0:0:0:
224,168,123621,1,0,0:0:0:0:
224,168,123755,1,10,0:0:0:0:
112,60,123888,5,0,0:0:0:0:
76,148,124021,2,0,P|112:192|220:172,1,160,0|8,0:0|0:0,0:0:0:0:
320,80,124421,1,0,0:0:0:0:
384,160,124555,2,0,P|392:200|388:240,1,80,2|0,0:0|0:0,0:0:0:0:
234,350,124821,2,0,P|232:311|240:272,1,80,10|0,0:0|0:0,0:0:0:0:
360,272,125088,5,14,0:0:0:0:
312,188,125221,1,0,0:0:0:0:
264,272,125355,1,0,0:0:0:0:
292,180,125488,5,14,0:0:0:0:
176,208,125621,1,0,0:0:0:0:
216,116,125755,1,0,0:0:0:0:
248,240,125888,5,14,0:0:0:0:
148,240,126021,1,0,0:0:0:0:
216,328,126155,1,0,0:0:0:0:
304,284,126288,5,14,0:0:0:0:
400,340,126421,1,0,0:0:0:0:
388,232,126555,1,0,0:0:0:0:
280,208,126688,2,0,P|232:212|200:200,1,80,10|0,0:0|0:0,0:0:0:0:
60,100,126955,2,0,P|108:96|140:108,1,80,10|0,0:0|0:0,0:0:0:0:
96,244,127221,6,0,P|88:200|96:172,1,60.0000022888184,4|0,0:0|2:0,0:0:0:0:
200,272,127488,1,0,0:0:0:0:
252,136,127621,2,0,P|260:92|252:16,1,120.000004577637,8|0,0:0|2:0,0:0:0:0:
160,88,128021,2,0,P|152:132|160:208,1,120.000004577637
260,272,128421,2,0,P|288:275|340:272,1,60.0000022888184,8|0,0:0|2:0,0:0:0:0:
238,104,128688,1,0,0:0:0:0:
160,232,128821,2,0,P|131:235|80:232,1,60.0000022888184,8|0,0:0|2:0,0:0:0:0:
56,104,129088,2,0,P|84:107|136:104,1,60.0000022888184,0|8,0:0|0:0,0:0:0:0:
248,176,129355,6,0,P|244:228|256:304,1,120.000004577637,4|0,0:0|0:0,0:0:0:0:
376,239,129755,2,0,P|384:180|376:121,1,120.000004577637,8|0,0:0|2:0,0:0:0:0:
172,200,130155,2,0,P|216:180|296:192,1,120.000004577637,0|0,0:0|0:0,0:0:0:0:
240,284,130555,2,0,P|244:319|240:352,1,60.0000022888184,8|0,0:0|2:0,0:0:0:0:
118,328,130821,1,0,0:0:0:0:
76,160,130955,2,0,P|71:195|76:228,1,60.0000022888184,8|0,0:0|2:0,0:0:0:0:
204,232,131221,1,0,0:0:0:0:
76,238,131355,1,8,0:0:0:0:
168,116,131488,6,0,P|216:88|284:104,1,120.000004577637,4|0,0:0|0:0,0:0:0:0:
432,172,131888,2,0,P|384:200|316:184,1,120.000004577637,8|0,0:0|2:0,0:0:0:0:
368,120,132288,2,0,L|368:56,1,60.0000022888184,0|0,0:0|2:0,0:0:0:0:
236,164,132555,1,0,0:0:0:0:
236,164,132688,2,0,L|240:232,1,60.0000022888184,8|0,0:0|2:0,0:0:0:0:
356,332,132955,1,0,0:0:0:0:
356,332,133088,2,0,P|364:300|360:264,1,60.0000022888184,8|0,1:0|2:0,0:0:0:0:
184,264,133355,2,0,P|148:272|124:296,1,60.0000022888184,0|0,0:0|2:0,0:0:0:0:
272,332,133621,6,0,P|284:296|272:200,1,120.000004577637,4|0,0:0|0:0,0:0:0:0:
176,168,134021,2,0,P|116:168|44:176,1,120.000004577637,8|0,0:0|0:0,0:0:0:0:
232,68,134421,2,0,P|272:60|316:68,1,60.0000022888184,0|0,0:0|2:0,0:0:0:0:
384,172,134688,1,0,0:0:0:0:
440,96,134821,2,0,P|448:60|444:28,1,60.0000022888184,8|0,0:0|2:0,0:0:0:0:
384,265,135088,2,0,P|384:305|400:341,1,60.0000022888184,0|10,0:0|0:0,0:0:0:0:
216,268,135489,5,8,0:0:0:0:
188,260,135555,1,8,0:3:0:0:
156,260,135622,1,4,0:3:0:0:
128,272,135689,1,4,0:3:0:0:
104,290,135755,6,0,P|84:246|92:198,1,80,6|0,0:0|0:0,0:0:0:0:
176,80,136021,2,0,P|196:124|188:172,1,80,10|0,0:0|0:0,0:0:0:0:
280,344,136288,2,0,P|260:300|268:252,1,80,0|0,0:0|0:0,0:0:0:0:
328,128,136555,1,10,0:0:0:0:
384,200,136688,2,0,P|432:212|468:204,1,80,0|0,0:0|0:0,0:0:0:0:
372,56,136955,2,0,P|320:48|288:56,1,80,0|8,0:0|0:0,0:0:0:0:
184,168,137221,1,0,0:0:0:0:
144,96,137355,2,0,P|196:88|228:96,1,80,0|0,0:0|0:0,0:0:0:0:
237,248,137621,1,10,0:0:0:0:
328,152,137755,1,8,0:0:0:0:
324,296,137888,6,0,P|288:332|162:314,1,160,6|10,0:0|0:0,0:0:0:0:
72,168,138288,2,0,P|64:120|64:79,1,80,0|0,0:0|0:0,0:0:0:0:
188,200,138555,1,0,0:0:0:0:
264,76,138688,2,0,P|304:60|348:64,1,80,10|0,0:0|0:0,0:0:0:0:
360,204,138955,2,0,P|320:220|276:216,1,80,0|0,0:0|0:0,0:0:0:0:
184,112,139221,1,8,0:0:0:0:
309,140,139355,1,0,0:0:0:0:
197,270,139488,2,0,P|185:210|185:110,1,160,0|10,0:0|0:0,0:0:0:0:
301,39,139888,1,8,0:0:0:0:
361,206,140021,6,0,L|360:306,1,80,6|0,0:0|0:0,0:0:0:0:
278,351,140288,1,10,0:0:0:0:
124,257,140421,2,0,P|175:254|229:261,1,80,0|0,0:0|0:0,0:0:0:0:
80,342,140688,1,0,0:0:0:0:
48,199,140821,2,0,P|47:132|102:38,1,160,10|0,0:0|0:0,0:0:0:0:
183,111,141221,1,0,0:0:0:0:
314,112,141355,2,0,P|319:71|301:15,1,80,10|0,0:0|0:0,0:0:0:0:
168,187,141621,2,0,L|256:187,1,80,0|0,0:0|0:0,0:0:0:0:
406,254,141888,2,0,L|318:254,1,80,10|8,0:0|0:0,0:0:0:0:
112,318,142155,5,6,0:0:0:0:
112,318,142421,2,0,P|96:277|92:238,1,80,8|0,0:0|0:0,0:0:0:0:
212,225,142688,2,0,P|222:181|215:136,1,80,10|0,0:0|0:0,0:0:0:0:
345,131,142955,2,0,P|328:95|321:40,1,80,10|0,0:0|0:0,0:0:0:0:
166,55,143221,5,10,0:0:0:0:
107,131,143355,1,0,0:0:0:0:
212,225,143488,1,10,0:0:0:0:
307,214,143621,1,0,0:0:0:0:
218,128,143755,2,0,P|204:187|211:226,1,80,10|8,0:0|0:0,0:0:0:0:
268,356,144021,1,8,0:0:0:0:
344,288,144155,1,8,0:0:0:0:
437,349,144288,6,0,P|453:309|449:251,1,80,6|0,0:0|0:0,0:0:0:0:
373,146,144555,1,8,0:0:0:0:
349,259,144688,1,8,0:0:0:0:
211,243,144821,2,0,P|257:219|353:266,1,160,2|8,0:0|0:0,0:0:0:0:
277,378,145221,6,0,P|273:337|276:295,1,80,2|0,0:0|0:0,0:0:0:0:
332,45,145488,2,0,P|343:108|337:144,1,80,2|8,0:0|0:0,0:0:0:0:
177,178,145755,6,0,P|124:186|93:181,1,80,2|0,0:0|0:0,0:0:0:0:
158,24,146021,2,0,P|210:41|240:69,1,80,2|8,0:0|0:0,0:0:0:0:
274,216,146288,1,0,0:0:0:0:
391,122,146421,6,0,L|311:127,1,80,6|0,0:0|0:0,0:0:0:0:
186,279,146688,1,8,0:0:0:0:
89,183,146821,1,8,0:0:0:0:
186,119,146955,2,0,P|197:170|188:207,1,80,2|0,0:0|0:0,0:0:0:0:
239,325,147221,1,8,0:0:0:0:
362,262,147355,6,0,P|409:256|455:248,1,80,2|0,0:0|0:0,0:0:0:0:
278,139,147621,2,0,P|322:134|365:132,1,80,2|8,0:0|0:0,0:0:0:0:
178,161,147888,6,0,P|138:160|99:154,1,80,2|0,0:0|0:0,0:0:0:0:
267,269,148155,2,0,P|227:276|188:280,1,80,2|8,0:0|0:0,0:0:0:0:
179,161,148421,5,0,0:0:0:0:
344,89,148555,2,0,P|346:136|331:181,1,80,6|0,0:0|0:0,0:0:0:0:
448,94,148821,5,10,0:0:0:0:
416,209,148955,2,0,P|381:241|338:259,1,80,8|0,0:0|0:0,0:0:0:0:
498,246,149221,5,0,0:0:0:0:
396,339,149355,2,0,P|349:341|303:327,1,80,10|0,0:0|0:0,0:0:0:0:
209,232,149621,1,0,0:0:0:0:
292,323,149755,1,0,0:0:0:0:
333,199,149888,2,0,P|339:151|332:119,1,80,10|0,0:0|0:0,0:0:0:0:
115,79,150155,2,0,P|107:128|119:175,1,80,0|0,0:0|0:0,0:0:0:0:
202,312,150421,2,0,P|209:265|208:223,1,80,10|0,0:0|0:0,0:0:0:0:
189,55,150688,6,0,P|231:83|287:81,1,80,6|0,0:0|0:0,0:0:0:0:
374,93,150955,1,10,0:0:0:0:
254,203,151088,6,0,P|303:193|341:152,1,80,8|0,0:0|0:0,0:0:0:0:
375,94,151355,1,0,0:0:0:0:
399,262,151488,6,0,P|427:219|425:163,1,80,10|0,0:0|0:0,0:0:0:0:
295,67,151755,2,0,P|253:61|205:67,1,80,0|0,0:0|0:0,0:0:0:0:
84,224,152021,2,0,P|125:229|174:224,1,80,10|0,0:0|0:0,0:0:0:0:
212,79,152288,1,10,0:0:0:0:
182,224,152421,1,0,0:0:0:0:
327,288,152555,1,8,0:0:0:0:
366,291,152621,1,8,0:3:0:0:
399,269,152688,1,4,0:3:0:0:
419,234,152755,1,4,0:3:0:0:
418,194,152821,6,0,L|359:104,1,80,6|0,0:0|0:0,0:0:0:0:
266,98,153088,1,8,0:0:0:0:
334,211,153221,1,8,0:0:0:0:
191,152,153355,2,0,P|143:164|114:192,1,80,2|0,0:0|0:0,0:0:0:0:
187,352,153621,1,8,0:0:0:0:
258,290,153755,6,0,P|256:245|260:197,1,80,2|0,0:0|0:0,0:0:0:0:
130,32,154021,2,0,P|132:77|128:125,1,80,2|8,0:0|0:0,0:0:0:0:
76,276,154288,6,0,P|119:283|163:280,1,80,2|0,0:0|0:0,0:0:0:0:
399,160,154555,2,0,P|350:149|302:149,1,80,2|8,0:0|0:0,0:0:0:0:
208,215,154821,1,0,0:0:0:0:
150,113,154955,6,0,P|189:90|228:90,1,80,6|0,0:0|0:0,0:0:0:0:
312,197,155221,1,8,0:0:0:0:
399,77,155355,1,8,0:0:0:0:
311,197,155488,2,0,P|314:256|308:287,1,80,2|0,0:0|0:0,0:0:0:0:
204,361,155755,1,8,0:0:0:0:
75,278,155888,6,0,P|134:262|179:263,1,80,2|0,0:0|0:0,0:0:0:0:
396,218,156155,2,0,P|337:202|292:203,1,80,2|8,0:0|0:0,0:0:0:0:
131,142,156421,6,0,P|143:84|143:54,1,80,2|0,0:0|0:0,0:0:0:0:
261,283,156688,2,0,P|264:337|274:371,1,80,2|8,0:0|0:0,0:0:0:0:
451,326,156955,5,8,0:0:0:0:
350,301,157088,2,0,P|341:255|342:198,1,80,4|0,0:0|0:0,0:0:0:0:
285,384,157355,5,10,0:0:0:0:
190,310,157488,2,0,P|189:263|200:207,1,80,8|0,0:0|0:0,0:0:0:0:
94,373,157755,5,0,0:0:0:0:
36,276,157888,2,0,P|43:229|63:176,1,80,10|0,0:0|0:0,0:0:0:0:
133,115,158155,2,0,L|229:115,1,80,0|0,0:0|0:0,0:0:0:0:
317,269,158421,2,0,P|331:222|321:179,1,80,10|0,0:0|0:0,0:0:0:0:
381,32,158688,2,0,P|382:82|391:120,1,80,2|0,0:0|0:0,0:0:0:0:
275,93,158955,1,10,0:0:0:0:
391,132,159088,1,8,0:0:0:0:
245,233,159221,6,0,L|160:242,1,80,4|0,0:0|0:0,0:0:0:0:
333,284,159488,1,10,0:0:0:0:
341,133,159621,6,0,L|256:142,1,80,8|0,0:0|0:0,0:0:0:0:
117,187,159888,1,0,0:0:0:0:
39,73,160021,6,0,P|82:42|186:86,1,160,10|0,0:0|0:0,0:0:0:0:
195,184,160421,1,0,0:0:0:0:
311,110,160555,1,10,0:0:0:0:
216,184,160688,1,8,0:0:0:0:
260,291,160821,2,0,L|255:378,1,80,10|8,0:0|0:3,0:0:0:0:
400,272,161088,2,0,L|405:185,1,80,4|4,0:3|0:3,0:0:0:0:
337,338,161355,5,4,0:0:0:0:
337,338,161621,2,0,L|246:328,1,80,10|0,0:0|0:0,0:0:0:0:
69,273,161888,2,0,L|160:263,1,80,10|0,0:0|0:0,0:0:0:0:
385,203,162155,2,0,L|294:193,1,80,10|0,0:0|0:0,0:0:0:0:
137,112,162421,5,10,0:0:0:0:
200,31,162555,1,0,0:0:0:0:
230,200,162688,2,0,P|229:246|207:302,1,80,10|0,0:0|0:0,0:0:0:0:
72,148,162955,2,0,L|160:129,1,80,10|0,0:0|0:0,0:0:0:0:
248,86,163221,1,10,0:0:0:0:
327,250,163355,1,0,0:0:0:0:
327,250,163421,1,0,0:0:0:0:
327,250,163488,6,0,P|315:196|329:148,1,80,4|0,0:0|0:0,0:0:0:0:
427,28,163755,2,0,P|438:81|425:130,1,80,10|0,0:0|0:0,0:0:0:0:
316,127,164021,1,10,0:0:0:0:
443,200,164155,1,0,0:0:0:0:
328,251,164288,2,0,P|294:273|240:277,1,80,10|0,0:0|0:0,0:0:0:0:
75,265,164555,6,0,P|106:233|144:223,1,80,10|0,0:0|0:0,0:0:0:0:
332,184,164821,1,10,0:0:0:0:
227,278,164955,1,0,0:0:0:0:
190,123,165088,5,10,0:0:0:0:
190,123,165221,1,8,0:0:0:0:
309,48,165355,1,8,0:0:0:0:
309,48,165488,1,8,0:0:0:0:
424,160,165621,6,0,L|419:249,1,80,4|0,0:0|0:0,0:0:0:0:
332,311,165888,1,0,0:0:0:0:
240,176,166021,6,0,P|239:238|258:272,1,80,4|0,0:0|0:0,0:0:0:0:
333,209,166288,1,0,0:0:0:0:
155,138,166421,5,4,0:0:0:0:
255,266,166555,1,0,0:0:0:0:
257,37,166688,1,4,0:0:0:0:
257,37,167755,70,0,L|264:204,1,160,4|8,0:0|0:0,0:0:0:0:
216,352,168155,1,0,0:0:0:0:
272,208,168288,2,0,P|312:200|356:204,1,80,0|0,0:0|0:0,0:0:0:0:
412,332,168555,1,8,0:0:0:0:
200,264,168688,2,0,P|188:176|236:124,1,160,4|0,0:0|0:0,0:0:0:0:
368,212,169088,1,8,0:0:0:0:
308,328,169221,1,0,0:0:0:0:
240,136,169355,102,0,L|236:56,1,80,2|0,0:0|0:0,0:0:0:0:
88,280,169621,2,0,L|92:200,1,80,10|4,0:0|0:0,0:0:0:0:
168,84,169888,22,0,P|220:52|316:92,1,160,0|8,0:0|0:0,0:0:0:0:
375,233,170288,1,0,0:0:0:0:
392,68,170422,1,0,0:0:0:0:
240,136,170555,2,0,P|236:184|240:220,1,80,0|8,0:0|0:0,0:0:0:0:
448,196,170822,2,0,P|404:156|304:188,1,160,4|0,1:0|0:0,0:0:0:0:
252,324,171221,1,8,0:0:0:0:
375,233,171355,1,0,0:0:0:0:
184,188,171488,86,0,L|104:184,1,80,10|0,0:0|0:0,0:0:0:0:
252,324,171755,1,10,0:0:0:0:
287,342,171821,1,8,0:3:0:0:
326,344,171888,1,4,0:3:0:0:
363,328,171954,1,4,0:3:0:0:
389,298,172021,70,0,L|392:216,1,80,4|0,0:0|0:0,0:0:0:0:
240,56,172288,2,0,L|242:135,1,80,8|0,0:0|0:0,0:0:0:0:
288,232,172555,1,0,0:0:0:0:
352,96,172688,1,0,0:0:0:0:
288,232,172821,1,8,0:0:0:0:
240,56,172955,2,0,P|160:32|92:71,1,160,4|0,0:0|0:0,0:0:0:0:
92,244,173355,1,8,0:0:0:0:
172,128,173488,1,0,0:0:0:0:
252,316,173621,38,0,P|288:320|340:312,1,80,2|0,0:0|0:0,0:0:0:0:
208,52,173888,2,0,P|172:48|120:56,1,80,2|4,0:0|0:0,0:0:0:0:
92,244,174155,86,0,P|161:270|232:224,1,160,0|8,0:0|0:0,0:0:0:0:
208,52,174555,1,0,0:0:0:0:
308,192,174688,2,0,P|312:236|308:276,1,80,0|0,0:0|0:0,0:0:0:0:
156,188,174955,1,8,0:0:0:0:
264,112,175088,2,0,P|324:104|396:176,1,160,4|0,0:0|0:0,0:0:0:0:
228,236,175488,1,8,0:0:0:0:
208,52,175621,1,0,0:0:0:0:
72,148,175755,22,0,P|68:188|72:236,1,80,10|0,0:0|0:0,0:0:0:0:
167,314,176021,1,10,0:0:0:0:
203,332,176087,1,8,0:0:0:0:
242,333,176154,1,8,0:0:0:0:
280,320,176220,1,8,0:0:0:0:
308,292,176288,102,0,L|312:208,1,80,4|0,0:0|0:0,0:0:0:0:
164,84,176555,2,0,L|167:163,1,80,8|0,0:0|0:0,0:0:0:0:
242,333,176821,1,0,0:0:0:0:
308,192,176955,1,0,0:0:0:0:
136,240,177088,1,8,0:0:0:0:
244,136,177221,2,0,P|292:108|384:152,1,160,4|0,0:0|0:0,0:0:0:0:
336,296,177621,1,8,0:0:0:0:
192,192,177755,1,0,0:0:0:0:
344,304,177888,6,0,L|424:300,1,80,2|0,0:0|0:0,0:0:0:0:
184,184,178155,2,0,L|104:180,1,80,2|4,0:0|0:0,0:0:0:0:
242,333,178421,38,0,P|312:356|380:304,1,160,0|8,0:0|0:0,0:0:0:0:
200,200,178821,1,0,0:0:0:0:
160,352,178955,1,0,0:0:0:0:
301,269,179088,2,0,P|304:228|300:188,1,80,0|8,0:0|0:0,0:0:0:0:
140,112,179355,2,0,P|104:152|136:252,1,160,4|0,0:0|0:0,0:0:0:0:
244,332,179755,1,8,0:0:0:0:
184,184,179888,1,0,0:0:0:0:
300,268,180021,70,0,L|384:272,1,80,10|0,0:0|0:0,0:0:0:0:
184,184,180288,1,10,0:0:0:0:
169,147,180354,1,8,0:3:0:0:
172,107,180421,1,4,0:3:0:0:
192,73,180487,1,0,0:0:0:0:
226,52,180555,54,0,L|312:48,1,80,4|0,0:0|0:0,0:0:0:0:
184,184,180821,2,0,L|104:179,1,80,8|0,0:0|0:0,0:0:0:0:
216,288,181088,1,0,0:0:0:0:
248,132,181221,1,0,0:0:0:0:
344,256,181355,1,8,0:0:0:0:
302,73,181488,2,0,P|227:54|172:108,1,160,4|0,0:0|0:0,0:0:0:0:
144,264,181888,1,8,0:0:0:0:
248,132,182021,1,0,0:0:0:0:
236,280,182155,54,0,L|156:276,1,80,2|0,0:0|0:0,0:0:0:0:
248,132,182421,1,10,0:0:0:0:
308,336,182555,1,4,0:0:0:0:
88,288,182821,5,0,0:0:0:0:
88,288,182888,1,0,0:0:0:0:
88,288,182955,2,0,L|80:232,3,40,8|0|0|0,0:0|0:0|0:0|0:0,0:0:0:0:
96,216,183221,2,0,L|122:165,3,40,8|0|0|0,0:0|0:0|0:0|0:0,0:0:0:0:
136,156,183488,2,0,L|186:131,3,40,8|0|0|0,0:0|0:0|0:0|0:0,0:0:0:0:
204,132,183755,5,8,0:0:0:0:
243,135,183821,1,0,0:0:0:0:
278,154,183888,1,0,0:0:0:0:
302,185,183954,1,0,0:0:0:0:
312,224,184021,1,8,0:0:0:0:
341,250,184087,1,0,0:0:0:0:
380,258,184154,1,0,0:0:0:0:
417,246,184220,1,0,0:0:0:0:
444,216,184288,6,0,L|440:160,1,40,8|0,0:0|0:0,0:0:0:0:
385,68,184421,2,0,L|380:124,1,40,8|0,0:0|0:0,0:0:0:0:
321,211,184555,2,0,L|317:155,1,40,8|0,0:0|0:0,0:0:0:0:
262,63,184688,2,0,L|257:119,1,40,8|0,0:0|0:0,0:0:0:0:
224,220,184821,6,0,P|180:244|120:240,1,88.000002685547,6|0,0:0|0:0,0:0:0:0:
44,148,185088,1,10,0:0:0:0:
124,264,185221,1,8,0:0:0:0:
165,151,185355,2,0,P|167:107|164:64,1,88.000002685547,2|0,0:0|0:0,0:0:0:0:
224,220,185621,1,8,0:0:0:0:
300,120,185755,6,0,P|352:132|384:160,1,88.000002685547,2|0,0:0|0:0,0:0:0:0:
192,304,186021,2,0,P|152:332|104:340,1,88.000002685547,2|8,0:0|0:0,0:0:0:0:
104,72,186288,6,0,L|112:164,1,88.000002685547,2|0,0:0|0:0,0:0:0:0:
284,312,186555,2,0,L|304:184,1,88.000002685547,2|8,0:0|0:0,0:0:0:0:
208,144,186821,1,0,0:0:0:0:
336,236,186955,6,0,P|404:244|436:236,1,88.000002685547,6|0,0:0|0:0,0:0:0:0:
368,56,187221,1,10,0:0:0:0:
248,140,187355,1,8,0:0:0:0:
360,160,187488,2,0,L|368:68,1,88.000002685547,2|0,0:0|0:0,0:0:0:0:
184,52,187755,1,8,0:0:0:0:
147,208,187888,6,0,P|148:275|161:314,1,88.000002685547,2|0,0:0|0:0,0:0:0:0:
261,197,188155,2,0,P|286:161|294:115,1,88.000002685547,2|8,0:0|0:0,0:0:0:0:
63,57,188421,6,0,L|63:149,1,88.000002685547,2|0,0:0|0:0,0:0:0:0:
232,202,188688,1,2,0:0:0:0:
69,238,188821,1,8,0:0:0:0:
161,59,188955,5,8,0:0:0:0:
254,125,189088,2,0,P|302:131|370:125,1,88.000002685547,6|0,0:0|0:0,0:0:0:0:
266,280,189355,5,10,0:0:0:0:
157,234,189488,2,0,P|109:240|41:234,1,88.000002685547,8|0,0:0|0:0,0:0:0:0:
211,355,189755,5,0,0:0:0:0:
314,206,189888,2,0,P|367:203|421:218,1,88.000002685547,10|0,0:0|0:0,0:0:0:0:
266,280,190155,1,0,0:0:0:0:
296,134,190288,1,0,0:0:0:0:
356,285,190421,2,0,P|359:352|353:383,1,88.000002685547,10|0,0:0|0:0,0:0:0:0:
148,277,190688,2,0,P|132:233|136:186,1,88.000002685547,10|0,0:0|0:0,0:0:0:0:
302,48,190955,2,0,P|305:101|288:150,1,88.000002685547,10|0,0:0|0:0,0:0:0:0:
112,84,191221,6,0,L|199:80,1,88.000002685547,6|0,0:0|0:0,0:0:0:0:
265,220,191488,1,10,0:0:0:0:
416,117,191621,6,0,P|372:120|333:139,1,88.000002685547,8|0,0:0|0:0,0:0:0:0:
192,175,191888,1,0,0:0:0:0:
320,303,192021,6,0,P|323:297|331:201,1,88.000002685547,10|0,0:0|0:0,0:0:0:0:
191,89,192288,2,0,P|189:95|197:191,1,88.000002685547
324,320,192555,2,0,L|421:304,1,88.000002685547,10|0,0:0|0:0,0:0:0:0:
271,178,192821,1,10,0:0:0:0:
235,349,192955,1,0,0:0:0:0:
156,228,193088,1,8,0:0:0:0:
112,218,193155,1,8,0:3:0:0:
69,225,193221,1,4,0:3:0:0:
37,255,193288,1,4,0:3:0:0:
34,299,193355,6,0,P|96:317|128:314,1,88.000002685547,6|0,0:0|0:0,0:0:0:0:
253,248,193621,1,10,0:0:0:0:
138,311,193755,1,8,0:0:0:0:
115,146,193888,2,0,P|103:81|120:30,1,88.000002685547,2|0,0:0|0:0,0:0:0:0:
256,172,194155,1,8,0:0:0:0:
338,94,194288,6,0,P|388:68|403:29,1,88.000002685547,2|0,0:0|0:0,0:0:0:0:
173,93,194555,2,0,P|133:77|110:41,1,88.000002685547,2|8,0:0|0:0,0:0:0:0:
336,176,194821,6,0,P|384:188|440:192,1,88.000002685547,2|0,0:0|0:0,0:0:0:0:
176,176,195088,2,0,P|128:188|72:192,1,88.000002685547,2|8,0:0|0:0,0:0:0:0:
176,368,195355,1,0,0:0:0:0:
252,296,195488,6,0,P|260:248|256:184,1,88.000002685547,6|0,0:0|0:0,0:0:0:0:
124,116,195755,1,10,0:0:0:0:
88,228,195888,1,8,0:0:0:0:
256,176,196021,2,0,L|356:164,1,88.000002685547,2|0,0:0|0:0,0:0:0:0:
244,20,196288,1,8,0:0:0:0:
164,84,196421,6,0,P|168:136|188:176,1,88.000002685547,2|0,0:0|0:0,0:0:0:0:
348,84,196688,2,0,P|344:136|324:176,1,88.000002685547,2|8,0:0|0:0,0:0:0:0:
104,240,196955,6,0,P|156:260|200:256,1,88.000002685547,2|0,0:0|0:0,0:0:0:0:
408,240,197221,2,0,P|356:260|312:256,1,88.000002685547,2|8,0:0|0:0,0:0:0:0:
156,144,197488,5,8,0:0:0:0:
88,232,197621,2,0,P|77:274|80:332,1,88.000002685547,6|0,0:0|0:0,0:0:0:0:
176,68,197888,5,10,0:0:0:0:
84,172,198021,2,0,P|59:208|42:263,1,88.000002685547,8|0,0:0|0:0,0:0:0:0:
256,56,198288,5,0,0:0:0:0:
101,114,198421,2,0,P|66:140|31:186,1,88.000002685547,10|0,0:0|0:0,0:0:0:0:
180,284,198688,2,0,P|228:296|272:296,1,88.000002685547,0|0,0:0|0:0,0:0:0:0:
400,160,198955,1,10,0:0:0:0:
292,208,199088,1,0,0:0:0:0:
400,272,199221,2,0,P|408:224|400:172,1,88.000002685547,10|0,0:0|0:0,0:0:0:0:
220,40,199488,2,0,P|236:96|256:128,1,88.000002685547,10|8,0:0|0:0,0:0:0:0:
180,284,199755,6,0,P|120:296|72:288,1,88.000002685547,6|0,0:0|0:0,0:0:0:0:
48,204,200021,1,10,0:0:0:0:
180,120,200155,6,0,P|232:116|276:136,1,88.000002685547,8|0,0:0|0:0,0:0:0:0:
272,276,200421,1,0,0:0:0:0:
356,184,200555,6,0,P|364:149|368:88,1,88.000002685547,10|0,0:0|0:0,0:0:0:0:
161,34,200821,2,0,P|164:69|182:128,1,88.000002685547,0|0,0:0|0:0,0:0:0:0:
302,205,201088,5,10,0:0:0:0:
172,279,201221,1,0,0:0:0:0:
197,131,201355,1,10,0:0:0:0:
277,294,201488,1,8,0:3:0:0:
107,242,201621,2,0,P|53:255|21:286,1,88.000002685547,4|4,0:3|0:3,0:0:0:0:
195,377,201888,5,4,0:0:0:0:
195,377,202155,2,0,P|200:323|199:274,1,88.000002685547,10|0,0:0|0:0,0:0:0:0:
355,291,202421,2,0,P|331:242|313:198,1,88.000002685547,10|0,0:0|0:0,0:0:0:0:
128,190,202688,2,0,P|172:159|212:127,1,88.000002685547,10|0,0:0|0:0,0:0:0:0:
394,67,202955,6,0,P|343:60|293:48,1,88.000002685547,10|0,0:0|0:0,0:0:0:0:
130,65,203221,1,10,0:0:0:0:
171,205,203355,1,0,0:0:0:0:
277,119,203488,2,0,P|284:66|282:18,1,88.000002685547,10|0,0:0|0:0,0:0:0:0:
140,39,203755,1,10,0:0:0:0:
262,198,203888,1,0,0:0:0:0:
262,198,203955,1,0,0:0:0:0:
262,198,204021,6,0,P|319:219|350:220,1,88.000002685547,4|0,0:0|0:0,0:0:0:0:
170,305,204288,2,0,P|136:342|93:361,1,88.000002685547,10|0,0:0|0:0,0:0:0:0:
64,228,204555,2,0,L|71:104,1,88.000002685547,10|0,0:0|0:0,0:0:0:0:
169,29,204821,2,0,L|181:123,1,88.000002685547,10|0,0:0|0:0,0:0:0:0:
332,107,205088,5,10,0:0:0:0:
189,146,205221,1,0,0:0:0:0:
324,222,205355,2,0,P|378:224|412:215,1,88.000002685547,10|0,0:0|0:0,0:0:0:0:
251,40,205621,1,8,0:0:0:0:
109,178,205755,5,8,0:3:0:0:
121,204,205888,5,4,0:3:0:0:
134,231,206021,5,4,0:3:0:0:
149,256,206155,6,0,P|158:300|134:355,1,88.000002685547,4|0,0:0|0:0,0:0:0:0:
24,202,206421,2,0,L|123:175,1,88.000002685547,10|0,0:0|0:0,0:0:0:0:
157,65,206688,1,10,0:0:0:0:
242,172,206821,1,0,0:0:0:0:
242,172,206888,1,0,0:0:0:0:
242,172,206955,2,0,P|248:220|253:271,1,88.000002685547,10|0,0:0|0:0,0:0:0:0:
361,56,207221,6,0,P|354:104|350:155,1,88.000002685547,10|0,0:0|0:0,0:0:0:0:
164,124,207488,1,10,0:0:0:0:
172,240,207621,1,0,0:0:0:0:
330,159,207755,1,10,0:0:0:0:
266,338,207888,1,0,0:0:0:0:
266,338,207955,1,0,0:0:0:0:
266,338,208021,2,0,L|254:236,1,88.000002685547,10|0,0:0|0:0,0:0:0:0:
164,31,208288,6,0,P|110:50|80:83,1,88.000002685547,4|0,0:0|0:0,0:0:0:0:
167,187,208555,2,0,L|175:298,1,88.000002685547,10|0,0:0|0:0,0:0:0:0:
248,95,208821,1,10,0:0:0:0:
338,215,208955,1,0,0:0:0:0:
338,215,209021,1,0,0:0:0:0:
338,215,209088,2,0,P|359:164|363:122,1,88.000002685547,10|0,0:0|0:0,0:0:0:0:
117,166,209355,6,0,P|178:190|220:190,1,88.000002685547,10|0,0:0|0:0,0:0:0:0:
401,41,209621,2,0,P|340:17|298:17,1,88.000002685547,10|0,0:0|0:0,0:0:0:0:
179,41,209888,1,10,0:0:0:0:
118,167,210021,1,8,0:0:0:0:
184,292,210155,1,8,0:0:0:0:
323,310,210288,1,8,0:0:0:0:
428,217,210421,6,0,P|441:158|436:127,1,88.000002685547,6|0,0:0|0:0,0:0:0:0:
312,93,210688,1,0,0:0:0:0:
323,310,210821,6,0,P|336:251|331:220,1,88.000002685547,6|0,0:0|0:0,0:0:0:0:
202,130,211088,1,0,0:0:0:0:
101,226,211221,6,0,L|197:214,1,88.000002685547,6|0,0:0|0:0,0:0:0:0:
5,234,211488,1,10,0:0:0:0:
132,333,211621,5,0,0:0:0:0:
132,333,211688,1,0,0:0:0:0:
132,333,211755,2,0,P|185:326|219:298,1,88.000002685547,8|0,0:0|0:0,0:0:0:0:
354,198,212021,2,0,P|301:205|267:233,1,88.000002685547,8|0,0:0|0:0,0:0:0:0:
120,196,212288,1,8,0:0:0:0:
104,154,212355,1,8,0:3:0:0:
101,110,212421,1,4,0:3:0:0:
111,67,212488,1,4,0:3:0:0:
143,36,212555,6,0,P|190:26|239:35,1,88.000002685547,6|0,0:0|0:0,0:0:0:0:
242,162,212821,1,0,0:0:0:0:
388,86,212955,6,0,P|341:76|292:85,1,88.000002685547,6|0,0:0|0:0,0:0:0:0:
216,297,213221,1,0,0:0:0:0:
336,253,213355,6,0,P|348:204|342:154,1,88.000002685547,6|0,0:0|0:0,0:0:0:0:
143,208,213621,1,6,0:0:0:0:
328,332,213755,5,0,0:0:0:0:
328,332,213821,1,0,0:0:0:0:
328,332,213888,1,8,0:0:0:0:
266,231,214021,1,0,0:0:0:0:
151,365,214155,2,0,P|83:359|50:353,1,88.000002685547,8|0,0:0|0:0,0:0:0:0:
71,161,214421,1,8,0:0:0:0:
99,126,214488,1,8,0:0:0:0:
142,117,214555,1,8,0:0:0:0:
184,125,214621,1,8,0:0:0:0:
218,152,214688,6,0,L|315:164,1,88.000002685547,6|0,0:0|0:0,0:0:0:0:
187,228,214955,1,0,0:0:0:0:
149,48,215088,6,0,L|246:60,1,88.000002685547,6|0,0:0|0:0,0:0:0:0:
99,126,215355,1,0,0:0:0:0:
192,237,215488,5,6,0:0:0:0:
63,198,215621,1,0,0:0:0:0:
277,137,215755,1,6,0:0:0:0:
277,137,216021,5,0,0:0:0:0:
190,259,216155,1,0,0:0:0:0:
105,134,216288,1,4,0:0:0:0:
256,192,216421,12,2,222421,0:0:0:0:
