osu file format v14

[General]
AudioFilename: Hello how arae you.mp3
AudioLeadIn: 0
PreviewTime: -1
Countdown: 1
SampleSet: None
StackLeniency: 0.7
Mode: 1
LetterboxInBreaks: 1
WidescreenStoryboard: 0

[Editor]
DistanceSpacing: 0.8
BeatDivisor: 4
GridSize: 32
TimelineZoom: 1.3

[Metadata]
Title:Hello/How are you
TitleUnicode:ハロ/ハワユ
Artist:Kano
ArtistUnicode:鹿乃
Creator:LunaticP
Version:Oni
Source:
Tags:
BeatmapID:781780
BeatmapSetID:355006

[Difficulty]
HPDrainRate:5
CircleSize:5
OverallDifficulty:5
ApproachRate:5
SliderMultiplier:1.6
SliderTickRate:1

[Events]
//Background and Video events
0,0,"2230671i.jpg",0,0
//Break Periods
//Storyboard Layer 0 (Background)
//Storyboard Layer 1 (Fail)
//Storyboard Layer 2 (Pass)
//Storyboard Layer 3 (Foreground)
//Storyboard Sound Samples

[TimingPoints]
7558,631.578947368421,4,2,0,75,1,0
116189,-100,4,2,0,75,0,1
136400,-100,4,2,0,75,0,0
181873,-100,4,2,0,75,0,1
202084,-100,4,2,0,75,0,0
234926,-100,4,2,0,75,0,1
255136,-100,4,2,0,75,0,0

[HitObjects]
192,192,7400,5,0,0:0:0:0:
288,224,7558,1,8,0:0:0:0:
384,192,8031,1,0,0:0:0:0:
288,160,8505,1,8,0:0:0:0:
192,160,10084,1,0,0:0:0:0:
320,192,10558,1,8,0:0:0:0:
320,192,11031,1,0,0:0:0:0:
192,160,11979,1,8,0:0:0:0:
256,224,12610,1,0,0:0:0:0:
160,256,13242,1,0,0:0:0:0:
224,256,13558,1,8,0:0:0:0:
224,192,13873,1,0,0:0:0:0:
288,192,14189,1,0,0:0:0:0:
320,192,14505,1,8,0:0:0:0:
288,224,15136,1,8,0:0:0:0:
256,224,15768,1,0,0:0:0:0:
384,192,16084,1,0,0:0:0:0:
384,192,16400,1,8,0:0:0:0:
288,224,16715,1,0,0:0:0:0:
480,224,17031,1,0,0:0:0:0:
352,192,17347,1,0,0:0:0:0:
352,192,17663,1,8,0:0:0:0:
416,288,18136,1,0,0:0:0:0:
384,192,18294,1,0,0:0:0:0:
224,128,18610,1,8,0:0:0:0:
224,128,18926,1,0,0:0:0:0:
352,160,19242,1,8,0:0:0:0:
384,192,19558,1,0,0:0:0:0:
320,192,20189,1,0,0:0:0:0:
288,256,20663,1,0,0:0:0:0:
256,128,20821,1,8,0:0:0:0:
384,64,21136,1,0,0:0:0:0:
320,96,21452,1,0,0:0:0:0:
288,128,22084,1,8,0:0:0:0:
320,128,22715,1,0,0:0:0:0:
384,224,23189,1,0,0:0:0:0:
224,128,23347,1,8,0:0:0:0:
224,224,23663,1,0,0:0:0:0:
96,224,23979,1,8,0:0:0:0:
128,224,24294,1,0,0:0:0:0:
160,224,24610,1,0,0:0:0:0:
288,192,25242,1,8,0:0:0:0:
288,192,25558,1,0,0:0:0:0:
288,192,25873,1,8,0:0:0:0:
288,192,26189,1,8,0:0:0:0:
288,192,26505,1,0,0:0:0:0:
224,128,26821,1,0,0:0:0:0:
224,128,27136,1,0,0:0:0:0:
224,192,27452,1,8,0:0:0:0:
224,192,27768,1,8,0:0:0:0:
320,288,28242,1,0,0:0:0:0:
384,192,28400,1,8,0:0:0:0:
320,288,28715,1,0,0:0:0:0:
320,288,29031,1,8,0:0:0:0:
352,192,29347,1,0,0:0:0:0:
352,192,29663,1,0,0:0:0:0:
192,288,29979,1,8,0:0:0:0:
256,256,30294,1,8,0:0:0:0:
288,96,30768,1,0,0:0:0:0:
288,96,31242,1,8,0:0:0:0:
352,192,31873,1,0,0:0:0:0:
352,192,32189,1,0,0:0:0:0:
352,192,32505,1,8,0:0:0:0:
448,96,32821,1,0,0:0:0:0:
256,256,33294,1,8,0:0:0:0:
256,256,33452,1,0,0:0:0:0:
256,160,33926,1,8,0:0:0:0:
256,160,34084,1,0,0:0:0:0:
320,192,34400,1,0,0:0:0:0:
320,192,34715,1,12,0:0:0:0:
256,224,35347,1,0,0:0:0:0:
192,256,35979,1,8,0:0:0:0:
192,256,36294,1,0,0:0:0:0:
192,256,36452,1,0,0:0:0:0:
192,256,36610,1,8,0:0:0:0:
192,256,36926,1,0,0:0:0:0:
288,256,37242,1,0,0:0:0:0:
320,192,37715,1,0,0:0:0:0:
320,192,37873,1,8,0:0:0:0:
320,192,38189,1,0,0:0:0:0:
352,128,38505,1,8,0:0:0:0:
256,256,38821,1,0,0:0:0:0:
256,256,38979,1,0,0:0:0:0:
256,256,39136,1,8,0:0:0:0:
320,256,39452,1,0,0:0:0:0:
320,256,39768,1,8,0:0:0:0:
352,192,40084,1,0,0:0:0:0:
352,192,40400,1,8,0:0:0:0:
352,192,41031,1,8,0:0:0:0:
352,96,41347,1,0,0:0:0:0:
352,96,41505,1,0,0:0:0:0:
352,96,41663,1,8,0:0:0:0:
448,256,41979,1,0,0:0:0:0:
256,192,42294,1,8,0:0:0:0:
288,192,42610,1,0,0:0:0:0:
288,192,42768,1,0,0:0:0:0:
288,192,42926,1,8,0:0:0:0:
288,192,43242,1,0,0:0:0:0:
448,256,43558,1,0,0:0:0:0:
320,160,43873,1,8,0:0:0:0:
448,256,44031,1,0,0:0:0:0:
448,256,44189,1,8,0:0:0:0:
448,192,44505,1,0,0:0:0:0:
448,192,44821,1,8,0:0:0:0:
224,224,45136,1,0,0:0:0:0:
224,224,45452,1,12,0:0:0:0:
224,192,46084,1,8,0:0:0:0:
320,288,46400,1,0,0:0:0:0:
320,288,46558,1,0,0:0:0:0:
325,283,46715,1,8,0:0:0:0:
351,188,47031,1,0,0:0:0:0:
365,231,47347,1,8,0:0:0:0:
367,286,47821,1,0,0:0:0:0:
376,285,47979,1,8,0:0:0:0:
286,160,48294,1,0,0:0:0:0:
261,229,48610,1,8,0:0:0:0:
296,268,48926,1,0,0:0:0:0:
328,269,49084,1,0,0:0:0:0:
328,269,49242,1,8,0:0:0:0:
222,174,49558,1,0,0:0:0:0:
326,179,49873,1,8,0:0:0:0:
326,192,50189,1,0,0:0:0:0:
326,193,50505,1,12,0:0:0:0:
304,98,51136,1,8,0:0:0:0:
345,151,51452,1,0,0:0:0:0:
316,228,51768,1,8,0:0:0:0:
316,234,51926,1,0,0:0:0:0:
316,237,52084,1,0,0:0:0:0:
316,238,52400,1,8,0:0:0:0:
431,273,52715,1,0,0:0:0:0:
431,273,53031,1,8,0:0:0:0:
287,186,53347,1,0,0:0:0:0:
301,186,53505,1,0,0:0:0:0:
309,186,53663,1,8,0:0:0:0:
309,186,53979,1,0,0:0:0:0:
309,186,54136,1,0,0:0:0:0:
309,186,54294,1,8,0:0:0:0:
238,214,54610,1,0,0:0:0:0:
281,223,54926,1,8,0:0:0:0:
256,132,55558,1,4,0:0:0:0:
256,288,56031,1,0,0:0:0:0:
288,256,56189,1,8,0:0:0:0:
352,256,56505,1,0,0:0:0:0:
192,224,56821,1,0,0:0:0:0:
192,224,56979,1,0,0:0:0:0:
352,256,57136,1,0,0:0:0:0:
352,256,57452,1,8,0:0:0:0:
288,160,58084,1,8,0:0:0:0:
288,224,58400,1,0,0:0:0:0:
288,224,58715,1,8,0:0:0:0:
256,192,59189,1,0,0:0:0:0:
256,224,59347,1,0,0:0:0:0:
256,224,59663,1,0,0:0:0:0:
256,224,59979,1,8,0:0:0:0:
352,160,60294,1,0,0:0:0:0:
352,160,60610,1,8,0:0:0:0:
224,192,61084,1,0,0:0:0:0:
256,192,61242,1,8,0:0:0:0:
256,192,61558,1,0,0:0:0:0:
224,288,61715,1,0,0:0:0:0:
256,256,61873,1,8,0:0:0:0:
256,256,62189,1,0,0:0:0:0:
256,128,62505,1,8,0:0:0:0:
256,160,62821,1,0,0:0:0:0:
256,160,63136,1,8,0:0:0:0:
256,256,63610,1,0,0:0:0:0:
256,256,63768,1,8,0:0:0:0:
320,256,64084,1,0,0:0:0:0:
320,256,64400,1,0,0:0:0:0:
256,192,64715,1,0,0:0:0:0:
288,192,64873,1,0,0:0:0:0:
288,192,65031,1,8,0:0:0:0:
288,224,65347,1,0,0:0:0:0:
448,192,65663,1,0,0:0:0:0:
384,96,66294,1,8,0:0:0:0:
288,256,66768,1,0,0:0:0:0:
288,256,66926,1,8,0:0:0:0:
384,256,67242,1,0,0:0:0:0:
384,256,67558,1,8,0:0:0:0:
384,256,67873,1,0,0:0:0:0:
224,128,68189,1,8,0:0:0:0:
224,128,68347,1,0,0:0:0:0:
224,128,68505,1,0,0:0:0:0:
224,128,68821,1,8,0:0:0:0:
320,192,69294,1,0,0:0:0:0:
320,160,69452,1,0,0:0:0:0:
352,192,69768,1,0,0:0:0:0:
256,288,70084,1,8,0:0:0:0:
256,288,70400,1,0,0:0:0:0:
320,256,70715,1,0,0:0:0:0:
320,192,71347,1,8,0:0:0:0:
320,160,71663,1,0,0:0:0:0:
160,160,71821,1,0,0:0:0:0:
160,160,71979,1,0,0:0:0:0:
256,128,72294,1,0,0:0:0:0:
256,128,72610,1,8,0:0:0:0:
416,160,72926,1,0,0:0:0:0:
416,160,73084,1,0,0:0:0:0:
320,192,73242,1,8,0:0:0:0:
448,320,73558,1,0,0:0:0:0:
352,256,73873,1,8,0:0:0:0:
320,160,74347,1,0,0:0:0:0:
320,160,74505,1,8,0:0:0:0:
320,192,74821,1,4,0:0:0:0:
384,192,75136,1,12,0:0:0:0:
384,128,75768,1,0,0:0:0:0:
256,160,76400,1,8,0:0:0:0:
256,192,76873,1,0,0:0:0:0:
256,192,77031,1,0,0:0:0:0:
256,192,77347,1,8,0:0:0:0:
256,192,77663,1,0,0:0:0:0:
352,96,77821,1,0,0:0:0:0:
352,96,77979,1,0,0:0:0:0:
288,224,78294,1,8,0:0:0:0:
352,160,78768,1,0,0:0:0:0:
288,192,78926,1,8,0:0:0:0:
416,192,79242,1,0,0:0:0:0:
416,192,79558,1,8,0:0:0:0:
256,128,79715,1,0,0:0:0:0:
256,128,79873,1,8,0:0:0:0:
256,128,80031,1,0,0:0:0:0:
256,128,80189,1,0,0:0:0:0:
384,96,80821,1,8,0:0:0:0:
320,160,81294,1,8,0:0:0:0:
320,160,81452,1,0,0:0:0:0:
320,224,81768,1,0,0:0:0:0:
352,224,82084,1,8,0:0:0:0:
224,192,82400,1,8,0:0:0:0:
288,256,82558,1,0,0:0:0:0:
224,192,82715,1,8,0:0:0:0:
288,256,83031,1,0,0:0:0:0:
288,256,83347,1,8,0:0:0:0:
416,160,83979,1,0,0:0:0:0:
416,160,84294,1,0,0:0:0:0:
320,96,84610,1,8,0:0:0:0:
384,256,85242,1,8,0:0:0:0:
384,256,85558,1,8,0:0:0:0:
384,256,85873,1,0,0:0:0:0:
384,256,86505,1,0,0:0:0:0:
384,160,86979,1,0,0:0:0:0:
384,160,87136,1,0,0:0:0:0:
384,160,87452,1,8,0:0:0:0:
384,160,87768,1,0,0:0:0:0:
224,160,88400,1,8,0:0:0:0:
288,256,89031,1,8,0:0:0:0:
352,192,89347,1,8,0:0:0:0:
448,256,89663,1,0,0:0:0:0:
384,256,89821,1,0,0:0:0:0:
224,256,89979,1,8,0:0:0:0:
224,96,90294,1,8,0:0:0:0:
352,160,90452,1,8,0:0:0:0:
224,96,90610,1,0,0:0:0:0:
352,192,90926,1,8,0:0:0:0:
416,96,91558,1,0,0:0:0:0:
384,288,92031,1,0,0:0:0:0:
384,288,92189,1,8,0:0:0:0:
288,192,92505,1,0,0:0:0:0:
288,192,92821,1,8,0:0:0:0:
224,192,92979,1,0,0:0:0:0:
224,192,93136,1,8,0:0:0:0:
256,128,93452,1,8,0:0:0:0:
416,160,93926,1,8,0:0:0:0:
352,96,94084,1,0,0:0:0:0:
384,160,94400,1,0,0:0:0:0:
352,160,94558,1,0,0:0:0:0:
352,160,94715,1,0,0:0:0:0:
352,160,95031,1,0,0:0:0:0:
416,64,95347,1,8,0:0:0:0:
256,160,95979,1,0,0:0:0:0:
256,160,96294,1,0,0:0:0:0:
256,160,96610,1,8,0:0:0:0:
256,288,96926,1,0,0:0:0:0:
256,288,97084,1,0,0:0:0:0:
256,256,97242,1,0,0:0:0:0:
288,256,97558,1,0,0:0:0:0:
288,256,97873,1,8,0:0:0:0:
352,192,98189,1,0,0:0:0:0:
352,192,98347,1,0,0:0:0:0:
352,192,98505,1,8,0:0:0:0:
352,192,98821,1,0,0:0:0:0:
288,128,99136,1,8,0:0:0:0:
224,160,99452,1,8,0:0:0:0:
224,160,99610,1,0,0:0:0:0:
224,160,99768,1,0,0:0:0:0:
384,160,100084,1,0,0:0:0:0:
384,160,100400,1,8,0:0:0:0:
384,224,100715,1,0,0:0:0:0:
320,192,101031,1,8,0:0:0:0:
320,224,101663,1,0,0:0:0:0:
256,160,101979,1,0,0:0:0:0:
256,160,102136,1,0,0:0:0:0:
256,160,102294,1,8,0:0:0:0:
256,160,102610,1,0,0:0:0:0:
384,128,102926,1,8,0:0:0:0:
384,128,103242,1,8,0:0:0:0:
352,160,103558,1,8,0:0:0:0:
352,160,103715,1,8,0:0:0:0:
352,160,103873,1,0,0:0:0:0:
352,160,104189,1,8,0:0:0:0:
352,160,104505,1,0,0:0:0:0:
352,160,104821,1,8,0:0:0:0:
416,160,105452,1,0,0:0:0:0:
416,160,106084,1,8,0:0:0:0:
256,256,106400,1,0,0:0:0:0:
224,160,106715,1,8,0:0:0:0:
384,256,106873,1,0,0:0:0:0:
224,160,107031,1,0,0:0:0:0:
320,160,107347,1,8,0:0:0:0:
320,160,107663,1,0,0:0:0:0:
320,160,107821,1,0,0:0:0:0:
320,160,107979,1,8,0:0:0:0:
384,192,108294,1,0,0:0:0:0:
384,192,108610,1,8,0:0:0:0:
416,256,108926,1,0,0:0:0:0:
320,192,109242,1,0,0:0:0:0:
320,160,109558,1,0,0:0:0:0:
256,224,109873,1,8,0:0:0:0:
416,224,110505,1,8,0:0:0:0:
384,160,110979,1,0,0:0:0:0:
384,160,111136,1,0,0:0:0:0:
288,128,111452,1,0,0:0:0:0:
288,128,111768,1,8,0:0:0:0:
320,192,112084,1,0,0:0:0:0:
320,192,112242,1,0,0:0:0:0:
320,192,112400,1,8,0:0:0:0:
352,128,112715,1,0,0:0:0:0:
288,128,113031,1,0,0:0:0:0:
288,128,113347,1,8,0:0:0:0:
384,160,113663,1,8,0:0:0:0:
384,160,113979,1,0,0:0:0:0:
384,160,114294,1,8,0:0:0:0:
384,160,114610,1,8,0:0:0:0:
384,160,114768,1,8,0:0:0:0:
320,224,116189,1,8,0:0:0:0:
288,192,116347,1,0,0:0:0:0:
288,256,116663,1,0,0:0:0:0:
288,256,116821,1,8,0:0:0:0:
448,160,116979,1,8,0:0:0:0:
320,128,117294,1,0,0:0:0:0:
320,128,117452,1,8,0:0:0:0:
320,128,117768,1,0,0:0:0:0:
384,128,118084,1,8,0:0:0:0:
384,192,118400,1,0,0:0:0:0:
320,160,118715,1,8,0:0:0:0:
320,160,118873,1,0,0:0:0:0:
320,160,119031,1,8,0:0:0:0:
256,96,119347,1,8,0:0:0:0:
256,128,119505,1,0,0:0:0:0:
352,128,119821,1,0,0:0:0:0:
352,128,119979,1,8,0:0:0:0:
352,192,120294,1,0,0:0:0:0:
352,192,120610,1,8,0:0:0:0:
288,224,120926,1,0,0:0:0:0:
352,224,121242,1,8,0:0:0:0:
352,256,121400,1,0,0:0:0:0:
320,128,121558,1,0,0:0:0:0:
288,160,121873,1,8,0:0:0:0:
288,160,122031,1,0,0:0:0:0:
352,128,122189,1,8,0:0:0:0:
416,128,122505,1,8,0:0:0:0:
416,128,122663,1,0,0:0:0:0:
416,128,122979,1,0,0:0:0:0:
416,128,123136,1,8,0:0:0:0:
320,160,123452,1,0,0:0:0:0:
320,160,123610,1,0,0:0:0:0:
320,160,123768,1,8,0:0:0:0:
320,224,124084,1,0,0:0:0:0:
320,224,124400,1,8,0:0:0:0:
288,96,124873,1,0,0:0:0:0:
288,96,125031,1,0,0:0:0:0:
288,96,125347,1,0,0:0:0:0:
320,160,125663,1,8,0:0:0:0:
256,256,126294,1,12,0:0:0:0:
448,192,126610,1,0,0:0:0:0:
448,192,126926,1,8,0:0:0:0:
192,64,127242,1,0,0:0:0:0:
352,96,127400,1,0,0:0:0:0:
480,64,127558,1,8,0:0:0:0:
480,64,127873,1,0,0:0:0:0:
256,256,128189,1,8,0:0:0:0:
320,160,128505,1,0,0:0:0:0:
384,256,128821,1,8,0:0:0:0:
384,256,128979,1,0,0:0:0:0:
384,256,129136,1,8,0:0:0:0:
256,128,129452,1,8,0:0:0:0:
256,128,129768,1,0,0:0:0:0:
288,160,129926,1,0,0:0:0:0:
288,160,130084,1,8,0:0:0:0:
384,128,130400,1,0,0:0:0:0:
288,160,130715,1,8,0:0:0:0:
320,64,131347,1,8,0:0:0:0:
352,160,131663,1,0,0:0:0:0:
320,160,131979,1,8,0:0:0:0:
320,160,132136,1,0,0:0:0:0:
320,160,132294,1,8,0:0:0:0:
288,160,132452,1,0,0:0:0:0:
288,160,132610,1,0,0:0:0:0:
256,128,132926,1,0,0:0:0:0:
256,160,133242,1,8,0:0:0:0:
352,96,133558,1,0,0:0:0:0:
352,96,133715,1,0,0:0:0:0:
352,96,133873,1,8,0:0:0:0:
384,128,134189,1,0,0:0:0:0:
384,128,134505,1,8,0:0:0:0:
384,128,134821,1,8,0:0:0:0:
256,96,134979,1,0,0:0:0:0:
256,96,135136,1,0,0:0:0:0:
256,96,135452,1,0,0:0:0:0:
384,96,135768,1,8,0:0:0:0:
320,224,136084,1,0,0:0:0:0:
416,224,136400,1,0,0:0:0:0:
