osu file format v14

[General]
AudioFilename: Dear Brave.mp3
AudioLeadIn: 0
PreviewTime: 56533
Countdown: 0
SampleSet: Soft
StackLeniency: 0.7
Mode: 0
LetterboxInBreaks: 0
WidescreenStoryboard: 0

[Editor]
Bookmarks: 57570,73847
DistanceSpacing: 1.3
BeatDivisor: 4
GridSize: 4
TimelineZoom: 2.699999

[Metadata]
Title:Dear Brave
TitleUnicode:ディアブレイブ
Artist:Kano
ArtistUnicode:鹿乃
Creator:chucentry
Version:Insane
Source:ヘヴィーオブジェクト
Tags:HEAVY OBJECT iMage-- Meg Yuii- Del05 Laurier ending tv size
BeatmapID:805797
BeatmapSetID:364395

[Difficulty]
HPDrainRate:6
CircleSize:4
OverallDifficulty:7.5
ApproachRate:9
SliderMultiplier:1.7
SliderTickRate:1

[Events]
//Background and Video events
0,0,"BG.jpg",0,0
Video,0,"movie.avi"
//Break Periods
//Storyboard Layer 0 (Background)
//Storyboard Layer 1 (Fail)
//Storyboard Layer 2 (Pass)
//Storyboard Layer 3 (Foreground)
//Storyboard Sound Samples

[TimingPoints]
1480,319.148936170213,4,2,1,40,1,0
1480,-125,4,2,1,40,0,0
5150,-125,4,2,3,40,0,0
5948,-100,4,2,1,60,0,0
16799,-125,4,2,1,40,0,0
27011,-125,4,2,1,50,0,0
37224,-125,4,2,1,60,0,0
42331,-200,4,2,1,30,0,0
46958,-100,4,2,2,60,0,0
52543,-100,4,2,1,70,0,0
56692,-133.333333333333,4,2,1,40,0,0
57011,-133.333333333333,4,2,1,50,0,0
57331,-133.333333333333,4,2,3,60,0,0
57650,-100,4,2,2,80,0,1
72969,-125,4,2,2,50,0,1
78075,-166.666666666667,4,2,2,50,0,1
78714,-133.333333333333,4,2,2,60,0,1
79352,-111.111111111111,4,2,2,70,0,1
79990,-95.2380952380952,4,2,2,80,0,1
80628,342.857142857143,4,2,3,40,1,0
81999,359.281437125748,4,2,3,30,1,0
81999,-200,4,2,3,30,0,0
82717,-200,4,2,1,30,0,0
85951,387.096774193548,4,2,3,30,1,0

[Colours]
Combo1 : 255,81,255
Combo2 : 255,255,128
Combo3 : 180,126,3
Combo4 : 181,181,255

[HitObjects]
280,316,1480,6,0,P|337:349|401:332,1,136,6|0,0:0|0:0,0:0:0:0:
350,255,1958,1,0,0:0:0:0:
350,255,2118,2,0,P|292:221|228:238,1,136,2|0,0:0|0:0,0:0:0:0:
132,304,2597,1,0,0:0:0:0:
132,304,2756,2,0,P|137:241|78:188,1,136,2|0,0:0|0:0,0:0:0:0:
89,191,3235,5,2,0:0:0:0:
48,268,3394,1,2,0:0:0:0:
199,183,3554,1,2,0:0:0:0:
224,97,3714,1,2,0:0:0:0:
136,118,3873,1,2,0:0:0:0:
199,183,4033,6,0,L|288:196,1,68,2|0,0:0|0:0,0:0:0:0:
316,260,4352,2,0,L|227:272,1,68,2|0,0:0|0:0,0:0:0:0:
200,336,4671,2,0,L|288:348,1,68,2|0,0:0|0:0,0:0:0:0:
348,340,4990,1,2,0:0:0:0:
168,256,5150,1,2,0:0:0:0:
168,256,5948,5,0,0:0:0:0:
168,256,6027,1,0,0:0:0:0:
168,256,6107,1,0,0:0:0:0:
168,256,6187,1,0,0:0:0:0:
168,256,6267,1,0,0:0:0:0:
168,256,6347,1,0,0:0:0:0:
168,256,6426,6,0,P|248:284|328:252,1,170,4|0,0:0|0:0,0:0:0:0:
352,40,6905,2,0,L|341:124,1,85,8|0,0:0|0:0,0:0:0:0:
256,284,7224,1,2,0:0:0:0:
236,92,7383,1,2,0:0:0:0:
404,192,7543,1,8,0:0:0:0:
101,192,7703,6,0,L|107:107,1,85,0|2,0:0|0:0,0:0:0:0:
34,34,8022,1,2,0:0:0:0:
236,92,8182,1,8,0:0:0:0:
101,192,8341,1,2,0:0:0:0:
256,284,8501,1,8,0:0:0:0:
124,308,8660,1,2,0:0:0:0:
247,176,8820,1,8,0:0:0:0:
16,268,8980,5,10,0:0:0:0:
348,286,9299,1,10,0:0:0:0:
236,92,9618,1,10,0:0:0:0:
199,347,9937,1,10,0:0:0:0:
422,307,10256,6,0,P|450:227|418:143,1,170,4|0,0:0|0:0,0:0:0:0:
236,92,10735,1,8,0:0:0:0:
402,53,10894,1,8,0:3:0:0:
354,218,11054,1,8,0:3:0:0:
307,25,11214,1,8,0:3:0:0:
423,149,11373,1,8,0:3:0:0:
258,188,11533,6,0,P|203:209|91:161,1,170,4|0,0:0|0:0,0:0:0:0:
236,92,12011,2,0,P|291:71|403:119,1,170,4|0,0:0|0:0,0:0:0:0:
292,313,12490,2,0,P|276:231|309:154,1,170,4|0,0:0|0:0,0:0:0:0:
116,44,12969,2,0,P|131:126|99:203,1,170,4|8,0:0|0:0,0:0:0:0:
244,259,13448,1,8,0:3:0:0:
99,339,13607,1,8,0:3:0:0:
99,203,13767,1,8,0:3:0:0:
195,339,13926,1,8,0:3:0:0:
33,271,14086,1,8,0:3:0:0:
224,88,14245,6,0,L|212:184,1,85,4|0,0:0|0:0,0:0:0:0:
99,203,14565,1,2,0:0:0:0:
320,60,14724,2,0,L|308:156,1,85,4|0,0:0|0:0,0:0:0:0:
245,258,15043,1,2,0:0:0:0:
140,120,15203,6,0,L|129:35,1,85,4|0,0:0|0:0,0:0:0:0:
286,175,15522,1,2,0:0:0:0:
148,280,15682,2,0,L|63:290,1,85,4|0,0:0|0:0,0:0:0:0:
195,182,16001,1,2,0:0:0:0:
273,344,16160,5,8,0:0:0:0:
372,147,16320,1,2,0:0:0:0:
372,147,16799,6,0,P|380:188|364:244,1,68,4|0,0:0|0:0,0:0:0:0:
300,192,17118,2,0,P|276:226|225:254,1,68
217,172,17437,2,0,P|176:180|120:164,1,68
172,99,17756,2,0,P|137:75|109:24,1,68
68,112,18075,6,0,L|56:184,1,68,2|0,0:0|0:0,0:0:0:0:
136,172,18394,2,0,L|148:244,1,68
91,294,18714,2,0,L|-1:290,1,68
160,332,19033,2,0,L|252:328,1,68
314,242,19352,6,0,L|322:334,1,68,2|0,0:0|0:0,0:0:0:0:
406,222,19671,2,0,L|398:130,1,68
327,81,19990,2,0,P|263:81|247:85,1,68
187,154,20309,2,0,P|153:157|119:154,1,68
44,88,20628,6,0,P|20:132|36:216,1,136,2|0,0:0|0:0,0:0:0:0:
88,300,21107,2,0,P|152:288|240:308,1,136,2|0,0:0|0:0,0:0:0:0:
292,340,21586,1,0,0:0:0:0:
348,284,21745,1,0,0:0:0:0:
402,343,21905,6,0,P|428:282|400:222,1,136,2|0,0:0|0:0,0:0:0:0:
265,137,22384,2,0,L|273:225,2,68
192,192,22862,2,0,L|184:280,1,68
117,345,23182,6,0,P|80:288|92:216,1,136,2|0,0:0|0:0,0:0:0:0:
84,139,23660,2,0,L|16:123,1,68
76,60,23980,2,0,L|144:44,1,68
196,104,24299,1,0,0:0:0:0:
196,104,24458,6,0,L|264:120,1,68,2|0,0:0|0:0,0:0:0:0:
396,44,24777,2,0,L|348:94,1,68
347,247,25097,2,0,L|326:180,1,68
262,119,25416,1,0,0:0:0:0:
212,184,25575,1,0,0:0:0:0:
212,184,25735,6,0,P|176:184|140:172,1,68,2|0,0:0|0:0,0:0:0:0:
76,48,26054,2,0,P|94:79|101:116,1,68
27,234,26373,2,0,P|45:202|73:177,1,68
212,184,26692,1,0,0:0:0:0:
102,248,26852,1,0,0:0:0:0:
184,336,27011,6,0,L|272:344,1,68,4|0,0:0|0:0,0:0:0:0:
312,260,27331,2,0,L|224:268,1,68
300,180,27650,2,0,L|388:188,1,68
218,116,27969,2,0,L|210:196,1,68,0|2,0:0|0:0,0:0:0:0:
130,231,28288,6,0,L|124:164,1,68
200,296,28607,1,0,0:0:0:0:
36,325,28767,2,0,P|20:265|48:185,1,136,2|0,0:0|0:0,0:0:0:0:
124,164,29245,1,0,0:0:0:0:
131,263,29405,1,0,0:0:0:0:
204,214,29565,6,0,P|238:210|283:226,1,68,2|0,0:0|0:0,0:0:0:0:
349,300,29883,1,0,0:0:0:0:
370,218,30043,1,0,0:0:0:0:
230,283,30203,2,0,L|220:377,1,68,2|0,0:0|0:0,0:0:0:0:
270,219,30522,1,0,0:0:0:0:
349,300,30682,6,0,P|382:300|414:288,1,68,2|0,0:0|0:0,0:0:0:0:
270,219,31001,1,0,0:0:0:0:
306,367,31160,1,0,0:0:0:0:
178,345,31320,2,0,P|154:273|186:217,1,136,2|0,0:0|0:0,0:0:0:0:
300,36,31799,2,0,P|324:108|304:152,1,102,2|0,0:0|0:0,0:0:0:0:
298,158,32118,6,0,L|216:156,1,68,4|0,0:0|0:0,0:0:0:0:
143,69,32437,2,0,L|225:66,1,68
64,168,32756,2,0,L|61:85,1,68
184,156,33075,2,0,L|186:238,1,68
116,336,33394,6,0,P|176:308|248:332,1,136,2|0,0:0|0:0,0:0:0:0:
324,352,33873,1,0,0:0:0:0:
404,312,34033,2,0,P|422:247|393:187,1,136,2|0,0:0|0:0,0:0:0:0:
336,130,34511,1,0,0:0:0:0:
278,187,34671,6,0,L|288:276,2,68,2|0|0,0:2|0:3|0:3,0:3:0:0:
256,108,35150,1,0,0:0:0:0:
198,165,35309,2,0,L|216:322,1,136,2|0,0:0|0:0,0:0:0:0:
336,130,35788,1,0,0:0:0:0:
176,86,35948,6,0,L|100:112,1,68,2|0,0:0|0:0,0:0:0:0:
198,165,36267,1,2,0:0:0:0:
234,27,36426,1,0,0:0:0:0:
118,145,36586,2,0,L|102:223,1,68,2|0,0:0|0:0,0:0:0:0:
24,204,36825,1,0,0:0:0:0:
24,204,36905,2,0,L|39:282,1,68,2|0,0:0|0:0,0:0:0:0:
94,328,37224,5,10,0:0:0:0:
198,165,37384,1,10,0:0:0:0:
256,316,37543,2,0,L|188:312,1,68
274,225,37862,2,0,L|342:229,1,68
428,315,38182,2,0,L|360:311,1,68
256,316,38501,5,10,0:0:0:0:
446,224,38660,1,10,0:0:0:0:
360,138,38820,2,0,L|348:238,1,68
265,292,39139,2,0,L|277:192,1,68
203,136,39458,2,0,L|191:236,1,68
360,138,39777,5,10,0:0:0:0:
240,40,39937,1,10,0:0:0:0:
278,192,40097,2,0,P|304:216|352:236,1,68
466,195,40416,2,0,P|432:205|390:237,1,68
369,356,40735,2,0,P|376:321|370:269,1,68
360,138,41054,5,10,0:0:0:0:
296,316,41214,1,10,0:0:0:0:
210,200,41373,2,0,L|279:191,1,68
190,104,41692,2,0,L|120:112,1,68
35,199,42011,1,8,0:0:0:0:
35,199,42171,1,8,0:0:0:0:
35,199,42331,6,0,L|136:210,1,85,4|0,0:0|0:0,0:0:0:0:
151,299,42809,2,0,L|171:351,1,42.5
235,290,43128,2,0,L|251:251,2,42.5
338,353,43607,2,0,P|374:329|394:285,1,85
406,209,44086,5,0,0:0:0:0:
326,237,44245,2,0,L|318:297,1,42.5,2|0,0:0|0:0,0:0:0:0:
246,209,44565,2,0,L|251:251,1,42.5
177,158,44884,6,0,L|161:258,1,85,2|0,0:0|0:0,0:0:0:0:
212,308,45362,1,0,0:0:0:0:
284,269,45522,2,0,P|326:263|367:271,1,85,2|0,0:0|0:0,0:0:0:0:
212,308,46001,1,0,0:0:0:0:
140,344,46160,6,0,P|97:349|55:344,1,85,2|0,0:0|0:0,0:0:0:0:
34,194,46639,1,2,0:0:0:0:
34,194,46719,1,0,0:0:0:0:
34,194,46799,1,8,0:0:0:0:
180,126,46958,1,2,0:0:0:0:
102,268,47118,1,8,0:0:0:0:
82,105,47277,1,2,0:0:0:0:
198,236,47437,5,8,0:0:0:0:
254,71,47597,1,2,0:0:0:0:
118,185,47756,2,0,L|100:281,1,85
198,236,48075,1,8,0:0:0:0:
34,194,48235,1,0,0:0:0:0:
164,307,48394,2,0,P|207:313|259:285,1,85
355,131,48714,1,8,0:0:0:0:
198,236,48873,1,8,0:0:0:0:
420,240,49033,6,0,L|412:336,1,85
332,224,49352,1,2,0:0:0:0:
436,152,49511,1,0,0:0:0:0:
316,312,49671,2,0,L|220:304,1,85
355,131,49990,1,8,0:0:0:0:
158,232,50150,1,8,0:0:0:0:
188,44,50309,5,0,0:0:0:0:
247,216,50469,1,0,0:0:0:0:
247,216,50549,1,0,0:0:0:0:
247,216,50628,2,0,L|343:224,1,85,8|0,0:0|0:0,0:0:0:0:
152,124,50948,1,0,0:0:0:0:
224,312,51107,1,0,0:0:0:0:
355,131,51267,5,8,0:0:0:0:
247,216,51426,1,8,0:0:0:0:
420,177,51586,2,0,P|431:133|420:80,1,85,2|0,0:0|0:0,0:0:0:0:
224,312,51905,1,8,0:0:0:0:
331,223,52065,1,8,0:0:0:0:
159,266,52224,2,0,P|147:309|158:362,1,85,2|0,0:0|0:0,0:0:0:0:
309,323,52543,5,8,0:0:0:0:
420,176,52703,1,0,0:0:0:0:
247,216,52862,1,8,0:0:0:0:
418,286,53022,1,0,0:0:0:0:
320,132,53182,1,8,0:0:0:0:
224,312,53341,1,0,0:0:0:0:
44,224,53501,2,0,L|56:136,1,85,8|0,0:0|0:0,0:0:0:0:
268,48,53820,5,8,0:0:0:0:
132,183,53980,1,0,0:0:0:0:
132,183,54059,1,0,0:0:0:0:
132,183,54139,2,0,L|120:271,1,85
212,252,54458,1,8,0:0:0:0:
56,140,54618,1,2,0:0:0:0:
268,48,54777,2,0,L|256:136,1,85
212,252,55097,6,0,L|224:340,1,85
399,246,55416,1,8,0:0:0:0:
252,66,55575,1,8,0:0:0:0:
212,252,55735,1,8,0:0:0:0:
422,143,55894,1,8,0:0:0:0:
190,149,56054,1,8,0:0:0:0:
308,290,56214,1,8,0:0:0:0:
357,65,56373,1,8,0:0:0:0:
357,65,56692,6,0,L|338:150,1,63.7500024318696,2|0,0:0|0:0,0:0:0:0:
422,143,57011,2,0,L|408:205,1,63.7500024318696
487,221,57331,2,0,L|468:306,1,63.7500024318696,2|0,0:0|0:0,0:0:0:0:
368,348,57650,6,0,P|284:368|224:312,1,170,4|8,0:0|0:0,0:0:0:0:
164,204,58128,1,2,0:0:0:0:
336,120,58288,2,0,L|320:220,1,85,2|0,0:0|0:0,0:0:0:0:
232,76,58607,1,8,0:0:0:0:
400,232,58767,1,2,0:0:0:0:
400,232,58847,1,0,0:0:0:0:
400,232,58926,6,0,P|312:216|224:240,1,170,4|8,0:0|0:0,0:0:0:0:
352,336,59405,1,2,0:0:0:0:
463,277,59565,2,0,P|475:233|459:181,1,85,2|0,0:0|0:0,0:0:0:0:
324,128,59884,2,0,P|312:172|328:224,1,85,8|0,0:0|0:0,0:0:0:0:
416,72,60203,6,0,P|372:44|248:52,1,170,4|8,0:0|0:0,0:0:0:0:
319,209,60682,1,2,0:0:0:0:
192,120,60841,2,0,L|196:216,1,85,4|0,0:0|0:0,0:0:0:0:
319,209,61160,1,8,0:0:0:0:
116,84,61320,1,0,0:0:0:0:
116,84,61400,1,0,0:0:0:0:
116,84,61480,6,0,L|124:260,1,170,4|8,0:0|0:0,0:0:0:0:
216,292,61958,1,2,0:0:0:0:
30,214,62118,2,0,L|26:118,1,85,2|0,0:0|0:0,0:0:0:0:
184,36,62437,1,8,0:0:0:0:
319,209,62597,1,0,0:0:0:0:
319,209,62676,1,0,0:0:0:0:
319,209,62756,6,0,B|412:244|464:208|464:208|424:180,1,170,4|8,0:0|0:0,0:0:0:0:
284,84,63235,1,2,0:0:0:0:
387,119,63394,2,0,P|394:78|384:37,1,85,2|0,0:0|0:0,0:0:0:0:
224,200,63714,1,8,0:0:0:0:
184,36,63873,1,2,0:0:0:0:
319,209,64033,6,0,L|312:356,1,127.5,4|0,0:0|0:0,0:0:0:0:
312,336,64352,1,8,0:0:0:0:
224,200,64511,1,2,0:0:0:0:
400,288,64671,1,2,0:0:0:0:
388,120,64831,1,2,0:0:0:0:
218,328,64990,2,0,L|108:324,1,85,8|0,0:0|0:0,0:0:0:0:
319,209,65309,6,0,L|429:205,1,85,6|0,0:0|0:0,0:0:0:0:
224,200,65628,2,0,L|172:297,1,85,6|0,0:0|0:0,0:0:0:0:
279,122,65948,2,0,L|220:28,1,85,6|0,0:0|0:0,0:0:0:0:
264,287,66267,2,0,L|322:380,1,85,6|0,0:0|0:0,0:0:0:0:
396,252,66586,2,0,P|404:208|388:136,1,85,6|0,0:0|0:0,0:0:0:0:
343,69,66905,5,2,0:0:0:0:
325,56,66984,1,0,0:0:0:0:
306,48,67064,1,0,0:0:0:0:
285,44,67144,1,0,0:0:0:0:
264,45,67224,1,2,0:0:0:0:
244,52,67303,1,0,0:0:0:0:
225,62,67383,1,0,0:0:0:0:
210,77,67463,1,0,0:0:0:0:
200,96,67543,2,0,L|192:144,1,42.5,2|0,0:0|0:0,0:0:0:0:
284,184,67703,2,0,L|290:225,1,42.5,2|0,0:0|0:0,0:0:0:0:
188,304,67862,6,0,P|104:324|44:268,1,170,4|8,0:0|0:0,0:0:0:0:
164,192,68341,1,2,0:0:0:0:
56,108,68501,2,0,L|60:204,1,85,2|0,0:0|0:0,0:0:0:0:
284,184,68820,1,8,0:0:0:0:
128,36,68980,1,2,0:0:0:0:
388,96,69139,6,0,P|420:160|392:260,1,170,4|8,0:0|0:0,0:0:0:0:
479,109,69618,1,2,0:0:0:0:
306,114,69777,2,0,P|308:72|329:35,1,85,2|0,0:0|0:0,0:0:0:0:
398,252,70097,1,8,0:0:0:0:
200,188,70256,5,2,0:0:0:0:
272,260,70416,2,0,L|268:364,1,85,4|0,0:0|0:0,0:0:0:0:
200,188,70735,5,8,0:0:0:0:
226,89,70895,2,0,L|318:40,1,85,4|0,0:0|0:0,0:0:0:0:
200,188,71214,5,2,0:0:0:0:
101,214,71373,2,0,L|12:158,1,85,12|0,0:0|0:0,0:0:0:0:
212,316,71692,6,0,P|290:337|350:282,1,170,4|8,0:0|0:0,0:0:0:0:
272,260,72171,1,2,0:0:0:0:
414,326,72331,2,0,L|432:228,1,85,2|0,0:0|0:0,0:0:0:0:
352,164,72650,1,8,0:0:0:0:
436,92,72809,1,2,0:0:0:0:
329,89,72969,6,0,B|272:116|276:176|276:176|244:184,1,136,4|0,0:0|0:0,0:0:0:0:
190,122,73448,1,0,0:0:0:0:
120,164,73607,2,0,L|112:236,1,68,8|0,0:0|0:0,0:0:0:0:
192,244,73926,2,0,L|200:316,1,68
280,324,74245,6,0,P|332:304|416:320,1,136,2|0,0:0|0:0,0:0:0:0:
488,352,74724,1,0,0:0:0:0:
472,268,74884,2,0,L|482:200,1,68,8|0,0:0|0:0,0:0:0:0:
373,148,75203,2,0,L|384:216,1,68,2|0,0:0|0:0,0:0:0:0:
460,72,75522,6,0,P|412:36|320:48,1,136,4|0,0:0|0:0,0:0:0:0:
237,139,76001,1,0,0:0:0:0:
237,139,76160,2,0,L|387:149,1,136,8|0,0:0|0:0,0:0:0:0:
459,234,76639,1,0,0:0:0:0:
459,234,76799,6,0,L|376:220,1,68,8|0,0:0|0:0,0:0:0:0:
220,299,77118,2,0,L|288:288,1,68,8|0,0:0|0:0,0:0:0:0:
104,204,77437,2,0,L|112:340,1,136,8|0,0:0|0:0,0:0:0:0:
212,196,77916,1,2,0:0:0:0:
212,196,78075,6,0,L|216:136,1,50.9999984436036,10|0,0:0|0:0,0:0:0:0:
296,216,78394,2,0,L|292:276,1,50.9999984436036,10|0,0:0|0:0,0:0:0:0:
201,188,78714,6,0,L|222:105,1,63.7500024318696,10|0,0:0|0:0,0:0:0:0:
299,232,79033,2,0,L|278:315,1,63.7500024318696,10|0,0:0|0:0,0:0:0:0:
189,176,79352,6,0,L|231:86,1,76.4999976654053,10|0,0:0|0:0,0:0:0:0:
299,253,79671,2,0,L|258:344,1,76.4999976654053,10|0,0:0|0:0,0:0:0:0:
177,158,79990,6,0,L|241:71,1,89.2499972763062,10|0,0:0|0:0,0:0:0:0:
294,279,80309,2,0,L|237:368,1,89.2499972763062,10|0,0:0|0:0,0:0:0:0:
256,192,80628,5,2,0:0:0:0:
256,192,81999,5,2,0:0:0:0:
256,192,82717,6,0,P|245:151|220:117,1,85,2|0,0:0|0:0,0:0:0:0:
87,192,83436,6,0,L|172:185,1,85,2|0,0:0|0:0,0:0:0:0:
286,267,84154,2,0,L|370:259,1,85,2|0,0:0|0:0,0:0:0:0:
390,122,84873,6,0,L|302:130,1,85,2|0,0:0|0:0,0:0:0:0:
206,254,85591,2,0,L|118:262,1,85,2|0,0:0|0:0,0:0:0:0:
256,192,86338,5,2,0:0:0:0:
