osu file format v14

[General]
AudioFilename: Dear Brave.mp3
AudioLeadIn: 0
PreviewTime: 56533
Countdown: 0
SampleSet: Soft
StackLeniency: 0.3
Mode: 0
LetterboxInBreaks: 0
WidescreenStoryboard: 0

[Editor]
Bookmarks: 16799,57570
DistanceSpacing: 1.1
BeatDivisor: 2
GridSize: 4
TimelineZoom: 1.599999

[Metadata]
Title:Dear Brave
TitleUnicode:ディアブレイブ
Artist:Kano
ArtistUnicode:鹿乃
Creator:chucentry
Version:Easy
Source:ヘヴィーオブジェクト
Tags:HEAVY OBJECT iMage-- Meg Yuii- Del05 Laurier ending tv size
BeatmapID:805796
BeatmapSetID:364395

[Difficulty]
HPDrainRate:2
CircleSize:3
OverallDifficulty:2
ApproachRate:3
SliderMultiplier:0.9
SliderTickRate:1

[Events]
//Background and Video events
0,0,"BG.jpg",0,0
Video,0,"movie.avi"
//Break Periods
2,42531,45997
//Storyboard Layer 0 (Background)
//Storyboard Layer 1 (Fail)
//Storyboard Layer 2 (Pass)
//Storyboard Layer 3 (Foreground)
//Storyboard Sound Samples

[TimingPoints]
1480,319.148936170213,4,2,1,40,1,0
6426,-100,4,2,1,60,0,0
16799,-100,4,2,1,40,0,0
27011,-100,4,2,1,50,0,0
37224,-100,4,2,1,60,0,0
47437,-100,4,2,2,60,0,0
57650,-100,4,2,2,80,0,1
78075,-100,4,2,2,30,0,1
79352,-100,4,2,2,60,0,1
80628,342.857142857143,4,2,3,50,1,0
81999,359.281437125748,4,2,3,60,1,0
83436,-100,4,2,3,30,0,0
85951,387.096774193548,4,2,3,30,1,0
86241,-100,4,2,3,15,0,0

[Colours]
Combo1 : 255,81,255
Combo2 : 255,255,128
Combo3 : 180,126,3
Combo4 : 181,181,255

[HitObjects]
456,200,1480,6,0,B|384:204|376:280|376:280|336:360|224:328,1,270,6|0,0:0|0:0,0:0:0:0:
284,240,2756,2,0,B|280:168|204:160|204:160|124:120|156:8,1,270,0|2,0:0|0:0,0:0:0:0:
244,68,4033,6,0,B|352:60|408:152|408:152,1,180,2|2,0:0|0:0,0:0:0:0:
464,276,5150,1,2,0:0:0:0:
288,320,6426,6,0,P|222:330|156:288,1,135,6|8,0:0|0:0,0:0:0:0:
240,232,7224,1,2,0:0:0:0:
379,279,7703,2,0,P|423:329|489:340,1,135,2|8,0:0|0:0,0:0:0:0:
472,240,8501,2,0,P|476:172|424:108,1,135,0|10,0:0|0:0,0:0:0:0:
344,136,9299,6,0,L|336:36,2,90,10|10|10,0:0|0:0|0:0,0:0:0:0:
248,109,10256,2,0,P|184:97|112:133,1,135,6|8,0:0|0:0,0:0:0:0:
67,210,11054,2,0,P|130:221|202:185,1,135,4|14,0:3|0:0,0:0:0:0:
262,322,12011,6,0,P|330:349|388:328,2,135,14|14|14,0:0|0:0|0:0,0:0:0:0:
330,251,13288,2,0,P|394:193|384:107,1,180,10|2,0:0|0:0,0:0:0:0:
323,32,14245,6,0,P|385:11|447:36,2,135,14|14|14,0:0|0:0|0:0,0:0:0:0:
192,100,15682,1,14,0:0:0:0:
212,248,16160,1,10,0:0:0:0:
392,332,16799,6,0,B|432:264|392:200|392:200|440:112,1,225,6|0,0:0|0:0,0:0:0:0:
295,63,18075,2,0,P|170:67|151:195,1,270,2|0,0:0|0:0,0:0:0:0:
236,143,19352,2,0,L|288:239,1,90,2|0,0:0|0:0,0:0:0:0:
288,320,19990,2,0,P|236:309|192:273,1,90
116,332,20628,5,2,0:0:0:0:
68,192,21107,2,0,B|85:150|85:150|74:99|108:61,1,135
181,128,21905,2,0,P|233:204|217:292,1,180,2|0,0:0|0:0,0:0:0:0:
412,344,23182,6,0,B|380:260|380:260|412:148,1,180,2|0,0:0|0:0,0:0:0:0:
472,100,24139,1,0,0:0:0:0:
376,80,24458,2,0,B|324:116|312:180|312:180|260:172|208:204,1,225,2|0,0:0|0:0,0:0:0:0:
160,115,25575,2,0,P|113:212|181:294,1,225,0|2,0:0|0:0,0:0:0:0:
278,294,26692,1,0,0:0:0:0:
370,257,27011,6,0,B|302:197|302:197|212:200,1,180,6|0,0:0|0:0,0:0:0:0:
212,100,27969,1,0,0:0:0:0:
310,101,28288,2,0,B|378:161|378:161|468:158,1,180,2|0,0:0|0:0,0:0:0:0:
410,76,29245,5,0,0:0:0:0:
333,12,29565,2,0,P|226:72|290:190,1,270,2|0,0:0|0:0,0:0:0:0:
342,258,30841,2,0,L|374:154,2,90,2|0|0,0:0|0:0|0:0,0:0:0:0:
310,351,31799,1,0,0:0:0:0:
235,285,32118,6,0,L|203:181,1,90,6|0,0:0|0:0,0:0:0:0:
290,142,32756,2,0,L|322:38,1,90
224,20,33394,2,0,L|192:124,1,90,2|0,0:0|0:0,0:0:0:0:
98,101,34033,2,0,L|130:205,1,90,2|0,0:0|0:0,0:0:0:0:
256,192,34671,12,2,35948,0:0:0:0:
92,45,37224,6,0,B|125:107|125:107|250:84|295:209,1,270,8|2,0:0|0:0,0:0:0:0:
214,261,38501,2,0,B|267:314|337:280|337:280|369:360|454:353,1,270,8|2,0:0|0:0,0:0:0:0:
436,252,39777,6,0,P|476:137|369:65,1,270,8|2,0:0|0:0,0:0:0:0:
380,167,41054,2,0,B|296:223|220:123|84:203,1,270,8|2,0:0|0:0,0:0:0:0:
44,254,42331,1,6,0:0:0:0:
48,288,47437,6,0,P|128:340|236:224,1,270,6|8,0:0|0:0,0:0:0:0:
135,239,48714,2,0,P|107:206|94:163,2,90,2|8|2,0:0|0:0|0:0,0:0:0:0:
196,160,49671,1,8,0:0:0:0:
265,229,49990,6,0,P|381:289|454:187,1,270,2|8,0:0|0:0,0:0:0:0:
356,192,51267,2,0,P|240:132|167:234,1,270,2|8,0:0|0:0,0:0:0:0:
236,294,52543,6,0,B|315:283|354:342|354:342|412:304|484:350,1,270,12|8,0:0|0:0,0:0:0:0:
484,247,53820,2,0,B|405:258|366:199|366:199|308:237|236:191,1,270,12|8,0:0|0:0,0:0:0:0:
150,147,55097,6,0,P|219:94|303:117,2,180,10|10|12,0:0|0:0|0:0,0:0:0:0:
369,150,57650,6,0,P|366:194|375:238,1,90,6|8,0:0|0:0,0:0:0:0:
467,279,58288,2,0,P|440:314|400:335,1,90,2|8,0:0|0:0,0:0:0:0:
308,300,58926,2,0,P|248:232|256:136,1,180,6|8,0:0|0:0,0:0:0:0:
316,72,59884,1,8,0:0:0:0:
224,40,60203,6,0,L|112:28,1,90,6|8,0:0|0:0,0:0:0:0:
76,112,60841,2,0,L|180:124,1,90,6|8,0:0|0:0,0:0:0:0:
256,164,61480,2,0,P|264:208|248:276,1,90,6|8,0:0|0:0,0:0:0:0:
172,304,62118,2,0,P|164:260|180:192,1,90,2|8,0:0|0:0,0:0:0:0:
160,116,62756,6,0,L|252:68,1,90,4|8,0:0|0:0,0:0:0:0:
328,31,63394,2,0,P|407:52|429:80,1,90,2|8,0:0|0:0,0:0:0:0:
343,130,64033,2,0,P|265:161|284:247,1,180,6|2,0:0|0:0,0:0:0:0:
376,260,64990,1,8,0:0:0:0:
316,336,65309,6,0,P|224:328|180:248,2,180,12|8|8,0:0|0:0|0:0,0:0:0:0:
280,244,66905,2,0,P|271:199|280:156,2,90,8|8|8,0:0|0:0|0:0,0:0:0:0:
376,268,67862,6,0,P|459:200|461:130,1,180,6|2,0:0|0:0,0:0:0:0:
365,165,68820,1,8,0:0:0:0:
292,96,69139,2,0,B|256:88|256:88|232:92|232:92|180:84,1,90,6|8,0:0|0:0,0:0:0:0:
144,168,69777,2,0,B|180:176|180:176|204:172|204:172|256:180,1,90,2|8,0:0|0:0,0:0:0:0:
320,224,70416,6,0,P|341:289|317:352,2,135,14|14|8,0:0|0:0|0:0,0:0:0:0:
244,287,71692,2,0,P|199:293|155:285,1,90,4|8,0:0|0:0,0:0:0:0:
64,248,72331,2,0,B|60:200|60:200|72:144,1,90,10|8,0:0|0:0,0:0:0:0:
115,73,72969,6,0,P|157:56|201:59,2,90,6|2|8,0:0|0:0|0:0,0:0:0:0:
172,152,73926,1,2,0:0:0:0:
241,221,74245,2,0,L|229:337,2,90,6|2|8,0:0|0:0|0:0,0:0:0:0:
311,150,75203,1,2,0:0:0:0:
256,192,75522,12,4,78075,0:0:0:0:
435,127,79352,6,0,B|311:211|311:27|163:151,1,270,10|14,0:0|0:0,0:0:0:0:
252,200,80628,2,0,P|132:212|106:81,1,270,2|0,0:0|0:0,0:0:0:0:
192,56,81999,5,2,0:0:0:0:
256,192,83436,12,2,86338,0:0:0:0:
