osu file format v14

[General]
AudioFilename: MV____OFFICIAL.mp3
AudioLeadIn: 0
PreviewTime: 134405
Countdown: 0
SampleSet: Soft
StackLeniency: 0.7
Mode: 3
LetterboxInBreaks: 0
SpecialStyle: 0
WidescreenStoryboard: 0

[Editor]
DistanceSpacing: 1
BeatDivisor: 4
GridSize: 4
TimelineZoom: 1.8

[Metadata]
Title:Dear Brave
TitleUnicode:Dear Brave
Artist:Kano
ArtistUnicode:Kano
Creator:Zenonia
Version:Warmth
Source:ヘヴィーオブジェクト
Tags:heavy object ed ending full ver
BeatmapID:865059
BeatmapSetID:397749

[Difficulty]
HPDrainRate:7.5
CircleSize:7
OverallDifficulty:7.5
ApproachRate:5
SliderMultiplier:1.4
SliderTickRate:1

[Events]
//Background and Video events
0,0,"lolibaka.com_437019.jpg",0,0
//Break Periods
//Storyboard Layer 0 (Background)
//Storyboard Layer 1 (Fail)
//Storyboard Layer 2 (Pass)
//Storyboard Layer 3 (Foreground)
//Storyboard Sound Samples

[TimingPoints]
2598,319.148936170213,4,2,0,20,1,0
7544,319.148936170213,4,2,0,20,1,0
17916,319.148936170213,4,2,0,20,1,0
188341,319.148936170213,4,2,0,20,1,0
231742,326.086956521739,4,2,0,20,1,0
236633,319.148936170213,4,2,0,20,1,0
236952,319.148936170213,4,2,0,20,1,0

[HitObjects]
109,192,2598,5,0,0:0:0:0:
402,192,2598,1,0,0:0:0:0:
329,192,2917,1,0,0:0:0:0:
475,192,3236,1,0,0:0:0:0:
256,192,3236,1,0,0:0:0:0:
182,192,3555,1,0,0:0:0:0:
36,192,3715,1,0,0:0:0:0:
256,192,3874,1,0,0:0:0:0:
402,192,3874,1,0,0:0:0:0:
36,192,4034,1,0,0:0:0:0:
182,192,4193,1,0,0:0:0:0:
329,192,4353,1,0,0:0:0:0:
475,192,4512,1,0,0:0:0:0:
109,192,4512,1,0,0:0:0:0:
402,192,4672,1,0,0:0:0:0:
329,192,4832,1,0,0:0:0:0:
256,192,4991,1,0,0:0:0:0:
182,192,5151,1,0,0:0:0:0:
475,192,5151,1,0,0:0:0:0:
36,192,5470,1,0,0:0:0:0:
329,192,5789,1,0,0:0:0:0:
475,192,5789,1,0,0:0:0:0:
402,192,6108,1,0,0:0:0:0:
109,192,6108,1,0,0:0:0:0:
256,192,6268,128,0,7066:0:0:0:0:
182,192,7066,128,0,7544:0:0:0:0:
36,192,7544,128,0,8341:0:0:0:0:
256,192,7544,1,0,0:0:0:0:
329,192,7863,1,0,0:0:0:0:
256,192,8022,1,0,0:0:0:0:
475,192,8022,1,0,0:0:0:0:
182,192,8341,1,0,0:0:0:0:
329,192,8341,1,0,0:0:0:0:
402,192,8501,1,0,0:0:0:0:
475,192,8661,1,0,0:0:0:0:
329,192,8820,128,0,9458:0:0:0:0:
256,192,8820,1,0,0:0:0:0:
182,192,8980,1,0,0:0:0:0:
36,192,9139,1,0,0:0:0:0:
256,192,9299,1,0,0:0:0:0:
475,192,9299,1,0,0:0:0:0:
36,192,9458,1,0,0:0:0:0:
182,192,9618,1,0,0:0:0:0:
402,192,9778,1,0,0:0:0:0:
329,192,9937,1,0,0:0:0:0:
256,192,10097,1,0,0:0:0:0:
36,192,10097,1,0,0:0:0:0:
475,192,10097,1,0,0:0:0:0:
109,192,10416,1,0,0:0:0:0:
329,192,10416,1,0,0:0:0:0:
475,192,10735,1,0,0:0:0:0:
256,192,10735,1,0,0:0:0:0:
402,192,11054,1,0,0:0:0:0:
182,192,11054,1,0,0:0:0:0:
36,192,11373,1,0,0:0:0:0:
256,192,11373,1,0,0:0:0:0:
475,192,11373,1,0,0:0:0:0:
109,192,11692,1,0,0:0:0:0:
402,192,11692,1,0,0:0:0:0:
329,192,11852,1,0,0:0:0:0:
182,192,12012,1,0,0:0:0:0:
475,192,12171,1,0,0:0:0:0:
402,192,12331,1,0,0:0:0:0:
329,192,12490,1,0,0:0:0:0:
256,192,12650,1,0,0:0:0:0:
36,192,12650,128,0,13129:0:0:0:0:
182,192,12969,1,0,0:0:0:0:
256,192,13129,128,0,13607:0:0:0:0:
109,192,13129,1,0,0:0:0:0:
329,192,13448,1,0,0:0:0:0:
402,192,13607,128,0,14086:0:0:0:0:
109,192,13607,1,0,0:0:0:0:
329,192,13926,1,0,0:0:0:0:
109,192,14086,128,0,14565:0:0:0:0:
256,192,14086,1,0,0:0:0:0:
329,192,14405,1,0,0:0:0:0:
182,192,14565,1,0,0:0:0:0:
402,192,14724,1,0,0:0:0:0:
329,192,14884,1,0,0:0:0:0:
256,192,15044,1,0,0:0:0:0:
182,192,15203,1,0,0:0:0:0:
109,192,15363,128,0,15841:0:0:0:0:
475,192,15363,1,0,0:0:0:0:
402,192,15682,1,0,0:0:0:0:
256,192,15841,128,0,16320:0:0:0:0:
475,192,15841,1,0,0:0:0:0:
109,192,16161,1,0,0:0:0:0:
402,192,16320,128,0,16799:0:0:0:0:
36,192,16320,1,0,0:0:0:0:
182,192,16639,1,0,0:0:0:0:
256,192,16799,128,0,17118:0:0:0:0:
109,192,16799,1,0,0:0:0:0:
475,192,16799,1,0,0:0:0:0:
402,192,16958,1,0,0:0:0:0:
329,192,17118,1,0,0:0:0:0:
109,192,17278,1,0,0:0:0:0:
402,192,17278,1,0,0:0:0:0:
36,192,17437,1,0,0:0:0:0:
256,192,17437,1,0,0:0:0:0:
475,192,17437,1,0,0:0:0:0:
329,192,17916,1,0,0:0:0:0:
182,192,18075,1,0,0:0:0:0:
329,192,18235,1,0,0:0:0:0:
182,192,18394,1,0,0:0:0:0:
329,192,18554,1,0,0:0:0:0:
182,192,18713,1,0,0:0:0:0:
329,192,18873,1,0,0:0:0:0:
182,192,19033,1,0,0:0:0:0:
402,192,19192,1,0,0:0:0:0:
109,192,19352,1,0,0:0:0:0:
402,192,19511,1,0,0:0:0:0:
109,192,19671,1,0,0:0:0:0:
402,192,19830,1,0,0:0:0:0:
109,192,19990,1,0,0:0:0:0:
402,192,20150,1,0,0:0:0:0:
109,192,20309,1,0,0:0:0:0:
475,192,20469,1,0,0:0:0:0:
36,192,20628,1,0,0:0:0:0:
475,192,20788,1,0,0:0:0:0:
36,192,20947,1,0,0:0:0:0:
402,192,21107,1,0,0:0:0:0:
182,192,21267,1,0,0:0:0:0:
329,192,21426,1,0,0:0:0:0:
109,192,21586,1,0,0:0:0:0:
475,192,21745,1,0,0:0:0:0:
36,192,21905,1,0,0:0:0:0:
329,192,22064,1,0,0:0:0:0:
182,192,22224,1,0,0:0:0:0:
475,192,22384,1,0,0:0:0:0:
36,192,22543,1,0,0:0:0:0:
402,192,22703,1,0,0:0:0:0:
109,192,22862,1,0,0:0:0:0:
182,192,23022,128,0,24298:0:0:0:0:
256,192,23022,1,0,0:0:0:0:
402,192,23181,1,0,0:0:0:0:
36,192,23341,1,0,0:0:0:0:
329,192,23501,1,0,0:0:0:0:
475,192,23660,1,0,0:0:0:0:
36,192,23820,1,0,0:0:0:0:
402,192,23979,1,0,0:0:0:0:
109,192,24139,1,0,0:0:0:0:
329,192,24298,128,0,25575:0:0:0:0:
475,192,24298,1,0,0:0:0:0:
402,192,24458,1,0,0:0:0:0:
36,192,24618,1,0,0:0:0:0:
182,192,24777,1,0,0:0:0:0:
475,192,24937,1,0,0:0:0:0:
402,192,25096,1,0,0:0:0:0:
109,192,25256,1,0,0:0:0:0:
256,192,25416,1,0,0:0:0:0:
402,192,25575,128,0,26852:0:0:0:0:
36,192,25575,1,0,0:0:0:0:
182,192,25735,1,0,0:0:0:0:
329,192,25894,1,0,0:0:0:0:
109,192,26054,1,0,0:0:0:0:
475,192,26213,1,0,0:0:0:0:
256,192,26373,1,0,0:0:0:0:
36,192,26533,1,0,0:0:0:0:
182,192,26692,1,0,0:0:0:0:
256,192,26852,128,0,27490:0:0:0:0:
109,192,26852,1,0,0:0:0:0:
329,192,27011,1,0,0:0:0:0:
182,192,27171,1,0,0:0:0:0:
402,192,27330,1,0,0:0:0:0:
475,192,27490,1,0,0:0:0:0:
109,192,27490,1,0,0:0:0:0:
36,192,27650,1,0,0:0:0:0:
402,192,27650,1,0,0:0:0:0:
109,192,27729,1,0,0:0:0:0:
182,192,27809,1,0,0:0:0:0:
329,192,27809,1,0,0:0:0:0:
256,192,27969,1,0,0:0:0:0:
36,192,28128,1,0,0:0:0:0:
402,192,28128,1,0,0:0:0:0:
182,192,28128,128,0,29405:0:0:0:0:
329,192,28288,1,0,0:0:0:0:
475,192,28447,1,0,0:0:0:0:
256,192,28447,1,0,0:0:0:0:
402,192,28607,1,0,0:0:0:0:
475,192,28767,1,0,0:0:0:0:
109,192,28767,1,0,0:0:0:0:
329,192,28926,1,0,0:0:0:0:
475,192,29086,1,0,0:0:0:0:
256,192,29086,1,0,0:0:0:0:
36,192,29245,1,0,0:0:0:0:
256,192,29405,128,0,29724:0:0:0:0:
402,192,29405,1,0,0:0:0:0:
329,192,29564,1,0,0:0:0:0:
109,192,29724,128,0,30043:0:0:0:0:
402,192,29724,1,0,0:0:0:0:
182,192,29884,1,0,0:0:0:0:
402,192,30043,128,0,30362:0:0:0:0:
329,192,30043,1,0,0:0:0:0:
256,192,30203,1,0,0:0:0:0:
36,192,30362,128,0,30681:0:0:0:0:
475,192,30362,1,0,0:0:0:0:
182,192,30522,1,0,0:0:0:0:
109,192,30681,1,0,0:0:0:0:
329,192,30681,128,0,31320:0:0:0:0:
256,192,30841,1,0,0:0:0:0:
36,192,31001,1,0,0:0:0:0:
475,192,31001,1,0,0:0:0:0:
402,192,31160,1,0,0:0:0:0:
109,192,31320,1,0,0:0:0:0:
256,192,31320,128,0,31958:0:0:0:0:
182,192,31479,1,0,0:0:0:0:
329,192,31639,1,0,0:0:0:0:
36,192,31639,1,0,0:0:0:0:
402,192,31798,1,0,0:0:0:0:
475,192,31958,1,0,0:0:0:0:
182,192,31958,128,0,32596:0:0:0:0:
109,192,32118,1,0,0:0:0:0:
402,192,32277,1,0,0:0:0:0:
36,192,32277,1,0,0:0:0:0:
475,192,32437,1,0,0:0:0:0:
109,192,32596,128,0,33235:0:0:0:0:
402,192,32596,1,0,0:0:0:0:
256,192,32756,1,0,0:0:0:0:
329,192,32916,1,0,0:0:0:0:
402,192,33075,1,0,0:0:0:0:
36,192,33235,128,0,33554:0:0:0:0:
182,192,33235,1,0,0:0:0:0:
475,192,33235,1,0,0:0:0:0:
329,192,33394,1,0,0:0:0:0:
256,192,33554,128,0,33873:0:0:0:0:
475,192,33554,1,0,0:0:0:0:
109,192,33713,1,0,0:0:0:0:
475,192,33873,128,0,34192:0:0:0:0:
182,192,33873,1,0,0:0:0:0:
402,192,34033,1,0,0:0:0:0:
329,192,34192,128,0,34511:0:0:0:0:
109,192,34192,1,0,0:0:0:0:
182,192,34352,1,0,0:0:0:0:
402,192,34511,128,0,35150:0:0:0:0:
256,192,34511,1,0,0:0:0:0:
182,192,34671,1,0,0:0:0:0:
109,192,34830,1,0,0:0:0:0:
36,192,34990,1,0,0:0:0:0:
475,192,35150,128,0,35788:0:0:0:0:
256,192,35150,1,0,0:0:0:0:
182,192,35309,1,0,0:0:0:0:
109,192,35469,1,0,0:0:0:0:
36,192,35628,1,0,0:0:0:0:
182,192,35788,128,0,37064:0:0:0:0:
329,192,35788,1,0,0:0:0:0:
402,192,35947,1,0,0:0:0:0:
36,192,36107,1,0,0:0:0:0:
256,192,36107,1,0,0:0:0:0:
329,192,36267,1,0,0:0:0:0:
475,192,36426,1,0,0:0:0:0:
402,192,36586,1,0,0:0:0:0:
256,192,36745,1,0,0:0:0:0:
36,192,36745,1,0,0:0:0:0:
329,192,36905,1,0,0:0:0:0:
256,192,37064,128,0,37703:0:0:0:0:
109,192,37064,1,0,0:0:0:0:
36,192,37224,1,0,0:0:0:0:
182,192,37384,1,0,0:0:0:0:
475,192,37384,1,0,0:0:0:0:
402,192,37543,1,0,0:0:0:0:
329,192,37703,128,0,38341:0:0:0:0:
36,192,37703,1,0,0:0:0:0:
109,192,37862,1,0,0:0:0:0:
182,192,37942,1,0,0:0:0:0:
256,192,38022,1,0,0:0:0:0:
475,192,38022,1,0,0:0:0:0:
182,192,38181,1,0,0:0:0:0:
256,192,38341,1,0,0:0:0:0:
36,192,38341,1,0,0:0:0:0:
36,192,38501,1,0,0:0:0:0:
475,192,38501,1,0,0:0:0:0:
182,192,38660,1,0,0:0:0:0:
329,192,38820,1,0,0:0:0:0:
182,192,38979,1,0,0:0:0:0:
329,192,39139,1,0,0:0:0:0:
182,192,39298,1,0,0:0:0:0:
256,192,39458,1,0,0:0:0:0:
475,192,39618,1,0,0:0:0:0:
329,192,39618,1,0,0:0:0:0:
475,192,39777,1,0,0:0:0:0:
182,192,39777,1,0,0:0:0:0:
402,192,39937,1,0,0:0:0:0:
109,192,40096,1,0,0:0:0:0:
402,192,40256,1,0,0:0:0:0:
109,192,40416,1,0,0:0:0:0:
402,192,40575,1,0,0:0:0:0:
109,192,40735,1,0,0:0:0:0:
36,192,40894,1,0,0:0:0:0:
182,192,40894,1,0,0:0:0:0:
36,192,41054,1,0,0:0:0:0:
256,192,41054,1,0,0:0:0:0:
402,192,41213,1,0,0:0:0:0:
109,192,41373,1,0,0:0:0:0:
402,192,41533,1,0,0:0:0:0:
109,192,41692,1,0,0:0:0:0:
402,192,41852,1,0,0:0:0:0:
182,192,42011,1,0,0:0:0:0:
256,192,42171,1,0,0:0:0:0:
402,192,42171,1,0,0:0:0:0:
402,192,42330,1,0,0:0:0:0:
109,192,42330,1,0,0:0:0:0:
329,192,42490,1,0,0:0:0:0:
475,192,42650,1,0,0:0:0:0:
329,192,42809,1,0,0:0:0:0:
182,192,42969,1,0,0:0:0:0:
36,192,43128,1,0,0:0:0:0:
256,192,43288,1,0,0:0:0:0:
182,192,43447,1,0,0:0:0:0:
475,192,43447,1,0,0:0:0:0:
36,192,43447,128,0,43767:0:0:0:0:
329,192,43767,128,0,44086:0:0:0:0:
182,192,44086,128,0,44405:0:0:0:0:
475,192,44405,128,0,44724:0:0:0:0:
109,192,44724,128,0,45043:0:0:0:0:
402,192,45043,128,0,45362:0:0:0:0:
36,192,45362,1,0,0:0:0:0:
256,192,45362,128,0,45681:0:0:0:0:
109,192,45681,128,0,46001:0:0:0:0:
475,192,46001,1,0,0:0:0:0:
329,192,46001,128,0,46639:0:0:0:0:
182,192,46639,128,0,47277:0:0:0:0:
402,192,46639,1,0,0:0:0:0:
36,192,47277,128,0,47916:0:0:0:0:
256,192,47277,1,0,0:0:0:0:
256,192,47596,1,0,0:0:0:0:
475,192,47756,1,0,0:0:0:0:
402,192,47836,1,0,0:0:0:0:
329,192,47916,1,0,0:0:0:0:
109,192,47916,1,0,0:0:0:0:
182,192,48075,1,0,0:0:0:0:
256,192,48155,1,0,0:0:0:0:
36,192,48235,1,0,0:0:0:0:
329,192,48235,1,0,0:0:0:0:
109,192,48394,1,0,0:0:0:0:
329,192,48394,1,0,0:0:0:0:
36,192,48554,1,0,0:0:0:0:
402,192,48554,1,0,0:0:0:0:
256,192,48554,1,0,0:0:0:0:
36,192,48713,1,0,0:0:0:0:
402,192,48713,1,0,0:0:0:0:
109,192,48873,1,0,0:0:0:0:
256,192,48873,1,0,0:0:0:0:
109,192,49192,1,0,0:0:0:0:
256,192,49192,1,0,0:0:0:0:
109,192,49352,1,0,0:0:0:0:
256,192,49511,1,0,0:0:0:0:
475,192,49511,1,0,0:0:0:0:
36,192,49830,1,0,0:0:0:0:
182,192,49830,1,0,0:0:0:0:
182,192,49990,1,0,0:0:0:0:
36,192,49990,1,0,0:0:0:0:
402,192,50150,1,0,0:0:0:0:
256,192,50150,1,0,0:0:0:0:
109,192,50469,1,0,0:0:0:0:
329,192,50469,1,0,0:0:0:0:
329,192,50628,1,0,0:0:0:0:
36,192,50788,1,0,0:0:0:0:
182,192,50788,1,0,0:0:0:0:
109,192,51107,1,0,0:0:0:0:
256,192,51107,1,0,0:0:0:0:
256,192,51267,1,0,0:0:0:0:
109,192,51267,1,0,0:0:0:0:
475,192,51426,1,0,0:0:0:0:
329,192,51426,1,0,0:0:0:0:
182,192,51745,1,0,0:0:0:0:
402,192,51745,1,0,0:0:0:0:
402,192,51905,1,0,0:0:0:0:
256,192,52064,1,0,0:0:0:0:
109,192,52064,1,0,0:0:0:0:
475,192,52384,1,0,0:0:0:0:
329,192,52384,1,0,0:0:0:0:
475,192,52543,1,0,0:0:0:0:
329,192,52543,1,0,0:0:0:0:
256,192,52703,1,0,0:0:0:0:
402,192,52703,1,0,0:0:0:0:
182,192,53022,1,0,0:0:0:0:
475,192,53022,1,0,0:0:0:0:
182,192,53181,1,0,0:0:0:0:
256,192,53341,1,0,0:0:0:0:
36,192,53341,1,0,0:0:0:0:
256,192,53660,1,0,0:0:0:0:
475,192,53660,1,0,0:0:0:0:
109,192,53660,128,0,55256:0:0:0:0:
329,192,53979,1,0,0:0:0:0:
182,192,54139,1,0,0:0:0:0:
475,192,54139,1,0,0:0:0:0:
402,192,54458,1,0,0:0:0:0:
329,192,54618,1,0,0:0:0:0:
36,192,54618,1,0,0:0:0:0:
475,192,54937,1,0,0:0:0:0:
329,192,55096,1,0,0:0:0:0:
402,192,55096,1,0,0:0:0:0:
475,192,55256,1,0,0:0:0:0:
182,192,55416,128,0,55735:0:0:0:0:
402,192,55575,1,0,0:0:0:0:
36,192,55735,128,0,56054:0:0:0:0:
402,192,55735,1,0,0:0:0:0:
402,192,55894,1,0,0:0:0:0:
329,192,56054,1,0,0:0:0:0:
182,192,56054,1,0,0:0:0:0:
109,192,56213,1,0,0:0:0:0:
475,192,56213,1,0,0:0:0:0:
329,192,56533,1,0,0:0:0:0:
475,192,56533,1,0,0:0:0:0:
182,192,56692,1,0,0:0:0:0:
36,192,56692,1,0,0:0:0:0:
475,192,56852,1,0,0:0:0:0:
329,192,56852,1,0,0:0:0:0:
256,192,57011,1,0,0:0:0:0:
109,192,57011,1,0,0:0:0:0:
329,192,57171,1,0,0:0:0:0:
475,192,57171,1,0,0:0:0:0:
182,192,57330,1,0,0:0:0:0:
36,192,57330,1,0,0:0:0:0:
256,192,57490,1,0,0:0:0:0:
402,192,57490,1,0,0:0:0:0:
475,192,57490,1,0,0:0:0:0:
36,192,58128,128,0,58767:0:0:0:0:
182,192,58288,128,0,58767:0:0:0:0:
329,192,58447,128,0,58767:0:0:0:0:
475,192,58607,128,0,58767:0:0:0:0:
109,192,58767,1,0,0:0:0:0:
256,192,58767,1,0,0:0:0:0:
402,192,58767,1,0,0:0:0:0:
256,192,59086,1,0,0:0:0:0:
109,192,59086,1,0,0:0:0:0:
475,192,59086,1,0,0:0:0:0:
36,192,59405,1,0,0:0:0:0:
36,192,59564,1,0,0:0:0:0:
109,192,59724,1,0,0:0:0:0:
475,192,59724,1,0,0:0:0:0:
256,192,60043,1,0,0:0:0:0:
475,192,60043,1,0,0:0:0:0:
36,192,60043,1,0,0:0:0:0:
329,192,60362,1,0,0:0:0:0:
402,192,60362,1,0,0:0:0:0:
182,192,60362,1,0,0:0:0:0:
475,192,60681,1,0,0:0:0:0:
329,192,60681,1,0,0:0:0:0:
475,192,60841,1,0,0:0:0:0:
402,192,61001,1,0,0:0:0:0:
182,192,61001,1,0,0:0:0:0:
109,192,61001,1,0,0:0:0:0:
475,192,61320,1,0,0:0:0:0:
36,192,61320,1,0,0:0:0:0:
256,192,61320,128,0,61798:0:0:0:0:
402,192,61639,1,0,0:0:0:0:
109,192,61639,1,0,0:0:0:0:
182,192,61798,1,0,0:0:0:0:
402,192,61958,128,0,62596:0:0:0:0:
36,192,61958,1,0,0:0:0:0:
182,192,62118,1,0,0:0:0:0:
109,192,62277,1,0,0:0:0:0:
329,192,62277,1,0,0:0:0:0:
256,192,62437,1,0,0:0:0:0:
182,192,62596,128,0,62916:0:0:0:0:
36,192,62596,1,0,0:1:0:0:
402,192,62756,1,0,0:0:0:0:
256,192,62916,128,0,63235:0:0:0:0:
36,192,62916,1,0,0:0:0:0:
329,192,63235,128,0,63554:0:0:0:0:
36,192,63235,1,0,0:0:0:0:
182,192,63394,1,0,0:0:0:0:
475,192,63554,128,0,63873:0:0:0:0:
36,192,63554,1,0,0:0:0:0:
109,192,63713,1,0,0:0:0:0:
182,192,63793,1,0,0:0:0:0:
402,192,63873,128,0,64830:0:0:0:0:
256,192,63873,1,0,0:0:0:0:
36,192,64192,1,0,0:0:0:0:
182,192,64192,1,0,0:0:0:0:
109,192,64511,1,0,0:0:0:0:
256,192,64511,1,0,0:0:0:0:
256,192,64671,1,0,0:0:0:0:
329,192,64830,128,0,64990:0:0:0:0:
36,192,64830,1,0,0:0:0:0:
475,192,64830,1,0,0:0:0:0:
182,192,64990,128,0,65150:0:0:0:0:
36,192,65150,128,0,65469:0:0:0:0:
475,192,65150,1,0,0:0:0:0:
109,192,65469,128,0,65628:0:0:0:0:
329,192,65469,1,0,0:0:0:0:
182,192,65628,128,0,65947:0:0:0:0:
256,192,65628,1,0,0:0:0:0:
402,192,65788,1,0,0:0:0:0:
402,192,65947,1,0,0:0:0:0:
256,192,66107,1,0,0:0:0:0:
475,192,66107,1,0,0:0:0:0:
36,192,66426,1,0,0:0:0:0:
109,192,66426,1,0,0:0:0:0:
182,192,66426,1,0,0:0:0:0:
329,192,66745,1,0,0:0:0:0:
402,192,66745,1,0,0:0:0:0:
475,192,66745,1,0,0:0:0:0:
256,192,66905,1,0,0:0:0:0:
182,192,67064,1,0,0:0:0:0:
36,192,67064,1,0,0:0:0:0:
109,192,67064,1,0,0:0:0:0:
256,192,67224,1,0,0:0:0:0:
329,192,67384,1,0,0:0:0:0:
402,192,67384,1,0,0:0:0:0:
475,192,67384,1,0,0:0:0:0:
256,192,67543,1,0,0:0:0:0:
182,192,67703,1,0,0:0:0:0:
36,192,67703,1,0,0:0:0:0:
109,192,67703,1,0,0:0:0:0:
109,192,68022,1,0,0:0:0:0:
402,192,68022,128,0,68341:0:0:0:0:
256,192,68022,1,0,0:0:0:0:
182,192,68181,1,0,0:0:0:0:
256,192,68341,128,0,68660:0:0:0:0:
109,192,68341,1,0,0:0:0:0:
475,192,68501,1,0,0:0:0:0:
36,192,68660,128,0,68979:0:0:0:0:
329,192,68660,1,0,0:0:0:0:
402,192,68820,1,0,0:0:0:0:
329,192,68900,1,0,0:0:0:0:
182,192,68979,128,0,69937:0:0:0:0:
256,192,68979,1,0,0:0:0:0:
475,192,68979,1,0,0:0:0:0:
36,192,69298,1,0,0:0:0:0:
475,192,69298,1,0,0:0:0:0:
329,192,69458,1,0,0:0:0:0:
402,192,69458,1,0,0:0:0:0:
256,192,69618,1,0,0:0:0:0:
109,192,69618,1,0,0:0:0:0:
402,192,69777,1,0,0:0:0:0:
475,192,69937,1,0,0:0:0:0:
36,192,69937,128,0,70256:0:0:0:0:
329,192,70256,128,0,71213:0:0:0:0:
182,192,70256,1,0,0:0:0:0:
109,192,70575,1,0,0:0:0:0:
256,192,70575,1,0,0:0:0:0:
256,192,70894,1,0,0:0:0:0:
109,192,71054,1,0,0:0:0:0:
36,192,71213,1,0,0:0:0:0:
475,192,71213,1,0,0:0:0:0:
182,192,71213,128,0,71533:0:0:0:0:
402,192,71373,1,0,0:0:0:0:
329,192,71533,128,0,71852:0:0:0:0:
109,192,71533,1,0,0:0:0:0:
475,192,71533,1,0,0:0:0:0:
402,192,71852,1,0,0:0:0:0:
36,192,72011,1,0,0:0:0:0:
475,192,72011,1,0,0:0:0:0:
256,192,72011,128,0,72330:0:0:0:0:
402,192,72330,1,0,0:0:0:0:
182,192,72330,1,0,0:0:0:0:
329,192,72490,1,0,0:0:0:0:
109,192,72490,1,0,0:0:0:0:
329,192,72650,1,0,0:0:0:0:
36,192,72650,1,0,0:0:0:0:
182,192,72809,128,0,73447:0:0:0:0:
256,192,72809,1,0,0:0:0:0:
36,192,73128,1,0,0:0:0:0:
402,192,73128,1,0,0:0:0:0:
256,192,73447,128,0,74086:0:0:0:0:
475,192,73447,1,0,0:0:0:0:
402,192,73607,1,0,0:0:0:0:
329,192,73767,1,0,0:0:0:0:
109,192,73926,1,0,0:0:0:0:
329,192,74086,128,0,74724:0:0:0:0:
182,192,74086,1,0,0:0:0:0:
475,192,74086,1,0,0:0:0:0:
256,192,74405,1,0,0:0:0:0:
109,192,74405,1,0,0:0:0:0:
475,192,74564,1,0,0:0:0:0:
36,192,74724,1,0,0:0:0:0:
182,192,74724,1,0,0:0:0:0:
256,192,74884,1,0,0:0:0:0:
329,192,75043,1,0,0:0:0:0:
109,192,75043,1,0,0:0:0:0:
402,192,75203,1,0,0:0:0:0:
109,192,75362,128,0,75681:0:0:0:0:
475,192,75362,1,0,0:0:0:0:
256,192,75362,1,0,0:0:0:0:
182,192,75681,128,0,76001:0:0:0:0:
402,192,75681,1,0,0:0:0:0:
36,192,76001,128,0,76320:0:0:0:0:
475,192,76001,1,0,0:0:0:0:
402,192,76160,1,0,0:0:0:0:
256,192,76320,128,0,76639:0:0:0:0:
329,192,76320,1,0,0:0:0:0:
182,192,76479,1,0,0:0:0:0:
475,192,76639,128,0,77277:0:0:0:0:
36,192,76639,1,0,0:0:0:0:
402,192,76639,1,0,0:0:0:0:
256,192,76958,1,0,0:0:0:0:
182,192,77277,128,0,77916:0:0:0:0:
402,192,77277,1,0,0:0:0:0:
36,192,77277,1,0,0:0:0:0:
256,192,77596,1,0,0:0:0:0:
329,192,77756,1,0,0:0:0:0:
402,192,77916,128,0,78554:0:0:0:0:
36,192,77916,1,0,0:0:0:0:
109,192,78235,1,0,0:0:0:0:
109,192,78394,1,0,0:0:0:0:
329,192,78554,128,0,79192:0:0:0:0:
36,192,78554,1,0,0:0:0:0:
475,192,78554,1,0,0:0:0:0:
182,192,78873,1,0,0:0:0:0:
109,192,79033,1,0,0:0:0:0:
36,192,79192,1,0,0:0:0:0:
475,192,79192,1,0,0:0:0:0:
36,192,79511,1,0,0:0:0:0:
256,192,79511,1,0,0:0:0:0:
402,192,79511,1,0,0:0:0:0:
109,192,79830,1,0,0:0:0:0:
329,192,79830,1,0,0:0:0:0:
475,192,79830,1,0,0:0:0:0:
109,192,80150,1,0,0:0:0:0:
329,192,80150,1,0,0:0:0:0:
475,192,80150,1,0,0:0:0:0:
182,192,80469,1,0,0:0:0:0:
475,192,80469,1,0,0:0:0:0:
109,192,80469,1,0,0:0:0:0:
182,192,80788,1,0,0:0:0:0:
402,192,80788,1,0,0:0:0:0:
36,192,80788,1,0,0:0:0:0:
256,192,81107,1,0,0:0:0:0:
402,192,81107,1,0,0:0:0:0:
109,192,81107,1,0,0:0:0:0:
329,192,81426,1,0,0:0:0:0:
182,192,81426,1,0,0:0:0:0:
36,192,81426,1,0,0:0:0:0:
475,192,81426,1,0,0:0:0:0:
109,192,81745,1,0,0:0:0:0:
402,192,81745,1,0,0:0:0:0:
256,192,81745,128,0,83022:0:0:0:0:
182,192,83022,128,0,84298:0:0:0:0:
475,192,83022,1,0,0:0:0:0:
329,192,83022,1,0,0:0:0:0:
36,192,83022,1,0,0:0:0:0:
329,192,83979,128,0,84298:0:0:0:0:
36,192,84298,128,0,86054:0:0:0:0:
256,192,84298,1,0,0:0:0:0:
475,192,84298,1,0,0:0:0:0:
182,192,84618,1,0,0:0:0:0:
475,192,84618,1,0,0:0:0:0:
256,192,84777,1,0,0:0:0:0:
402,192,84937,1,0,0:0:0:0:
109,192,84937,1,0,0:0:0:0:
256,192,85096,1,0,0:0:0:0:
182,192,85256,1,0,0:0:0:0:
475,192,85256,1,0,0:0:0:0:
402,192,85575,1,0,0:0:0:0:
256,192,85575,1,0,0:0:0:0:
256,192,85735,1,0,0:0:0:0:
182,192,85894,1,0,0:0:0:0:
475,192,85894,1,0,0:0:0:0:
329,192,86054,1,0,0:0:0:0:
402,192,86134,1,0,0:0:0:0:
475,192,86213,1,0,0:0:0:0:
256,192,86213,1,0,0:0:0:0:
402,192,86373,1,0,0:0:0:0:
329,192,86373,1,0,0:0:0:0:
182,192,86533,1,0,0:0:0:0:
109,192,86533,1,0,0:0:0:0:
329,192,86692,1,0,0:0:0:0:
402,192,86692,1,0,0:0:0:0:
109,192,86852,1,0,0:0:0:0:
256,192,86852,128,0,87490:0:0:0:0:
475,192,86852,1,0,0:0:0:0:
182,192,87171,1,0,0:0:0:0:
402,192,87171,1,0,0:0:0:0:
109,192,87330,1,0,0:0:0:0:
402,192,87490,128,0,88128:0:0:0:0:
182,192,87490,1,0,0:0:0:0:
329,192,87650,1,0,0:0:0:0:
256,192,87809,1,0,0:0:0:0:
36,192,87809,1,0,0:0:0:0:
109,192,87969,1,0,0:0:0:0:
182,192,88128,128,0,88767:0:0:0:0:
475,192,88128,1,0,0:0:0:0:
402,192,88288,1,0,0:0:0:0:
329,192,88447,1,0,0:0:0:0:
36,192,88447,1,0,0:0:0:0:
256,192,88607,1,0,0:0:0:0:
475,192,88767,1,0,0:0:0:0:
109,192,88767,1,0,0:0:0:0:
402,192,88926,1,0,0:0:0:0:
182,192,89086,128,0,89405:0:0:0:0:
329,192,89086,1,0,0:0:0:0:
256,192,89245,1,0,0:0:0:0:
36,192,89405,1,0,0:0:0:0:
475,192,89405,1,0,0:0:0:0:
329,192,89405,128,0,89724:0:0:0:0:
402,192,89724,1,0,0:0:0:0:
109,192,89724,1,0,0:0:0:0:
182,192,89884,128,0,90203:0:0:0:0:
329,192,89884,1,0,0:0:0:0:
475,192,90043,1,0,0:0:0:0:
329,192,90203,1,0,0:0:0:0:
256,192,90203,1,0,0:0:0:0:
402,192,90362,128,0,90681:0:0:0:0:
109,192,90362,1,0,0:0:0:0:
182,192,90522,1,0,0:0:0:0:
256,192,90681,1,0,0:0:0:0:
475,192,90681,1,0,0:0:0:0:
329,192,90841,128,0,91160:0:0:0:0:
36,192,90841,1,0,0:0:0:0:
109,192,91001,1,0,0:0:0:0:
475,192,91160,1,0,0:0:0:0:
182,192,91160,1,0,0:0:0:0:
329,192,91320,1,0,0:0:0:0:
109,192,91320,1,0,0:0:0:0:
402,192,91479,1,0,0:0:0:0:
182,192,91479,1,0,0:0:0:0:
475,192,91639,1,0,0:0:0:0:
256,192,91639,1,0,0:0:0:0:
329,192,91798,1,0,0:0:0:0:
36,192,91798,1,0,0:0:0:0:
109,192,91958,128,0,92596:0:0:0:0:
475,192,91958,1,0,0:0:0:0:
256,192,92277,1,0,0:0:0:0:
475,192,92277,1,0,0:0:0:0:
182,192,92277,1,0,0:0:0:0:
329,192,92437,1,0,0:0:0:0:
475,192,92596,1,0,0:0:0:0:
182,192,92596,1,0,0:0:0:0:
256,192,92676,1,0,0:0:0:0:
329,192,92756,1,0,0:0:0:0:
402,192,92836,1,0,0:0:0:0:
256,192,92916,1,0,0:0:0:0:
475,192,92916,1,0,0:0:0:0:
36,192,92995,1,0,0:0:0:0:
109,192,93075,1,0,0:0:0:0:
182,192,93155,1,0,0:0:0:0:
256,192,93235,128,0,93713:0:0:0:0:
475,192,93235,1,0,0:0:0:0:
329,192,93394,1,0,0:0:0:0:
36,192,93394,1,0,0:0:0:0:
475,192,93554,1,0,0:0:0:0:
182,192,93554,1,0,0:0:0:0:
329,192,93713,1,0,0:0:0:0:
36,192,93713,1,0,0:0:0:0:
109,192,94033,1,0,0:0:0:0:
402,192,94112,1,0,0:0:0:0:
109,192,94192,1,0,0:0:0:0:
256,192,94192,1,0,0:0:0:0:
182,192,94192,1,0,0:0:0:0:
256,192,94511,1,0,0:0:0:0:
36,192,94511,1,0,0:0:0:0:
402,192,94671,1,0,0:0:0:0:
109,192,94830,1,0,0:0:0:0:
182,192,94830,1,0,0:0:0:0:
402,192,94990,1,0,0:0:0:0:
256,192,95150,1,0,0:0:0:0:
36,192,95150,1,0,0:0:0:0:
402,192,95309,1,0,0:0:0:0:
109,192,95469,1,0,0:0:0:0:
182,192,95469,1,0,0:0:0:0:
256,192,95628,1,0,0:0:0:0:
475,192,95788,1,0,0:0:0:0:
329,192,95788,1,0,0:0:0:0:
36,192,95947,1,0,0:0:0:0:
329,192,96107,1,0,0:0:0:0:
402,192,96107,1,0,0:0:0:0:
182,192,96267,1,0,0:0:0:0:
329,192,96426,1,0,0:0:0:0:
475,192,96426,1,0,0:0:0:0:
182,192,96586,1,0,0:0:0:0:
329,192,96745,1,0,0:0:0:0:
402,192,96745,1,0,0:0:0:0:
256,192,96905,1,0,0:0:0:0:
182,192,97064,1,0,0:0:0:0:
36,192,97064,1,0,0:0:0:0:
329,192,97224,1,0,0:0:0:0:
182,192,97384,1,0,0:0:0:0:
475,192,97384,1,0,0:0:0:0:
329,192,97543,1,0,0:0:0:0:
36,192,97703,1,0,0:0:0:0:
256,192,97703,1,0,0:0:0:0:
475,192,97862,1,0,0:0:0:0:
109,192,98022,1,0,0:0:0:0:
329,192,98022,1,0,0:0:0:0:
402,192,98181,1,0,0:0:0:0:
109,192,98341,1,0,0:0:0:0:
256,192,98341,1,0,0:0:0:0:
402,192,98501,1,0,0:0:0:0:
36,192,98660,1,0,0:0:0:0:
182,192,98660,1,0,0:0:0:0:
475,192,98820,1,0,0:0:0:0:
256,192,98979,1,0,0:0:0:0:
402,192,98979,1,0,0:0:0:0:
182,192,99139,1,0,0:0:0:0:
329,192,99298,1,0,0:0:0:0:
36,192,99298,1,0,0:0:0:0:
182,192,99458,1,0,0:0:0:0:
109,192,99618,1,0,0:0:0:0:
402,192,99618,1,0,0:0:0:0:
475,192,99618,1,0,0:0:0:0:
36,192,99777,1,0,0:0:0:0:
329,192,99937,1,0,0:0:0:0:
182,192,99937,1,0,0:0:0:0:
109,192,100096,1,0,0:0:0:0:
475,192,100256,1,0,0:0:0:0:
256,192,100256,1,0,0:0:0:0:
36,192,100416,1,0,0:0:0:0:
402,192,100575,1,0,0:0:0:0:
182,192,100575,1,0,0:0:0:0:
475,192,100735,1,0,0:0:0:0:
36,192,100894,1,0,0:0:0:0:
402,192,100894,1,0,0:0:0:0:
109,192,101054,1,0,0:0:0:0:
402,192,101213,1,0,0:0:0:0:
256,192,101213,1,0,0:0:0:0:
109,192,101373,1,0,0:0:0:0:
36,192,101533,1,0,0:0:0:0:
329,192,101533,1,0,0:0:0:0:
402,192,101692,1,0,0:0:0:0:
109,192,101852,1,0,0:0:0:0:
329,192,101852,1,0,0:0:0:0:
475,192,102011,1,0,0:0:0:0:
329,192,102171,1,0,0:0:0:0:
36,192,102171,1,0,0:0:0:0:
182,192,102330,1,0,0:0:0:0:
475,192,102490,1,0,0:0:0:0:
329,192,102490,1,0,0:0:0:0:
109,192,102650,1,0,0:0:0:0:
475,192,102809,1,0,0:0:0:0:
256,192,102809,1,0,0:0:0:0:
36,192,102969,1,0,0:0:0:0:
475,192,103128,1,0,0:0:0:0:
182,192,103128,1,0,0:0:0:0:
36,192,103288,1,0,0:0:0:0:
402,192,103447,1,0,0:0:0:0:
256,192,103447,1,0,0:0:0:0:
109,192,103607,1,0,0:0:0:0:
475,192,103767,1,0,0:0:0:0:
182,192,103767,1,0,0:0:0:0:
36,192,103926,1,0,0:0:0:0:
402,192,103926,1,0,0:0:0:0:
109,192,104086,1,0,0:0:0:0:
256,192,104086,1,0,0:0:0:0:
475,192,104245,1,0,0:0:0:0:
36,192,104405,1,0,0:0:0:0:
182,192,104405,1,0,0:0:0:0:
329,192,104564,1,0,0:0:0:0:
256,192,104644,1,0,0:0:0:0:
182,192,104724,1,0,0:0:0:0:
402,192,104724,128,0,105203:0:0:0:0:
109,192,104724,128,0,105203:0:0:0:0:
475,192,104724,1,0,0:0:0:0:
36,192,105522,1,0,0:0:0:0:
475,192,105522,1,0,0:0:0:0:
182,192,105841,1,0,0:0:0:0:
329,192,105841,128,0,106320:0:0:0:0:
182,192,106160,1,0,0:0:0:0:
256,192,106320,128,0,106639:0:0:0:0:
109,192,106320,1,0,0:0:0:0:
402,192,106479,1,0,0:0:0:0:
182,192,106639,128,0,106958:0:0:0:0:
36,192,106639,1,0,0:0:0:0:
475,192,106798,1,0,0:0:0:0:
109,192,106958,128,0,107277:0:0:0:0:
329,192,106958,1,0,0:0:0:0:
256,192,107118,1,0,0:0:0:0:
329,192,107277,128,0,107916:0:0:0:0:
402,192,107277,1,0,0:0:0:0:
182,192,107437,1,0,0:0:0:0:
256,192,107596,1,0,0:0:0:0:
475,192,107756,1,0,0:0:0:0:
109,192,107916,128,0,108554:0:0:0:0:
36,192,107916,1,0,0:0:0:0:
256,192,108075,1,0,0:0:0:0:
475,192,108235,1,0,0:0:0:0:
329,192,108394,1,0,0:0:0:0:
36,192,108554,1,0,0:0:0:0:
256,192,108554,128,0,108873:0:0:0:0:
182,192,108713,1,0,0:0:0:0:
329,192,108873,128,0,109192:0:0:0:0:
109,192,108873,1,0,0:0:0:0:
256,192,109033,1,0,0:0:0:0:
402,192,109192,128,0,109511:0:0:0:0:
36,192,109192,1,0,0:0:0:0:
109,192,109352,1,0,0:0:0:0:
182,192,109431,1,0,0:0:0:0:
475,192,109511,128,0,109830:0:0:0:0:
256,192,109511,1,0,0:0:0:0:
182,192,109830,128,0,111107:0:0:0:0:
402,192,109830,1,0,0:0:0:0:
36,192,109830,1,0,0:0:0:0:
329,192,109990,1,0,0:0:0:0:
475,192,110150,1,0,0:0:0:0:
256,192,110150,1,0,0:0:0:0:
402,192,110309,1,0,0:0:0:0:
329,192,110469,1,0,0:0:0:0:
109,192,110469,1,0,0:0:0:0:
256,192,110628,1,0,0:0:0:0:
36,192,110788,1,0,0:0:0:0:
475,192,110788,1,0,0:0:0:0:
402,192,110947,1,0,0:0:0:0:
329,192,111107,128,0,111745:0:0:0:0:
36,192,111107,1,0,0:0:0:0:
109,192,111267,1,0,0:0:0:0:
182,192,111426,1,0,0:0:0:0:
402,192,111426,1,0,0:0:0:0:
109,192,111586,1,0,0:0:0:0:
256,192,111745,128,0,112384:0:0:0:0:
475,192,111745,128,0,112384:0:0:0:0:
36,192,111745,1,0,0:0:0:0:
182,192,111905,1,0,0:0:0:0:
329,192,112064,1,0,0:0:0:0:
109,192,112064,1,0,0:0:0:0:
182,192,112224,1,0,0:0:0:0:
109,192,112384,128,0,113660:0:0:0:0:
402,192,112384,1,0,0:0:0:0:
329,192,112543,1,0,0:0:0:0:
475,192,112703,1,0,0:0:0:0:
256,192,112703,1,0,0:0:0:0:
402,192,112862,1,0,0:0:0:0:
329,192,113022,1,0,0:0:0:0:
182,192,113022,1,0,0:0:0:0:
402,192,113181,1,0,0:0:0:0:
475,192,113341,1,0,0:0:0:0:
256,192,113341,1,0,0:0:0:0:
329,192,113501,1,0,0:0:0:0:
256,192,113660,128,0,114298:0:0:0:0:
402,192,113660,1,0,0:0:0:0:
182,192,113820,1,0,0:0:0:0:
109,192,113979,1,0,0:0:0:0:
402,192,113979,1,0,0:0:0:0:
402,192,114298,128,0,114937:0:0:0:0:
36,192,114298,1,0,0:0:0:0:
475,192,114298,1,0,0:0:0:0:
182,192,114458,1,0,0:0:0:0:
329,192,114618,1,0,0:0:0:0:
36,192,114618,1,0,0:0:0:0:
256,192,114777,1,0,0:0:0:0:
36,192,114937,1,0,0:0:0:0:
329,192,114937,1,0,0:0:0:0:
475,192,114937,1,0,0:0:0:0:
109,192,115096,1,0,0:0:0:0:
402,192,115256,1,0,0:0:0:0:
256,192,115256,1,0,0:0:0:0:
36,192,115256,1,0,0:0:0:0:
182,192,115416,1,0,0:0:0:0:
109,192,115575,1,0,0:0:0:0:
475,192,115575,1,0,0:0:0:0:
36,192,115894,1,0,0:0:0:0:
256,192,115894,1,0,0:0:0:0:
475,192,115894,1,0,0:0:0:0:
329,192,116054,1,0,0:0:0:0:
109,192,116213,1,0,0:0:0:0:
402,192,116213,1,0,0:0:0:0:
182,192,116373,1,0,0:0:0:0:
109,192,116533,1,0,0:0:0:0:
329,192,116533,1,0,0:0:0:0:
475,192,116533,1,0,0:0:0:0:
402,192,116692,1,0,0:0:0:0:
256,192,116852,1,0,0:0:0:0:
36,192,116852,1,0,0:0:0:0:
109,192,117011,1,0,0:0:0:0:
402,192,117171,1,0,0:0:0:0:
475,192,117171,1,0,0:0:0:0:
182,192,117171,1,0,0:0:0:0:
329,192,117330,1,0,0:0:0:0:
182,192,117490,1,0,0:0:0:0:
36,192,117490,1,0,0:0:0:0:
256,192,117650,1,0,0:0:0:0:
36,192,117809,1,0,0:0:0:0:
475,192,117809,1,0,0:0:0:0:
329,192,117809,1,0,0:0:0:0:
109,192,117969,1,0,0:0:0:0:
182,192,118128,1,0,0:0:0:0:
329,192,118128,1,0,0:0:0:0:
329,192,118447,1,0,0:0:0:0:
36,192,118447,1,0,0:0:0:0:
475,192,118447,1,0,0:0:0:0:
36,192,118607,1,0,0:0:0:0:
256,192,118607,1,0,0:0:0:0:
109,192,118767,1,0,0:0:0:0:
182,192,118767,128,0,119086:0:0:0:0:
402,192,118926,1,0,0:0:0:0:
256,192,119086,128,0,119405:0:0:0:0:
36,192,119086,1,0,0:0:0:0:
475,192,119086,1,0,0:0:0:0:
329,192,119405,128,0,119724:0:0:0:0:
109,192,119405,1,0,0:0:0:0:
109,192,119564,1,0,0:0:0:0:
475,192,119724,128,0,120043:0:0:0:0:
36,192,119724,1,0,0:0:0:0:
256,192,119724,1,0,0:0:0:0:
182,192,120043,1,0,0:0:0:0:
36,192,120043,1,0,0:0:0:0:
402,192,120043,128,0,120681:0:0:0:0:
182,192,120362,1,0,0:0:0:0:
475,192,120362,1,0,0:0:0:0:
256,192,120522,1,0,0:0:0:0:
109,192,120681,128,0,121320:0:0:0:0:
329,192,120681,1,0,0:0:0:0:
182,192,120841,1,0,0:0:0:0:
256,192,121001,1,0,0:0:0:0:
475,192,121001,1,0,0:0:0:0:
329,192,121160,1,0,0:0:0:0:
182,192,121320,128,0,122277:0:0:0:0:
36,192,121320,1,0,0:0:0:0:
402,192,121320,1,0,0:0:0:0:
109,192,121639,1,0,0:0:0:0:
475,192,121639,1,0,0:0:0:0:
402,192,121798,1,0,0:0:0:0:
36,192,121958,1,0,0:0:0:0:
256,192,121958,1,0,0:0:0:0:
109,192,122277,1,0,0:0:0:0:
475,192,122277,1,0,0:0:0:0:
182,192,122437,1,0,0:0:0:0:
256,192,122596,1,0,0:0:0:0:
402,192,122596,1,0,0:0:0:0:
36,192,122596,1,0,0:0:0:0:
402,192,122756,1,0,0:0:0:0:
109,192,122916,1,0,0:0:0:0:
475,192,122916,1,0,0:0:0:0:
256,192,123235,1,0,0:0:0:0:
475,192,123235,1,0,0:0:0:0:
36,192,123235,1,0,0:0:0:0:
329,192,123394,1,0,0:0:0:0:
182,192,123394,1,0,0:0:0:0:
402,192,123554,1,0,0:0:0:0:
109,192,123554,1,0,0:0:0:0:
109,192,123713,1,0,0:0:0:0:
256,192,123873,1,0,0:0:0:0:
36,192,123873,1,0,0:0:0:0:
475,192,123873,1,0,0:0:0:0:
256,192,124192,1,0,0:0:0:0:
475,192,124352,1,0,0:0:0:0:
182,192,124352,1,0,0:0:0:0:
402,192,124511,1,0,0:0:0:0:
329,192,124671,1,0,0:0:0:0:
109,192,124671,1,0,0:0:0:0:
256,192,124830,1,0,0:0:0:0:
475,192,124830,1,0,0:0:0:0:
256,192,124990,1,0,0:0:0:0:
402,192,124990,1,0,0:0:0:0:
329,192,125150,1,0,0:0:0:0:
475,192,125150,128,0,125469:0:0:0:0:
256,192,125469,1,0,0:0:0:0:
36,192,125469,128,0,125788:0:0:0:0:
329,192,125628,1,0,0:0:0:0:
256,192,125788,1,0,0:0:0:0:
475,192,125788,128,0,126107:0:0:0:0:
182,192,125947,1,0,0:0:0:0:
256,192,126027,1,0,0:0:0:0:
36,192,126107,128,0,126426:0:0:0:0:
329,192,126107,1,0,0:0:0:0:
182,192,126267,1,0,0:0:0:0:
402,192,126426,128,0,126745:0:0:0:0:
256,192,126426,1,0,0:0:0:0:
329,192,126586,1,0,0:0:0:0:
109,192,126745,128,0,127064:0:0:0:0:
475,192,126745,1,0,0:0:0:0:
182,192,126905,1,0,0:0:0:0:
402,192,127064,128,0,127463:0:0:0:0:
256,192,127064,1,0,0:0:0:0:
329,192,127224,1,0,0:0:0:0:
109,192,127384,128,0,127703:0:0:0:0:
256,192,127384,1,0,0:0:0:0:
182,192,127543,1,0,0:0:0:0:
329,192,127703,128,0,128022:0:0:0:0:
256,192,127703,1,0,0:0:0:0:
402,192,127862,1,0,0:0:0:0:
182,192,128022,128,0,128341:0:0:0:0:
475,192,128022,1,0,0:0:0:0:
109,192,128181,1,0,0:0:0:0:
329,192,128341,128,0,128660:0:0:0:0:
475,192,128341,1,0,0:0:0:0:
402,192,128501,1,0,0:0:0:0:
36,192,128580,1,0,0:0:0:0:
182,192,128660,128,0,128979:0:0:0:0:
109,192,128660,1,0,0:0:0:0:
402,192,128820,1,0,0:0:0:0:
256,192,128979,128,0,129298:0:0:0:0:
36,192,128979,1,0,0:0:0:0:
402,192,129139,1,0,0:0:0:0:
329,192,129298,128,0,129618:0:0:0:0:
475,192,129298,1,0,0:0:0:0:
182,192,129458,1,0,0:0:0:0:
402,192,129618,128,0,129937:0:0:0:0:
36,192,129618,1,0,0:0:0:0:
109,192,129777,1,0,0:0:0:0:
256,192,129777,1,0,0:0:0:0:
182,192,129937,1,0,0:0:0:0:
475,192,129937,128,0,130256:0:0:0:0:
109,192,130256,1,0,0:0:0:0:
256,192,130256,1,0,0:0:0:0:
402,192,130256,1,0,0:0:0:0:
182,192,130416,1,0,0:0:0:0:
329,192,130495,1,0,0:0:0:0:
402,192,130575,1,0,0:0:0:0:
256,192,130575,1,0,0:0:0:0:
182,192,130655,1,0,0:0:0:0:
109,192,130735,1,0,0:0:0:0:
36,192,130814,1,0,0:0:0:0:
475,192,130894,1,0,0:0:0:0:
329,192,130894,1,0,0:0:0:0:
256,192,130974,1,0,0:0:0:0:
182,192,131054,1,0,0:0:0:0:
109,192,131134,1,0,0:0:0:0:
402,192,131213,1,0,0:0:0:0:
36,192,131213,1,0,0:0:0:0:
329,192,131293,1,0,0:0:0:0:
256,192,131373,1,0,0:0:0:0:
182,192,131453,1,0,0:0:0:0:
36,192,131533,1,0,0:0:0:0:
475,192,131533,1,0,0:0:0:0:
109,192,131612,1,0,0:0:0:0:
182,192,131692,1,0,0:0:0:0:
256,192,131772,1,0,0:0:0:0:
109,192,131852,1,0,0:0:0:0:
402,192,131852,1,0,0:0:0:0:
182,192,131931,1,0,0:0:0:0:
256,192,132011,1,0,0:0:0:0:
329,192,132091,1,0,0:0:0:0:
36,192,132171,1,0,0:0:0:0:
182,192,132171,1,0,0:0:0:0:
256,192,132251,1,0,0:0:0:0:
329,192,132330,1,0,0:0:0:0:
402,192,132410,1,0,0:0:0:0:
256,192,132490,1,0,0:0:0:0:
109,192,132490,1,0,0:0:0:0:
329,192,132570,1,0,0:0:0:0:
402,192,132650,1,0,0:0:0:0:
475,192,132729,1,0,0:0:0:0:
36,192,132809,1,0,0:0:0:0:
256,192,132809,1,0,0:0:0:0:
182,192,132809,1,0,0:0:0:0:
109,192,133447,128,0,133926:0:0:0:0:
256,192,133447,128,0,133926:0:0:0:0:
402,192,133447,128,0,133926:0:0:0:0:
182,192,134086,1,0,0:0:0:0:
475,192,134086,1,0,0:0:0:0:
36,192,134086,1,0,0:0:0:0:
109,192,134405,128,0,134724:0:0:0:0:
182,192,134724,128,0,135043:0:0:0:0:
329,192,134724,1,0,0:0:0:0:
475,192,134724,1,0,0:0:0:0:
256,192,135043,128,0,135362:0:0:0:0:
475,192,135362,1,0,0:0:0:0:
36,192,135362,1,0,0:0:0:0:
329,192,135362,128,0,136320:0:0:0:0:
402,192,135681,1,0,0:0:0:0:
109,192,135681,1,0,0:0:0:0:
256,192,136001,1,0,0:0:0:0:
256,192,136160,1,0,0:0:0:0:
182,192,136320,1,0,0:0:0:0:
402,192,136320,1,0,0:0:0:0:
109,192,136639,1,0,0:0:0:0:
475,192,136639,1,0,0:0:0:0:
402,192,136639,128,0,136958:0:0:0:0:
182,192,136798,1,0,0:0:0:0:
256,192,136958,1,0,0:0:0:0:
36,192,136958,1,0,0:0:0:0:
329,192,136958,128,0,137277:0:0:0:0:
109,192,137118,1,0,0:0:0:0:
256,192,137277,128,0,137596:0:0:0:0:
475,192,137277,1,0,0:0:0:0:
402,192,137437,1,0,0:0:0:0:
182,192,137596,128,0,137916:0:0:0:0:
109,192,137596,1,0,0:0:0:0:
475,192,137596,1,0,0:0:0:0:
475,192,137916,128,0,138235:0:0:0:0:
256,192,137916,1,0,0:0:0:0:
109,192,138235,1,0,0:0:0:0:
256,192,138235,1,0,0:0:0:0:
329,192,138394,128,0,138713:0:0:0:0:
182,192,138554,1,0,0:0:0:0:
475,192,138554,1,0,0:0:0:0:
256,192,138713,128,0,139033:0:0:0:0:
109,192,138713,1,0,0:0:0:0:
402,192,138873,1,0,0:0:0:0:
36,192,138873,1,0,0:0:0:0:
329,192,139033,1,0,0:0:0:0:
109,192,139192,128,0,139511:0:0:0:0:
256,192,139192,1,0,0:0:0:0:
329,192,139352,1,0,0:0:0:0:
182,192,139511,1,0,0:0:0:0:
475,192,139511,1,0,0:0:0:0:
329,192,139671,1,0,0:0:0:0:
329,192,139830,128,0,140150:0:0:0:0:
36,192,139830,1,0,0:0:0:0:
36,192,139990,1,0,0:0:0:0:
182,192,140150,1,0,0:0:0:0:
475,192,140150,1,0,0:0:0:0:
256,192,140309,1,0,0:0:0:0:
475,192,140469,128,0,140788:0:0:0:0:
402,192,140469,1,0,0:0:0:0:
36,192,140469,1,0,0:0:0:0:
402,192,140788,1,0,0:0:0:0:
109,192,140788,1,0,0:0:0:0:
329,192,140947,128,0,141267:0:0:0:0:
36,192,141107,1,0,0:0:0:0:
256,192,141267,128,0,141586:0:0:0:0:
36,192,141267,1,0,0:0:0:0:
109,192,141426,1,0,0:0:0:0:
475,192,141426,1,0,0:0:0:0:
402,192,141586,1,0,0:0:0:0:
182,192,141745,128,0,142064:0:0:0:0:
329,192,141745,1,0,0:0:0:0:
256,192,142064,1,0,0:0:0:0:
36,192,142064,1,0,0:0:0:0:
402,192,142064,1,0,0:0:0:0:
329,192,142224,128,0,142543:0:0:0:0:
109,192,142384,1,0,0:0:0:0:
256,192,142384,1,0,0:0:0:0:
109,192,142543,1,0,0:0:0:0:
402,192,142703,128,0,143022:0:0:0:0:
36,192,142703,1,0,0:0:0:0:
329,192,142703,1,0,0:0:0:0:
256,192,142862,1,0,0:0:0:0:
182,192,143022,1,0,0:0:0:0:
329,192,143022,1,0,0:0:0:0:
109,192,143181,1,0,0:0:0:0:
256,192,143341,1,0,0:0:0:0:
475,192,143341,1,0,0:0:0:0:
402,192,143341,128,0,143660:0:0:0:0:
36,192,143341,1,0,0:0:0:0:
182,192,143501,1,0,0:0:0:0:
109,192,143660,1,0,0:0:0:0:
329,192,143660,1,0,0:0:0:0:
182,192,143820,1,0,0:0:0:0:
256,192,143979,128,0,144298:0:0:0:0:
36,192,143979,1,0,0:0:0:0:
475,192,143979,1,0,0:0:0:0:
329,192,144139,1,0,0:0:0:0:
109,192,144298,1,0,0:0:0:0:
402,192,144298,1,0,0:0:0:0:
182,192,144458,1,0,0:0:0:0:
109,192,144618,128,0,144937:0:0:0:0:
256,192,144618,1,0,0:0:0:0:
475,192,144618,1,0,0:0:0:0:
402,192,144937,1,0,0:0:0:0:
36,192,144937,1,0,0:0:0:0:
256,192,145256,128,0,145575:0:0:0:0:
329,192,145256,1,0,0:0:0:0:
475,192,145256,1,0,0:0:0:0:
402,192,145575,128,0,146533:0:0:0:0:
182,192,145575,1,0,0:0:0:0:
36,192,145575,1,0,0:0:0:0:
256,192,145894,1,0,0:0:0:0:
329,192,145894,1,0,0:0:0:0:
475,192,146054,1,0,0:0:0:0:
182,192,146054,1,0,0:0:0:0:
256,192,146213,1,0,0:0:0:0:
109,192,146213,1,0,0:0:0:0:
182,192,146373,1,0,0:0:0:0:
36,192,146373,1,0,0:0:0:0:
329,192,146533,1,0,0:0:0:0:
256,192,146533,128,0,146852:0:0:0:0:
402,192,146852,128,0,147490:0:0:0:0:
109,192,146852,1,0,0:0:0:0:
329,192,147171,1,0,0:0:0:0:
182,192,147171,1,0,0:0:0:0:
36,192,147171,1,0,0:0:0:0:
256,192,147490,1,0,0:0:0:0:
256,192,147650,1,0,0:0:0:0:
329,192,147809,1,0,0:0:0:0:
475,192,147809,1,0,0:0:0:0:
36,192,147809,128,0,148128:0:0:0:0:
402,192,147969,1,0,0:0:0:0:
256,192,147969,1,0,0:0:0:0:
329,192,148128,1,0,0:0:0:0:
109,192,148128,128,0,148447:0:0:0:0:
475,192,148128,1,0,0:0:0:0:
256,192,148447,1,0,0:0:0:0:
402,192,148447,1,0,0:0:0:0:
182,192,148607,128,0,149086:0:0:0:0:
475,192,148607,1,0,0:0:0:0:
329,192,148607,1,0,0:0:0:0:
256,192,148926,1,0,0:0:0:0:
402,192,148926,1,0,0:0:0:0:
329,192,149086,1,0,0:0:0:0:
109,192,149245,1,0,0:0:0:0:
256,192,149405,128,0,150043:0:0:0:0:
475,192,149405,1,0,0:0:0:0:
36,192,149405,1,0,0:0:0:0:
182,192,149724,1,0,0:0:0:0:
402,192,149724,1,0,0:0:0:0:
109,192,150043,128,0,150681:0:0:0:0:
475,192,150043,1,0,0:0:0:0:
329,192,150043,1,0,0:0:0:0:
402,192,150203,1,0,0:0:0:0:
329,192,150362,1,0,0:0:0:0:
182,192,150522,1,0,0:0:0:0:
256,192,150681,128,0,151958:0:0:0:0:
36,192,150681,1,0,0:0:0:0:
475,192,150681,1,0,0:0:0:0:
109,192,151001,1,0,0:0:0:0:
329,192,151001,1,0,0:0:0:0:
329,192,151320,1,0,0:0:0:0:
36,192,151320,1,0,0:0:0:0:
475,192,151320,1,0,0:0:0:0:
182,192,151479,1,0,0:0:0:0:
109,192,151639,1,0,0:0:0:0:
36,192,151798,1,0,0:0:0:0:
329,192,151798,1,0,0:0:0:0:
182,192,151958,128,0,152277:0:0:0:0:
475,192,151958,1,0,0:0:0:0:
329,192,152118,1,0,0:0:0:0:
109,192,152277,128,0,152437:0:0:0:0:
475,192,152277,1,0,0:0:0:0:
36,192,152437,128,0,152596:0:0:0:0:
256,192,152437,1,0,0:0:0:0:
329,192,152596,128,0,152916:0:0:0:0:
475,192,152596,1,0,0:0:0:0:
475,192,152756,1,0,0:0:0:0:
182,192,152916,128,0,153235:0:0:0:0:
36,192,152916,1,0,0:0:0:0:
402,192,153075,1,0,0:0:0:0:
329,192,153155,1,0,0:0:0:0:
256,192,153235,1,0,0:0:0:0:
475,192,153235,1,0,0:0:0:0:
36,192,153235,1,0,0:0:0:0:
36,192,153554,1,0,0:0:0:0:
475,192,153554,1,0,0:0:0:0:
182,192,153554,1,0,0:0:0:0:
109,192,153873,1,0,0:0:0:0:
402,192,153873,1,0,0:0:0:0:
109,192,154033,1,0,0:0:0:0:
182,192,154192,1,0,0:0:0:0:
475,192,154192,1,0,0:0:0:0:
256,192,154192,1,0,0:0:0:0:
402,192,154511,1,0,0:0:0:0:
36,192,154511,1,0,0:0:0:0:
256,192,154830,1,0,0:0:0:0:
475,192,154830,1,0,0:0:0:0:
109,192,154830,1,0,0:0:0:0:
182,192,155150,1,0,0:0:0:0:
402,192,155150,1,0,0:0:0:0:
36,192,155150,1,0,0:0:0:0:
182,192,155309,1,0,0:0:0:0:
256,192,155469,1,0,0:0:0:0:
475,192,155469,1,0,0:0:0:0:
109,192,155469,1,0,0:0:0:0:
182,192,155788,1,0,0:0:0:0:
36,192,155788,1,0,0:0:0:0:
329,192,155788,1,0,0:0:0:0:
402,192,155947,1,0,0:0:0:0:
329,192,156107,1,0,0:0:0:0:
256,192,156107,1,0,0:0:0:0:
109,192,156107,1,0,0:0:0:0:
402,192,156426,1,0,0:0:0:0:
36,192,156426,1,0,0:0:0:0:
182,192,156586,1,0,0:0:0:0:
329,192,156586,1,0,0:0:0:0:
256,192,156745,1,0,0:0:0:0:
109,192,156745,1,0,0:0:0:0:
402,192,156745,1,0,0:0:0:0:
182,192,156905,1,0,0:0:0:0:
256,192,157064,1,0,0:0:0:0:
36,192,157064,1,0,0:0:0:0:
329,192,157064,1,0,0:0:0:0:
475,192,157224,1,0,0:0:0:0:
402,192,157384,1,0,0:0:0:0:
109,192,157384,1,0,0:0:0:0:
36,192,157384,1,0,0:0:0:0:
182,192,157543,1,0,0:0:0:0:
256,192,157703,1,0,0:0:0:0:
475,192,157703,1,0,0:0:0:0:
402,192,157862,1,0,0:0:0:0:
109,192,157862,1,0,0:0:0:0:
256,192,158022,1,0,0:0:0:0:
36,192,158022,1,0,0:0:0:0:
402,192,158181,1,0,0:0:0:0:
109,192,158181,1,0,0:0:0:0:
182,192,158261,1,0,0:0:0:0:
256,192,158341,1,0,0:0:0:0:
329,192,158341,1,0,0:0:0:0:
475,192,158341,1,0,0:0:0:0:
402,192,158660,1,0,0:0:0:0:
109,192,158660,1,0,0:0:0:0:
256,192,158820,1,0,0:0:0:0:
402,192,158979,1,0,0:0:0:0:
36,192,158979,1,0,0:0:0:0:
402,192,159139,1,0,0:0:0:0:
256,192,159298,1,0,0:0:0:0:
109,192,159298,1,0,0:0:0:0:
475,192,159298,1,0,0:0:0:0:
182,192,159618,1,0,0:0:0:0:
36,192,159618,1,0,0:0:0:0:
475,192,159618,1,0,0:0:0:0:
256,192,159777,1,0,0:0:0:0:
182,192,159937,1,0,0:0:0:0:
36,192,159937,1,0,0:0:0:0:
402,192,160096,1,0,0:0:0:0:
256,192,160096,1,0,0:0:0:0:
109,192,160096,1,0,0:0:0:0:
475,192,160256,1,0,0:0:0:0:
475,192,160416,1,0,0:0:0:0:
329,192,160575,1,0,0:0:0:0:
182,192,160575,1,0,0:0:0:0:
36,192,160575,1,0,0:0:0:0:
109,192,160735,1,0,0:0:0:0:
182,192,160894,1,0,0:0:0:0:
402,192,160894,1,0,0:0:0:0:
109,192,161054,1,0,0:0:0:0:
182,192,161213,1,0,0:0:0:0:
475,192,161213,1,0,0:0:0:0:
256,192,161373,1,0,0:0:0:0:
402,192,161373,1,0,0:0:0:0:
36,192,161373,1,0,0:0:0:0:
182,192,161533,1,0,0:0:0:0:
256,192,161692,1,0,0:0:0:0:
329,192,161852,1,0,0:0:0:0:
475,192,161852,1,0,0:0:0:0:
256,192,162011,1,0,0:0:0:0:
329,192,162171,1,0,0:0:0:0:
109,192,162171,1,0,0:0:0:0:
402,192,162330,1,0,0:0:0:0:
182,192,162330,1,0,0:0:0:0:
36,192,162330,1,0,0:0:0:0:
329,192,162490,1,0,0:0:0:0:
402,192,162650,1,0,0:0:0:0:
109,192,162650,1,0,0:0:0:0:
475,192,162809,1,0,0:0:0:0:
182,192,162809,1,0,0:0:0:0:
402,192,162969,1,0,0:0:0:0:
109,192,162969,1,0,0:0:0:0:
329,192,163128,1,0,0:0:0:0:
36,192,163128,1,0,0:0:0:0:
256,192,163288,1,0,0:0:0:0:
109,192,163288,1,0,0:0:0:0:
182,192,163447,1,0,0:0:0:0:
329,192,163447,1,0,0:0:0:0:
475,192,163447,1,0,0:0:0:0:
402,192,163767,1,0,0:0:0:0:
36,192,163767,1,0,0:0:0:0:
182,192,163767,1,0,0:0:0:0:
329,192,164086,1,0,0:0:0:0:
256,192,164245,1,0,0:0:0:0:
329,192,164245,1,0,0:0:0:0:
182,192,164405,1,0,0:0:0:0:
475,192,164405,1,0,0:0:0:0:
402,192,164405,1,0,0:0:0:0:
182,192,164724,1,0,0:0:0:0:
329,192,164724,1,0,0:0:0:0:
402,192,164724,1,0,0:0:0:0:
109,192,164884,1,0,0:0:0:0:
182,192,165043,1,0,0:0:0:0:
36,192,165043,1,0,0:0:0:0:
256,192,165203,1,0,0:0:0:0:
402,192,165203,1,0,0:0:0:0:
475,192,165203,1,0,0:0:0:0:
109,192,165362,1,0,0:0:0:0:
109,192,165522,1,0,0:0:0:0:
475,192,165681,1,0,0:0:0:0:
329,192,165681,1,0,0:0:0:0:
182,192,165681,1,0,0:0:0:0:
36,192,166001,1,0,0:0:0:0:
475,192,166001,1,0,0:0:0:0:
329,192,166001,128,0,166320:0:0:0:0:
402,192,166320,1,0,0:0:0:0:
182,192,166320,1,0,0:0:0:0:
402,192,166479,1,0,0:0:0:0:
36,192,166479,1,0,0:0:0:0:
329,192,166559,1,0,0:0:0:0:
256,192,166639,1,0,0:0:0:0:
109,192,166639,1,0,0:0:0:0:
182,192,166798,1,0,0:0:0:0:
329,192,166798,1,0,0:0:0:0:
36,192,166958,1,0,0:0:0:0:
109,192,167118,1,0,0:0:0:0:
475,192,167118,1,0,0:0:0:0:
182,192,167197,1,0,0:0:0:0:
256,192,167277,1,0,0:0:0:0:
329,192,167357,1,0,0:0:0:0:
402,192,167437,1,0,0:0:0:0:
182,192,167517,1,0,0:0:0:0:
256,192,167596,1,0,0:0:0:0:
182,192,167676,1,0,0:0:0:0:
109,192,167756,1,0,0:0:0:0:
36,192,167836,1,0,0:0:0:0:
475,192,167916,1,0,0:0:0:0:
402,192,167995,1,0,0:0:0:0:
329,192,168075,1,0,0:0:0:0:
256,192,168155,1,0,0:0:0:0:
329,192,168235,1,0,0:0:0:0:
256,192,168314,1,0,0:0:0:0:
182,192,168394,1,0,0:0:0:0:
109,192,168474,1,0,0:0:0:0:
36,192,168554,1,0,0:0:0:0:
475,192,168554,1,0,0:0:0:0:
402,192,168634,1,0,0:0:0:0:
329,192,168713,1,0,0:0:0:0:
182,192,168793,1,0,0:0:0:0:
109,192,168873,1,0,0:0:0:0:
36,192,168953,1,0,0:0:0:0:
475,192,169033,1,0,0:0:0:0:
256,192,169033,1,0,0:0:0:0:
329,192,169112,1,0,0:0:0:0:
402,192,169192,1,0,0:0:0:0:
182,192,169272,1,0,0:0:0:0:
109,192,169352,1,0,0:0:0:0:
36,192,169431,1,0,0:0:0:0:
182,192,169511,1,0,0:0:0:0:
475,192,169511,1,0,0:0:0:0:
256,192,169591,1,0,0:0:0:0:
329,192,169671,1,0,0:0:0:0:
475,192,169751,1,0,0:0:0:0:
402,192,169830,1,0,0:0:0:0:
329,192,169910,1,0,0:0:0:0:
36,192,169990,1,0,0:0:0:0:
182,192,169990,1,0,0:0:0:0:
256,192,170070,1,0,0:0:0:0:
329,192,170150,1,0,0:0:0:0:
256,192,170309,1,0,0:0:0:0:
402,192,170469,1,0,0:0:0:0:
109,192,170469,1,0,0:0:0:0:
256,192,170628,1,0,0:0:0:0:
36,192,170788,1,0,0:0:0:0:
475,192,170788,1,0,0:0:0:0:
109,192,170868,1,0,0:0:0:0:
182,192,170947,1,0,0:0:0:0:
402,192,171027,1,0,0:0:0:0:
329,192,171107,1,0,0:0:0:0:
256,192,171187,1,0,0:0:0:0:
36,192,171267,1,0,0:0:0:0:
475,192,171267,1,0,0:0:0:0:
109,192,171346,1,0,0:0:0:0:
182,192,171426,1,0,0:0:0:0:
475,192,171506,1,0,0:0:0:0:
402,192,171586,1,0,0:0:0:0:
329,192,171666,1,0,0:0:0:0:
36,192,171745,1,0,0:0:0:0:
182,192,171745,1,0,0:0:0:0:
256,192,171825,1,0,0:0:0:0:
329,192,171905,1,0,0:0:0:0:
182,192,171985,1,0,0:0:0:0:
109,192,172064,1,0,0:0:0:0:
36,192,172144,1,0,0:0:0:0:
475,192,172224,1,0,0:0:0:0:
256,192,172224,1,0,0:0:0:0:
402,192,172304,1,0,0:0:0:0:
329,192,172384,1,0,0:0:0:0:
109,192,172543,1,0,0:0:0:0:
182,192,172703,1,0,0:0:0:0:
329,192,172862,1,0,0:0:0:0:
36,192,172862,1,0,0:0:0:0:
109,192,173022,1,0,0:0:0:0:
256,192,173022,1,0,0:0:0:0:
475,192,173022,1,0,0:0:0:0:
329,192,173181,1,0,0:0:0:0:
182,192,173341,1,0,0:0:0:0:
36,192,173501,1,0,0:0:0:0:
256,192,173501,1,0,0:0:0:0:
475,192,173501,1,0,0:0:0:0:
109,192,173660,1,0,0:0:0:0:
182,192,173820,1,0,0:0:0:0:
329,192,173979,1,0,0:0:0:0:
36,192,173979,1,0,0:0:0:0:
475,192,173979,1,0,0:0:0:0:
402,192,174139,1,0,0:0:0:0:
329,192,174298,1,0,0:0:0:0:
256,192,174458,1,0,0:0:0:0:
36,192,174458,1,0,0:0:0:0:
329,192,174618,1,0,0:0:0:0:
475,192,174618,1,0,0:0:0:0:
109,192,174777,1,0,0:0:0:0:
36,192,174777,1,0,0:0:0:0:
256,192,174937,1,0,0:0:0:0:
182,192,174937,1,0,0:0:0:0:
402,192,175096,1,0,0:0:0:0:
329,192,175096,1,0,0:0:0:0:
475,192,175256,1,0,0:0:0:0:
256,192,175256,1,0,0:0:0:0:
36,192,175416,1,0,0:0:0:0:
402,192,175416,1,0,0:0:0:0:
329,192,175416,1,0,0:0:0:0:
182,192,175735,1,0,0:0:0:0:
36,192,175735,1,0,0:0:0:0:
475,192,175894,1,0,0:0:0:0:
402,192,175894,1,0,0:0:0:0:
109,192,176054,1,0,0:0:0:0:
36,192,176054,1,0,0:0:0:0:
475,192,176213,1,0,0:0:0:0:
256,192,176213,1,0,0:0:0:0:
182,192,176373,1,0,0:0:0:0:
36,192,176373,1,0,0:0:0:0:
329,192,176533,1,0,0:0:0:0:
475,192,176533,1,0,0:0:0:0:
256,192,176692,1,0,0:0:0:0:
36,192,176692,1,0,0:0:0:0:
402,192,176852,1,0,0:0:0:0:
109,192,176852,1,0,0:0:0:0:
109,192,177011,1,0,0:0:0:0:
402,192,177011,1,0,0:0:0:0:
182,192,177171,1,0,0:0:0:0:
475,192,177171,1,0,0:0:0:0:
182,192,177330,1,0,0:0:0:0:
475,192,177330,1,0,0:0:0:0:
36,192,177490,1,0,0:0:0:0:
329,192,177490,1,0,0:0:0:0:
36,192,177650,1,0,0:0:0:0:
329,192,177650,1,0,0:0:0:0:
109,192,177809,1,0,0:0:0:0:
402,192,177809,1,0,0:0:0:0:
182,192,177969,1,0,0:0:0:0:
329,192,177969,1,0,0:0:0:0:
36,192,178128,1,0,0:0:0:0:
256,192,178128,1,0,0:0:0:0:
475,192,178128,1,0,0:0:0:0:
329,192,178447,1,0,0:0:0:0:
182,192,178767,1,0,0:0:0:0:
475,192,179086,1,0,0:0:0:0:
109,192,179405,1,0,0:0:0:0:
402,192,179724,1,0,0:0:0:0:
182,192,180043,1,0,0:0:0:0:
329,192,180362,1,0,0:0:0:0:
256,192,180681,1,0,0:0:0:0:
36,192,181001,1,0,0:0:0:0:
475,192,181320,1,0,0:0:0:0:
182,192,181639,1,0,0:0:0:0:
329,192,181958,1,0,0:0:0:0:
256,192,182277,1,0,0:0:0:0:
182,192,182596,1,0,0:0:0:0:
329,192,182916,1,0,0:0:0:0:
109,192,183235,1,0,0:0:0:0:
256,192,183554,1,0,0:0:0:0:
402,192,183873,1,0,0:0:0:0:
182,192,184192,1,0,0:0:0:0:
329,192,184511,1,0,0:0:0:0:
109,192,184830,1,0,0:0:0:0:
256,192,185150,1,0,0:0:0:0:
329,192,185469,1,0,0:0:0:0:
402,192,185788,1,0,0:0:0:0:
36,192,186107,1,0,0:0:0:0:
402,192,186426,1,0,0:0:0:0:
109,192,186745,1,0,0:0:0:0:
475,192,186745,1,0,0:0:0:0:
256,192,186905,1,0,0:0:0:0:
402,192,187064,1,0,0:0:0:0:
182,192,187224,1,0,0:0:0:0:
329,192,187384,1,0,0:0:0:0:
36,192,187384,1,0,0:0:0:0:
256,192,187543,1,0,0:0:0:0:
329,192,187862,1,0,0:0:0:0:
182,192,188022,1,0,0:0:0:0:
36,192,188181,1,0,0:0:0:0:
256,192,188341,1,0,0:0:0:0:
475,192,188341,1,0,0:0:0:0:
329,192,188341,128,0,190894:0:0:0:0:
182,192,188660,1,0,0:0:0:0:
402,192,188660,1,0,0:0:0:0:
36,192,188819,1,0,0:0:0:0:
256,192,188979,1,0,0:0:0:0:
475,192,188979,1,0,0:0:0:0:
109,192,189138,1,0,0:0:0:0:
182,192,189298,1,0,0:0:0:0:
402,192,189298,1,0,0:0:0:0:
36,192,189458,1,0,0:0:0:0:
256,192,189617,1,0,0:0:0:0:
475,192,189617,1,0,0:0:0:0:
109,192,189777,1,0,0:0:0:0:
182,192,189936,1,0,0:0:0:0:
402,192,189936,1,0,0:0:0:0:
36,192,190096,1,0,0:0:0:0:
256,192,190255,1,0,0:0:0:0:
475,192,190255,1,0,0:0:0:0:
182,192,190415,1,0,0:0:0:0:
109,192,190575,1,0,0:0:0:0:
402,192,190575,1,0,0:0:0:0:
182,192,190734,1,0,0:0:0:0:
109,192,190814,1,0,0:0:0:0:
256,192,190894,128,0,191532:0:0:0:0:
36,192,190894,1,0,0:0:0:0:
475,192,190894,1,0,0:0:0:0:
182,192,191213,1,0,0:0:0:0:
475,192,191213,1,0,0:0:0:0:
109,192,191532,128,0,192170:0:0:0:0:
402,192,191532,1,0,0:0:0:0:
36,192,191532,1,0,0:0:0:0:
402,192,191851,1,0,0:0:0:0:
402,192,192011,1,0,0:0:0:0:
329,192,192170,128,0,192809:0:0:0:0:
256,192,192170,1,0,0:0:0:0:
475,192,192170,1,0,0:0:0:0:
256,192,192489,1,0,0:0:0:0:
109,192,192649,1,0,0:0:0:0:
182,192,192809,1,0,0:0:0:0:
402,192,192968,1,0,0:0:0:0:
256,192,193128,1,0,0:0:0:0:
109,192,193287,1,0,0:0:0:0:
402,192,193447,1,0,0:0:0:0:
256,192,193447,1,0,0:0:0:0:
182,192,193447,128,0,195043:0:0:0:0:
329,192,193606,1,0,0:0:0:0:
402,192,193766,1,0,0:0:0:0:
109,192,193766,1,0,0:0:0:0:
256,192,193926,1,0,0:0:0:0:
329,192,194085,1,0,0:0:0:0:
36,192,194085,1,0,0:0:0:0:
475,192,194245,1,0,0:0:0:0:
402,192,194404,1,0,0:0:0:0:
109,192,194404,1,0,0:0:0:0:
329,192,194564,1,0,0:0:0:0:
256,192,194723,1,0,0:0:0:0:
36,192,194723,1,0,0:0:0:0:
329,192,194883,1,0,0:0:0:0:
402,192,195043,128,0,195362:0:0:0:0:
256,192,195043,1,0,0:0:0:0:
475,192,195043,1,0,0:0:0:0:
182,192,195202,1,0,0:0:0:0:
256,192,195362,128,0,195681:0:0:0:0:
109,192,195362,1,0,0:0:0:0:
402,192,195521,1,0,0:0:0:0:
109,192,195681,128,0,196000:0:0:0:0:
329,192,195681,1,0,0:0:0:0:
475,192,195681,1,0,0:0:0:0:
182,192,195841,1,0,0:0:0:0:
256,192,196000,1,0,0:0:0:0:
402,192,196000,1,0,0:0:0:0:
36,192,196000,1,0,0:0:0:0:
109,192,196319,1,0,0:0:0:0:
329,192,196319,1,0,0:0:0:0:
402,192,196479,1,0,0:0:0:0:
256,192,196638,1,0,0:0:0:0:
36,192,196638,1,0,0:0:0:0:
475,192,196798,1,0,0:0:0:0:
109,192,196958,1,0,0:0:0:0:
182,192,196958,1,0,0:0:0:0:
256,192,197117,1,0,0:0:0:0:
329,192,197277,1,0,0:0:0:0:
182,192,197277,1,0,0:0:0:0:
182,192,197436,1,0,0:0:0:0:
329,192,197436,1,0,0:0:0:0:
402,192,197596,1,0,0:0:0:0:
109,192,197596,1,0,0:0:0:0:
402,192,197755,1,0,0:0:0:0:
109,192,197755,1,0,0:0:0:0:
36,192,197915,1,0,0:0:0:0:
475,192,197915,1,0,0:0:0:0:
475,192,198075,1,0,0:0:0:0:
36,192,198075,1,0,0:0:0:0:
402,192,198234,1,0,0:0:0:0:
109,192,198234,1,0,0:0:0:0:
36,192,198394,1,0,0:0:0:0:
475,192,198394,1,0,0:0:0:0:
256,192,198553,128,0,199511:0:0:0:0:
329,192,198553,1,0,0:0:0:0:
475,192,198872,1,0,0:0:0:0:
329,192,199192,1,0,0:0:0:0:
182,192,199511,1,0,0:0:0:0:
36,192,199830,1,0,0:0:0:0:
256,192,199830,1,0,0:0:0:0:
475,192,199830,1,0,0:0:0:0:
402,192,199830,1,0,0:0:0:0:
36,192,201106,1,0,0:0:0:0:
256,192,201106,1,0,0:0:0:0:
182,192,201106,1,0,0:0:0:0:
475,192,201106,1,0,0:0:0:0:
36,192,202383,1,0,0:0:0:0:
109,192,202383,1,0,0:0:0:0:
256,192,202383,1,0,0:0:0:0:
475,192,202383,1,0,0:0:0:0:
402,192,202702,1,0,0:0:0:0:
182,192,202702,1,0,0:0:0:0:
329,192,202862,1,0,0:0:0:0:
36,192,202862,1,0,0:0:0:0:
256,192,202862,1,0,0:0:0:0:
475,192,202862,1,0,0:0:0:0:
109,192,203181,1,0,0:0:0:0:
256,192,203181,1,0,0:0:0:0:
182,192,203341,1,0,0:0:0:0:
329,192,203341,1,0,0:0:0:0:
475,192,203500,1,0,0:0:0:0:
402,192,203500,1,0,0:0:0:0:
256,192,203660,128,0,203979:0:0:0:0:
36,192,203660,1,0,0:0:0:0:
475,192,203819,1,0,0:0:0:0:
182,192,203979,128,0,204298:0:0:0:0:
402,192,203979,1,0,0:0:0:0:
329,192,203979,1,0,0:0:0:0:
109,192,204138,1,0,0:0:0:0:
402,192,204298,128,0,204617:0:0:0:0:
256,192,204298,1,0,0:0:0:0:
182,192,204458,1,0,0:0:0:0:
256,192,204617,128,0,204936:0:0:0:0:
109,192,204617,1,0,0:0:0:0:
475,192,204617,1,0,0:0:0:0:
475,192,204777,1,0,0:0:0:0:
402,192,204856,1,0,0:0:0:0:
109,192,204936,128,0,206213:0:0:0:0:
329,192,204936,1,0,0:0:0:0:
36,192,204936,1,0,0:0:0:0:
475,192,205096,1,0,0:0:0:0:
182,192,205255,1,0,0:0:0:0:
256,192,205255,1,0,0:0:0:0:
402,192,205415,1,0,0:0:0:0:
182,192,205575,1,0,0:0:0:0:
36,192,205575,1,0,0:0:0:0:
475,192,205734,1,0,0:0:0:0:
329,192,205894,1,0,0:0:0:0:
256,192,205894,1,0,0:0:0:0:
402,192,206053,1,0,0:0:0:0:
329,192,206213,128,0,206532:0:0:0:0:
182,192,206213,1,0,0:0:0:0:
36,192,206213,1,0,0:0:0:0:
109,192,206372,1,0,0:0:0:0:
256,192,206532,128,0,206692:0:0:0:0:
36,192,206532,1,0,0:0:0:0:
182,192,206692,128,0,206851:0:0:0:0:
475,192,206692,1,0,0:0:0:0:
402,192,206851,1,0,0:0:0:0:
182,192,207011,1,0,0:0:0:0:
109,192,207170,128,0,207489:0:0:0:0:
256,192,207170,1,0,0:0:0:0:
475,192,207170,1,0,0:0:0:0:
402,192,207330,1,0,0:0:0:0:
329,192,207410,1,0,0:0:0:0:
256,192,207489,1,0,0:0:0:0:
475,192,207489,1,0,0:0:0:0:
36,192,207489,1,0,0:0:0:0:
256,192,207809,1,0,0:0:0:0:
36,192,207809,1,0,0:0:0:0:
475,192,207809,1,0,0:0:0:0:
109,192,207968,1,0,0:0:0:0:
402,192,207968,1,0,0:0:0:0:
36,192,208128,1,0,0:0:0:0:
475,192,208128,1,0,0:0:0:0:
182,192,208287,1,0,0:0:0:0:
329,192,208287,1,0,0:0:0:0:
109,192,208447,1,0,0:0:0:0:
402,192,208447,1,0,0:0:0:0:
182,192,208606,1,0,0:0:0:0:
329,192,208606,1,0,0:0:0:0:
256,192,208766,128,0,209085:0:0:0:0:
402,192,209085,128,0,209404:0:0:0:0:
36,192,209085,1,0,0:0:0:0:
329,192,209404,128,0,209723:0:0:0:0:
109,192,209404,1,0,0:0:0:0:
256,192,209723,128,0,210043:0:0:0:0:
182,192,209723,1,0,0:0:0:0:
109,192,210043,1,0,0:0:0:0:
402,192,210043,1,0,0:0:0:0:
36,192,210043,128,0,211000:0:0:0:0:
475,192,210362,1,0,0:0:0:0:
182,192,210362,1,0,0:0:0:0:
329,192,210362,1,0,0:0:0:0:
402,192,210681,1,0,0:0:0:0:
402,192,210841,1,0,0:0:0:0:
182,192,211000,128,0,211319:0:0:0:0:
256,192,211000,1,0,0:0:0:0:
475,192,211000,1,0,0:0:0:0:
402,192,211160,1,0,0:0:0:0:
329,192,211319,128,0,211958:0:0:0:0:
36,192,211319,1,0,0:0:0:0:
475,192,211319,1,0,0:0:0:0:
109,192,211638,1,0,0:0:0:0:
402,192,211638,1,0,0:0:0:0:
182,192,211958,1,0,0:0:0:0:
182,192,212117,1,0,0:0:0:0:
36,192,212277,1,0,0:0:0:0:
329,192,212277,1,0,0:0:0:0:
475,192,212277,1,0,0:0:0:0:
256,192,212596,1,0,0:0:0:0:
36,192,212596,1,0,0:0:0:0:
475,192,212596,1,0,0:0:0:0:
256,192,212915,1,0,0:0:0:0:
36,192,213075,1,0,0:0:0:0:
475,192,213075,1,0,0:0:0:0:
182,192,213075,1,0,0:0:0:0:
475,192,213394,1,0,0:0:0:0:
256,192,213394,1,0,0:0:0:0:
402,192,213553,1,0,0:0:0:0:
182,192,213553,1,0,0:0:0:0:
329,192,213713,1,0,0:0:0:0:
109,192,213713,1,0,0:0:0:0:
256,192,213872,128,0,214511:0:0:0:0:
36,192,213872,1,0,0:0:0:0:
475,192,213872,1,0,0:0:0:0:
402,192,214192,1,0,0:0:0:0:
182,192,214192,1,0,0:0:0:0:
36,192,214351,1,0,0:0:0:0:
475,192,214511,1,0,0:0:0:0:
329,192,214511,1,0,0:0:0:0:
402,192,214670,1,0,0:0:0:0:
109,192,214670,1,0,0:0:0:0:
36,192,214830,1,0,0:0:0:0:
329,192,214830,1,0,0:0:0:0:
256,192,214989,1,0,0:0:0:0:
182,192,215149,128,0,215787:0:0:0:0:
329,192,215149,128,0,215787:0:0:0:0:
109,192,215149,1,0,0:0:0:0:
475,192,215468,1,0,0:0:0:0:
256,192,215468,1,0,0:0:0:0:
36,192,215787,1,0,0:0:0:0:
402,192,215787,1,0,0:0:0:0:
256,192,215947,1,0,0:0:0:0:
182,192,216106,1,0,0:0:0:0:
475,192,216106,1,0,0:0:0:0:
109,192,216106,1,0,0:0:0:0:
256,192,216266,1,0,0:0:0:0:
109,192,216426,128,0,217064:0:0:0:0:
402,192,216426,128,0,217064:0:0:0:0:
329,192,216426,1,0,0:0:0:0:
256,192,216745,1,0,0:0:0:0:
475,192,216745,1,0,0:0:0:0:
256,192,216904,1,0,0:0:0:0:
182,192,217064,1,0,0:0:0:0:
329,192,217064,1,0,0:0:0:0:
182,192,217223,1,0,0:0:0:0:
109,192,217383,1,0,0:0:0:0:
329,192,217383,1,0,0:0:0:0:
109,192,217543,1,0,0:0:0:0:
256,192,217702,1,0,0:0:0:0:
475,192,217702,1,0,0:0:0:0:
36,192,217702,128,0,218979:0:0:0:0:
182,192,218021,1,0,0:0:0:0:
475,192,218021,1,0,0:0:0:0:
329,192,218021,1,0,0:0:0:0:
256,192,218341,1,0,0:0:0:0:
256,192,218500,1,0,0:0:0:0:
109,192,218660,1,0,0:0:0:0:
475,192,218660,1,0,0:0:0:0:
182,192,218819,1,0,0:0:0:0:
402,192,218819,1,0,0:0:0:0:
329,192,218979,128,0,220255:0:0:0:0:
475,192,218979,1,0,0:0:0:0:
402,192,219138,1,0,0:0:0:0:
256,192,219298,1,0,0:0:0:0:
36,192,219298,1,0,0:0:0:0:
182,192,219458,1,0,0:0:0:0:
475,192,219617,1,0,0:0:0:0:
109,192,219617,1,0,0:0:0:0:
256,192,219777,1,0,0:0:0:0:
402,192,219777,1,0,0:0:0:0:
36,192,219936,1,0,0:0:0:0:
475,192,219936,1,0,0:0:0:0:
109,192,220096,1,0,0:0:0:0:
182,192,220176,1,0,0:0:0:0:
256,192,220255,1,0,0:0:0:0:
475,192,220255,128,0,220894:0:0:0:0:
402,192,220255,1,0,0:0:0:0:
109,192,220575,1,0,0:0:0:0:
329,192,220575,1,0,0:0:0:0:
402,192,220575,1,0,0:0:0:0:
109,192,220734,1,0,0:0:0:0:
256,192,220894,128,0,221532:0:0:0:0:
36,192,220894,1,0,0:0:0:0:
329,192,220894,1,0,0:0:0:0:
109,192,221213,1,0,0:0:0:0:
475,192,221213,1,0,0:0:0:0:
402,192,221372,1,0,0:0:0:0:
36,192,221532,128,0,223447:0:0:0:0:
182,192,221532,1,0,0:0:0:0:
329,192,221532,1,0,0:0:0:0:
256,192,223447,1,0,0:0:0:0:
109,192,223447,1,0,0:0:0:0:
475,192,223447,1,0,0:0:0:0:
256,192,224085,1,0,0:0:0:0:
36,192,224085,1,0,0:0:0:0:
475,192,224085,1,0,0:0:0:0:
329,192,224085,128,0,224723:0:0:0:0:
182,192,224404,1,0,0:0:0:0:
109,192,224404,1,0,0:0:0:0:
256,192,224723,1,0,0:0:0:0:
475,192,224723,1,0,0:0:0:0:
402,192,224883,1,0,0:0:0:0:
182,192,224883,1,0,0:0:0:0:
329,192,225043,1,0,0:0:0:0:
109,192,225043,1,0,0:0:0:0:
256,192,225202,1,0,0:0:0:0:
475,192,225202,1,0,0:0:0:0:
182,192,225362,1,0,0:0:0:0:
402,192,225362,1,0,0:0:0:0:
109,192,225362,128,0,225681:0:0:0:0:
256,192,225521,1,0,0:0:0:0:
329,192,225681,1,0,0:0:0:0:
402,192,225681,128,0,226000:0:0:0:0:
36,192,225841,1,0,0:0:0:0:
256,192,226000,1,0,0:0:0:0:
182,192,226000,128,0,226319:0:0:0:0:
329,192,226319,128,0,226638:0:0:0:0:
475,192,226319,1,0,0:0:0:0:
256,192,226638,128,0,227277:0:0:0:0:
109,192,226638,1,0,0:0:0:0:
36,192,226638,1,0,0:0:0:0:
329,192,226958,1,0,0:0:0:0:
402,192,227117,1,0,0:0:0:0:
36,192,227277,128,0,227915:0:0:0:0:
475,192,227277,1,0,0:0:0:0:
182,192,227277,1,0,0:0:0:0:
402,192,227596,1,0,0:0:0:0:
256,192,227596,1,0,0:0:0:0:
329,192,227915,128,0,228553:0:0:0:0:
182,192,227915,1,0,0:0:0:0:
475,192,227915,1,0,0:0:0:0:
256,192,228234,1,0,0:0:0:0:
475,192,228234,1,0,0:0:0:0:
182,192,228394,1,0,0:0:0:0:
109,192,228553,128,0,229192:0:0:0:0:
256,192,228553,1,0,0:0:0:0:
402,192,228553,1,0,0:0:0:0:
475,192,228713,1,0,0:0:0:0:
329,192,228872,1,0,0:0:0:0:
182,192,228872,1,0,0:0:0:0:
256,192,229032,1,0,0:0:0:0:
329,192,229192,128,0,229511:0:0:0:0:
402,192,229192,1,0,0:0:0:0:
182,192,229511,128,0,229830:0:0:0:0:
109,192,229511,1,0,0:0:0:0:
402,192,229830,128,0,230149:0:0:0:0:
475,192,229830,1,0,0:0:0:0:
109,192,230149,128,0,230468:0:0:0:0:
36,192,230149,1,0,0:0:0:0:
402,192,230468,128,0,230787:0:0:0:0:
256,192,230468,1,0,0:0:0:0:
475,192,230468,1,0,0:0:0:0:
36,192,230787,128,0,231106:0:0:0:0:
256,192,230787,1,0,0:0:0:0:
109,192,230787,1,0,0:0:0:0:
475,192,231106,128,0,231426:0:0:0:0:
256,192,231106,1,0,0:0:0:0:
402,192,231106,1,0,0:0:0:0:
256,192,231426,128,0,231742:0:0:0:0:
36,192,231426,1,0,0:0:0:0:
402,192,231426,1,0,0:0:0:0:
182,192,231426,1,0,0:0:0:0:
402,192,231742,128,0,233046:0:0:0:0:
329,192,233046,128,0,234350:0:0:0:0:
36,192,234350,128,0,236633:0:0:0:0:
182,192,236633,128,0,236952:0:0:0:0:
329,192,236792,128,0,236952:0:0:0:0:
475,192,236952,128,0,238707:0:0:0:0:
402,192,236952,1,0,0:0:0:0:
36,192,237271,1,0,0:0:0:0:
329,192,237271,1,0,0:0:0:0:
256,192,237430,1,0,0:0:0:0:
109,192,237590,1,0,0:0:0:0:
256,192,237749,1,0,0:0:0:0:
36,192,237909,1,0,0:0:0:0:
329,192,237909,1,0,0:0:0:0:
256,192,238228,1,0,0:0:0:0:
109,192,238228,1,0,0:0:0:0:
256,192,238388,1,0,0:0:0:0:
36,192,238547,1,0,0:0:0:0:
329,192,238547,1,0,0:0:0:0:
182,192,238707,1,0,0:0:0:0:
109,192,238787,1,0,0:0:0:0:
256,192,238866,1,0,0:0:0:0:
36,192,238866,1,0,0:0:0:0:
109,192,239026,1,0,0:0:0:0:
182,192,239026,1,0,0:0:0:0:
402,192,239186,1,0,0:0:0:0:
329,192,239186,1,0,0:0:0:0:
109,192,239345,1,0,0:0:0:0:
182,192,239345,1,0,0:0:0:0:
36,192,239505,1,0,0:0:0:0:
475,192,239505,1,0,0:0:0:0:
256,192,239505,128,0,240143:0:0:0:0:
109,192,239824,1,0,0:0:0:0:
475,192,239824,1,0,0:0:0:0:
402,192,239983,1,0,0:0:0:0:
109,192,240143,128,0,240781:0:0:0:0:
329,192,240143,1,0,0:0:0:0:
182,192,240303,1,0,0:0:0:0:
475,192,240462,1,0,0:0:0:0:
256,192,240462,1,0,0:0:0:0:
402,192,240622,1,0,0:0:0:0:
36,192,240781,1,0,0:0:0:0:
329,192,240781,128,0,241420:0:0:0:0:
109,192,240941,1,0,0:0:0:0:
182,192,241100,1,0,0:0:0:0:
36,192,241100,1,0,0:0:0:0:
256,192,241260,1,0,0:0:0:0:
36,192,241420,1,0,0:0:0:0:
402,192,241420,1,0,0:0:0:0:
109,192,241579,1,0,0:0:0:0:
182,192,241739,1,0,0:0:0:0:
329,192,241739,128,0,242058:0:0:0:0:
109,192,241898,1,0,0:0:0:0:
36,192,242058,1,0,0:0:0:0:
475,192,242058,128,0,242377:0:0:0:0:
256,192,242058,1,0,0:0:0:0:
256,192,242377,1,0,0:0:0:0:
109,192,242377,1,0,0:0:0:0:
402,192,242537,128,0,242856:0:0:0:0:
182,192,242537,1,0,0:0:0:0:
36,192,242696,1,0,0:0:0:0:
182,192,242856,1,0,0:0:0:0:
256,192,242856,1,0,0:0:0:0:
109,192,243015,128,0,243334:0:0:0:0:
475,192,243015,1,0,0:0:0:0:
329,192,243015,1,0,0:0:0:0:
402,192,243175,1,0,0:0:0:0:
256,192,243334,1,0,0:0:0:0:
475,192,243334,1,0,0:0:0:0:
182,192,243334,128,0,243494:0:0:0:0:
329,192,243494,128,0,243813:0:0:0:0:
36,192,243494,1,0,0:0:0:0:
109,192,243654,1,0,0:0:0:0:
475,192,243813,1,0,0:0:0:0:
256,192,243813,1,0,0:0:0:0:
182,192,243973,1,0,0:0:0:0:
402,192,243973,1,0,0:0:0:0:
329,192,244132,1,0,0:0:0:0:
109,192,244132,1,0,0:0:0:0:
256,192,244292,1,0,0:0:0:0:
36,192,244292,1,0,0:0:0:0:
182,192,244452,1,0,0:0:0:0:
475,192,244452,1,0,0:0:0:0:
329,192,244611,1,0,0:0:0:0:
402,192,244611,128,0,245249:0:0:0:0:
36,192,244611,1,0,0:0:0:0:
329,192,244930,1,0,0:0:0:0:
36,192,244930,1,0,0:0:0:0:
36,192,245249,1,0,0:0:0:0:
329,192,245249,1,0,0:0:0:0:
256,192,245329,1,0,0:0:0:0:
182,192,245409,1,0,0:0:0:0:
109,192,245489,1,0,0:0:0:0:
36,192,245569,1,0,0:0:0:0:
256,192,245569,1,0,0:0:0:0:
475,192,245648,1,0,0:0:0:0:
402,192,245728,1,0,0:0:0:0:
329,192,245808,1,0,0:0:0:0:
256,192,245888,128,0,246366:0:0:0:0:
36,192,245888,1,0,0:0:0:0:
182,192,246047,1,0,0:0:0:0:
475,192,246047,1,0,0:0:0:0:
109,192,246207,1,0,0:0:0:0:
402,192,246207,1,0,0:0:0:0:
36,192,246366,1,0,0:0:0:0:
329,192,246366,1,0,0:0:0:0:
402,192,246526,128,0,247005:0:0:0:0:
182,192,246686,128,0,246845:0:0:0:0:
109,192,246845,128,0,247005:0:0:0:0:
256,192,247005,128,0,254824:0:0:0:0:
36,192,247005,128,0,254824:0:0:0:0:
475,192,247005,128,0,254824:0:0:0:0:
