osu file format v14

[General]
AudioFilename: HO_op.mp3
AudioLeadIn: 0
PreviewTime: 56612
Countdown: 0
SampleSet: Soft
StackLeniency: 0.7
Mode: 3
LetterboxInBreaks: 0
SpecialStyle: 0
WidescreenStoryboard: 0

[Editor]
DistanceSpacing: 0.8
BeatDivisor: 4
GridSize: 4
TimelineZoom: 2.08

[Metadata]
Title:Dear Brave
TitleUnicode:ディアブレイブ
Artist:Kano
ArtistUnicode:鹿乃
Creator:Dellvangel
Version:Hard
Source:ヘヴィーオブジェクト
Tags:Heavy Object ED TV Size Reyzra Muu-chan
BeatmapID:789324
BeatmapSetID:358983

[Difficulty]
HPDrainRate:8
CircleSize:4
OverallDifficulty:7.5
ApproachRate:5
SliderMultiplier:1.4
SliderTickRate:1

[Events]
//Background and Video events
0,0,"BG.jpg",0,0
Video,0,"video.avi"
//Break Periods
//Storyboard Layer 0 (Background)
//Storyboard Layer 1 (Fail)
//Storyboard Layer 2 (Pass)
//Storyboard Layer 3 (Foreground)
//Storyboard Sound Samples

[TimingPoints]
1480,319.148936170213,4,2,1,30,1,0
42331,-105.263157894737,4,2,1,30,0,0
47277,-100,4,2,1,30,0,0
57650,-100,4,2,1,30,0,1
80628,342.857142857143,4,2,1,30,1,0
80628,-100,4,2,1,30,0,0
81999,359.281437125748,4,2,1,30,1,0
85951,387.096774193548,4,2,1,30,1,0

[HitObjects]
320,192,1480,5,0,0:0:0:0:
448,192,1480,1,2,0:0:0:0:
64,192,1480,128,4,1799:0:0:0:0:
192,192,1799,128,0,2118:0:0:0:0:
448,192,1799,1,0,0:0:0:30:hihat.wav
64,192,2118,1,0,0:0:0:30:hihat.wav
320,192,2118,128,0,2437:0:0:0:0:
192,192,2437,128,0,2756:0:0:0:0:
448,192,2437,1,0,0:0:0:30:hihat.wav
64,192,2597,1,0,0:0:0:30:hihat.wav
448,192,2756,128,0,3394:0:0:0:0:
320,192,2756,1,0,0:0:0:30:hihat.wav
64,192,3075,1,0,0:0:0:30:hihat.wav
192,192,3235,1,0,0:0:0:30:hihat.wav
320,192,3394,1,0,0:0:0:30:hihat.wav
64,192,3394,128,0,3714:0:0:0:0:
192,192,3554,1,0,0:0:0:30:hihat.wav
320,192,3714,128,0,4033:0:0:0:0:
448,192,3714,1,0,0:0:0:30:hihat.wav
192,192,3873,1,0,0:0:0:30:hihat.wav
64,192,4033,1,0,0:0:0:30:hihat.wav
448,192,4033,128,0,4352:0:0:0:0:
64,192,4352,128,0,4671:0:0:0:0:
192,192,4352,1,0,0:0:0:30:hihat.wav
448,192,4671,1,0,0:0:0:30:hihat.wav
320,192,4671,128,0,4990:0:0:0:0:
64,192,4990,1,0,0:0:0:30:hihat.wav
448,192,5150,128,4,5948:0:0:0:0:
192,192,5150,1,0,0:0:0:0:
64,192,5948,1,0,0:0:0:0:
192,192,6027,1,0,0:0:0:0:
320,192,6107,1,0,0:0:0:0:
64,192,6187,1,0,0:0:0:0:
192,192,6267,1,0,0:0:0:0:
320,192,6347,1,0,0:0:0:0:
448,192,6426,1,2,0:0:0:0:
64,192,6426,1,4,0:0:0:0:
192,192,6745,1,2,0:0:0:0:
320,192,6905,1,8,0:0:0:0:
448,192,6905,1,2,0:0:0:0:
64,192,7224,1,2,0:0:0:0:
64,192,7384,1,2,0:0:0:0:
320,192,7543,1,2,0:0:0:0:
192,192,7543,1,8,0:0:0:0:
448,192,7703,1,2,0:0:0:0:
64,192,7862,1,4,0:0:0:0:
192,192,8022,1,2,0:0:0:0:
64,192,8182,1,8,0:0:0:0:
320,192,8182,1,2,0:0:0:0:
192,192,8341,1,0,0:0:0:0:
320,192,8501,1,0,0:0:0:0:
448,192,8501,1,2,0:0:0:0:
448,192,8660,1,2,0:0:0:0:
192,192,8660,1,0,0:0:0:0:
320,192,8820,1,2,0:0:0:0:
64,192,8820,1,8,0:0:0:0:
448,192,8980,1,2,0:0:0:0:
192,192,8980,128,0,9139:0:0:0:0:
320,192,9299,1,2,0:0:0:0:
64,192,9299,128,0,9458:0:0:0:0:
192,192,9618,1,2,0:0:0:0:
448,192,9618,128,0,9777:0:0:0:0:
320,192,9937,128,0,10097:0:0:0:0:
64,192,9937,1,2,0:0:0:0:
448,192,10256,1,2,0:0:0:0:
64,192,10256,128,4,10575:0:0:0:0:
192,192,10256,1,0,0:0:0:0:
320,192,10575,1,2,0:0:0:0:
192,192,10735,1,2,0:0:0:0:
448,192,10735,1,8,0:0:0:0:
320,192,10894,1,8,0:0:0:0:
64,192,10894,1,2,0:0:0:0:
192,192,11054,1,0,0:0:0:0:
320,192,11214,1,2,0:0:0:0:
448,192,11214,1,8,0:0:0:0:
64,192,11373,1,2,0:0:0:0:
192,192,11373,1,8,0:0:0:0:
448,192,11533,1,2,0:0:0:0:
320,192,11533,128,0,11852:0:0:0:0:
64,192,11852,1,2,0:0:0:0:
320,192,12011,128,2,12331:0:0:0:0:
192,192,12011,1,8,0:0:0:0:
448,192,12331,1,2,0:0:0:0:
192,192,12490,1,8,0:0:0:0:
64,192,12490,128,2,12809:0:0:0:0:
448,192,12809,1,2,0:0:0:0:
192,192,12969,1,4,0:0:0:0:
64,192,12969,128,2,13288:0:0:0:0:
320,192,12969,1,8,0:0:0:0:
448,192,13288,1,2,0:0:0:0:
320,192,13448,1,8,0:0:0:0:
192,192,13448,1,2,0:0:0:0:
192,192,13607,1,8,0:0:0:0:
64,192,13607,1,2,0:0:0:0:
448,192,13767,1,2,0:0:0:0:
320,192,13767,1,8,0:0:0:0:
64,192,13926,1,2,0:0:0:0:
192,192,14086,1,2,0:0:0:0:
320,192,14245,1,8,0:0:0:0:
448,192,14245,128,2,14565:0:0:0:0:
64,192,14245,1,4,0:0:0:0:
320,192,14565,1,2,0:0:0:0:
448,192,14724,128,2,15043:0:0:0:0:
192,192,14724,1,8,0:0:0:0:
64,192,14724,1,4,0:0:0:0:
320,192,15043,1,2,0:0:0:0:
64,192,15203,1,8,0:0:0:0:
192,192,15203,128,2,15522:0:0:0:0:
448,192,15522,1,2,0:0:0:0:
192,192,15682,128,2,16001:0:0:0:0:
320,192,15682,1,8,0:0:0:0:
64,192,15682,1,4,0:0:0:0:
448,192,15841,1,0,0:0:0:0:
320,192,16001,1,2,0:0:0:0:
448,192,16160,1,8,0:0:0:0:
64,192,16160,1,2,0:0:0:0:
448,192,16320,1,8,0:0:0:0:
64,192,16320,1,2,0:0:0:0:
192,192,16799,1,0,0:0:0:0:
64,192,16799,1,4,0:0:0:0:
448,192,16958,1,0,0:0:0:0:
320,192,17118,1,0,0:0:0:0:
64,192,17277,1,0,0:0:0:0:
192,192,17437,1,0,0:0:0:0:
320,192,17437,1,0,0:0:0:30:hihat.wav
448,192,17597,1,0,0:0:0:30:hihat.wav
64,192,17756,1,0,0:0:0:30:hihat.wav
320,192,17916,1,0,0:0:0:30:hihat.wav
192,192,18075,1,0,0:0:0:30:hihat.wav
448,192,18075,1,0,0:0:0:0:
64,192,18235,1,0,0:0:0:30:hihat.wav
192,192,18394,1,0,0:0:0:30:hihat.wav
448,192,18554,1,0,0:0:0:30:hihat.wav
64,192,18714,1,0,0:0:0:0:
320,192,18714,1,0,0:0:0:30:hihat.wav
192,192,18873,1,0,0:0:0:30:hihat.wav
448,192,19033,1,0,0:0:0:30:hihat.wav
64,192,19192,1,0,0:0:0:30:hihat.wav
320,192,19352,128,0,19990:0:0:0:0:
192,192,19352,1,0,0:0:0:30:hihat.wav
448,192,19511,1,0,0:0:0:30:hihat.wav
64,192,19671,1,0,0:0:0:30:hihat.wav
192,192,19831,1,0,0:0:0:30:hihat.wav
64,192,19990,1,0,0:0:0:30:hihat.wav
448,192,19990,128,0,20628:0:0:0:0:
192,192,20150,1,0,0:0:0:30:hihat.wav
320,192,20309,1,0,0:0:0:30:hihat.wav
64,192,20469,1,0,0:0:0:30:hihat.wav
320,192,20628,1,0,0:0:0:30:hihat.wav
192,192,20628,128,0,21905:0:0:0:0:
64,192,20788,1,0,0:0:0:30:hihat.wav
320,192,20948,1,0,0:0:0:30:hihat.wav
448,192,21107,1,0,0:0:0:30:hihat.wav
64,192,21267,1,0,0:0:0:30:hihat.wav
320,192,21267,1,0,0:0:0:0:
448,192,21426,1,0,0:0:0:30:hihat.wav
64,192,21586,1,0,0:0:0:30:hihat.wav
320,192,21745,1,0,0:0:0:30:hihat.wav
64,192,21905,1,0,0:0:0:30:hihat.wav
448,192,21905,1,0,0:0:0:0:
320,192,22065,1,0,0:0:0:30:hihat.wav
64,192,22224,1,0,0:0:0:30:hihat.wav
192,192,22384,1,0,0:0:0:30:hihat.wav
448,192,22543,1,0,0:0:0:0:
320,192,22543,1,0,0:0:0:30:hihat.wav
64,192,22703,1,0,0:0:0:30:hihat.wav
320,192,22862,1,0,0:0:0:30:hihat.wav
192,192,23022,1,0,0:0:0:30:hihat.wav
64,192,23182,1,0,0:0:0:0:
320,192,23182,1,0,0:0:0:30:hihat.wav
448,192,23341,1,0,0:0:0:30:hihat.wav
192,192,23501,1,0,0:0:0:30:hihat.wav
64,192,23660,1,0,0:0:0:30:hihat.wav
320,192,23820,1,0,0:0:0:30:hihat.wav
448,192,23820,1,0,0:0:0:0:
192,192,23980,1,0,0:0:0:30:hihat.wav
64,192,24139,1,0,0:0:0:30:hihat.wav
448,192,24299,1,0,0:0:0:30:hihat.wav
320,192,24458,128,0,25735:0:0:0:0:
192,192,24458,1,0,0:0:0:30:hihat.wav
64,192,24618,1,0,0:0:0:30:hihat.wav
192,192,24777,1,0,0:0:0:30:hihat.wav
448,192,24937,1,0,0:0:0:30:hihat.wav
64,192,25097,1,0,0:0:0:30:hihat.wav
192,192,25097,1,0,0:0:0:0:
448,192,25256,1,0,0:0:0:30:hihat.wav
64,192,25416,1,0,0:0:0:30:hihat.wav
192,192,25575,1,0,0:0:0:30:hihat.wav
64,192,25735,128,0,26373:0:0:0:0:
448,192,25735,1,0,0:0:0:30:hihat.wav
192,192,25894,1,0,0:0:0:30:hihat.wav
448,192,26054,1,0,0:0:0:30:hihat.wav
320,192,26214,1,0,0:0:0:30:hihat.wav
448,192,26373,1,0,0:0:0:30:hihat.wav
192,192,26373,1,0,0:0:0:0:
320,192,26533,1,0,0:0:0:30:hihat.wav
192,192,26612,1,0,0:0:0:30:hihat.wav
64,192,26692,1,0,0:0:0:30:hihat.wav
448,192,26692,1,0,0:0:0:0:
320,192,27011,1,2,0:0:0:0:
64,192,27011,1,4,0:0:0:0:
448,192,27011,1,0,0:0:0:0:
192,192,27171,1,0,0:0:0:30:hihat.wav
64,192,27331,1,2,0:0:0:0:
320,192,27331,1,0,0:0:0:30:hihat.wav
448,192,27490,1,0,0:0:0:30:hihat.wav
320,192,27650,1,2,0:0:0:0:
192,192,27650,1,0,0:0:0:30:hihat.wav
64,192,27809,1,0,0:0:0:30:hihat.wav
448,192,27969,1,2,0:0:0:0:
192,192,27969,1,0,0:0:0:30:hihat.wav
320,192,28128,1,0,0:0:0:30:hihat.wav
192,192,28288,1,0,0:0:0:30:hihat.wav
448,192,28288,1,2,0:0:0:0:
64,192,28448,1,0,0:0:0:30:hihat.wav
192,192,28607,1,2,0:0:0:0:
320,192,28607,1,0,0:0:0:30:hihat.wav
448,192,28767,1,0,0:0:0:30:hihat.wav
320,192,28926,1,2,0:0:0:0:
64,192,28926,1,0,0:0:0:30:hihat.wav
192,192,29086,1,0,0:0:0:30:hihat.wav
448,192,29245,1,0,0:0:0:30:hihat.wav
64,192,29245,1,2,0:0:0:0:
320,192,29405,1,0,0:0:0:30:hihat.wav
192,192,29565,1,2,0:0:0:0:
448,192,29565,128,0,30203:0:0:0:30:hihat.wav
320,192,29724,1,0,0:0:0:30:hihat.wav
192,192,29884,1,2,0:0:0:0:
64,192,29884,1,0,0:0:0:30:hihat.wav
320,192,30043,1,0,0:0:0:30:hihat.wav
192,192,30203,128,0,30841:0:0:0:30:hihat.wav
64,192,30203,1,2,0:0:0:0:
320,192,30362,1,0,0:0:0:30:hihat.wav
64,192,30522,1,0,0:0:0:30:hihat.wav
448,192,30522,1,2,0:0:0:0:
320,192,30682,1,0,0:0:0:30:hihat.wav
448,192,30841,1,2,0:0:0:0:
64,192,30841,128,0,31480:0:0:0:30:hihat.wav
320,192,31001,1,0,0:0:0:30:hihat.wav
192,192,31160,1,0,0:0:0:30:hihat.wav
448,192,31160,1,2,0:0:0:0:
320,192,31320,1,0,0:0:0:30:hihat.wav
192,192,31480,1,2,0:0:0:0:
448,192,31480,128,0,32118:0:0:0:30:hihat.wav
320,192,31639,1,0,0:0:0:30:hihat.wav
192,192,31799,1,2,0:0:0:0:
64,192,31799,1,0,0:0:0:30:hihat.wav
320,192,31958,1,0,0:0:0:30:hihat.wav
192,192,32118,1,2,0:0:0:0:
64,192,32118,1,4,0:0:0:0:
320,192,32277,1,0,0:0:0:30:hihat.wav
448,192,32437,1,2,0:0:0:0:
192,192,32437,1,0,0:0:0:30:hihat.wav
64,192,32597,1,0,0:0:0:30:hihat.wav
192,192,32756,1,0,0:0:0:30:hihat.wav
320,192,32756,1,2,0:0:0:0:
448,192,32916,1,0,0:0:0:30:hihat.wav
320,192,33075,1,0,0:0:0:30:hihat.wav
64,192,33075,1,2,0:0:0:0:
192,192,33235,1,0,0:0:0:30:hihat.wav
448,192,33394,1,2,0:0:0:0:
320,192,33394,128,0,34033:0:0:0:30:hihat.wav
64,192,33554,1,0,0:0:0:30:hihat.wav
192,192,33714,1,2,0:0:0:0:
448,192,33714,1,0,0:0:0:30:hihat.wav
64,192,33873,1,0,0:0:0:30:hihat.wav
448,192,34033,1,2,0:0:0:0:
192,192,34033,128,0,34671:0:0:0:30:hihat.wav
64,192,34192,1,0,0:0:0:30:hihat.wav
320,192,34352,1,0,0:0:0:30:hihat.wav
448,192,34352,1,2,0:0:0:0:
64,192,34511,1,0,0:0:0:30:hihat.wav
320,192,34671,1,0,0:0:0:30:hihat.wav
448,192,34671,1,2,0:0:0:0:
64,192,34831,1,0,0:0:0:30:hihat.wav
192,192,34990,1,2,0:0:0:0:
320,192,34990,1,0,0:0:0:30:hihat.wav
448,192,35150,1,0,0:0:0:30:hihat.wav
192,192,35309,1,0,0:0:0:30:hihat.wav
64,192,35309,1,2,0:0:0:0:
320,192,35469,1,0,0:0:0:30:hihat.wav
192,192,35628,1,2,0:0:0:0:
448,192,35628,1,0,0:0:0:30:hihat.wav
64,192,35788,1,0,0:0:0:30:hihat.wav
192,192,35948,1,2,0:0:0:0:
320,192,35948,128,0,36586:0:0:0:30:hihat.wav
448,192,36107,1,0,0:0:0:30:hihat.wav
192,192,36267,1,2,0:0:0:0:
64,192,36267,1,0,0:0:0:30:hihat.wav
448,192,36426,1,0,0:0:0:30:hihat.wav
64,192,36586,128,0,36905:0:0:0:30:hihat.wav
192,192,36586,1,2,0:0:0:0:
448,192,36745,1,0,0:0:0:30:hihat.wav
320,192,36825,1,0,0:0:0:30:hihat.wav
448,192,36905,1,4,0:0:0:0:
192,192,36905,1,2,0:0:0:0:
320,192,37224,1,0,0:0:0:30:hihat.wav
64,192,37224,1,2,0:0:0:0:
320,192,37384,1,0,0:0:0:30:hihat.wav
64,192,37384,1,8,0:0:0:0:
448,192,37543,1,0,0:0:0:0:
192,192,37543,1,2,0:0:0:0:
192,192,37862,1,0,0:0:0:0:
320,192,37862,1,2,0:0:0:0:
64,192,38182,1,0,0:0:0:0:
192,192,38182,1,2,0:0:0:0:
192,192,38501,1,0,0:0:0:30:hihat.wav
448,192,38501,1,2,0:0:0:0:
192,192,38660,1,0,0:0:0:30:hihat.wav
448,192,38660,1,8,0:0:0:0:
64,192,38820,1,0,0:0:0:0:
320,192,38820,1,2,0:0:0:0:
320,192,39139,1,0,0:0:0:0:
192,192,39139,1,2,0:0:0:0:
320,192,39458,1,2,0:0:0:0:
448,192,39458,1,0,0:0:0:0:
320,192,39777,1,0,0:0:0:30:hihat.wav
192,192,39777,1,2,0:0:0:0:
192,192,39937,1,8,0:0:0:0:
320,192,39937,1,0,0:0:0:30:hihat.wav
64,192,40097,1,0,0:0:0:0:
448,192,40097,1,2,0:0:0:0:
192,192,40416,1,2,0:0:0:0:
64,192,40416,1,0,0:0:0:0:
448,192,40735,1,0,0:0:0:0:
320,192,40735,1,2,0:0:0:0:
448,192,41054,1,2,0:0:0:0:
64,192,41054,1,0,0:0:0:30:hihat.wav
64,192,41214,1,0,0:0:0:30:hihat.wav
448,192,41214,1,8,0:0:0:0:
320,192,41373,1,2,0:0:0:0:
192,192,41373,1,0,0:0:0:0:
192,192,41692,1,2,0:0:0:0:
64,192,41692,1,0,0:0:0:0:
448,192,42011,1,0,0:0:0:0:
320,192,42011,1,2,0:0:0:0:
192,192,42171,1,8,0:0:0:0:
64,192,42331,1,2,0:0:0:0:
448,192,42331,1,4,0:0:0:0:
320,192,42331,1,0,0:0:0:0:
192,192,42650,1,0,0:0:0:0:
64,192,42969,1,0,0:0:0:0:
448,192,42969,1,0,0:0:0:0:
320,192,43288,1,0,0:0:0:0:
192,192,43607,1,0,0:0:0:0:
448,192,43607,1,0,0:0:0:0:
64,192,43926,1,0,0:0:0:30:hihat.wav
192,192,44245,1,0,0:0:0:0:
320,192,44245,1,4,0:0:0:0:
448,192,44565,1,0,0:0:0:0:
192,192,44844,1,0,0:0:0:0:
64,192,44884,1,0,0:0:0:0:
320,192,44884,1,0,0:0:0:0:
192,192,45522,1,0,0:0:0:30:hihat.wav
448,192,45522,1,0,0:0:0:0:
320,192,46160,1,0,0:0:0:30:hihat.wav
64,192,46160,1,0,0:0:0:0:
448,192,46480,1,0,0:0:0:30:hihat.wav
64,192,46639,1,0,0:0:0:30:hihat.wav
192,192,46719,1,0,0:0:0:30:hihat.wav
320,192,46799,1,0,0:0:0:30:hihat.wav
448,192,46958,1,0,0:0:0:30:hihat.wav
320,192,47038,1,0,0:0:0:30:hihat.wav
64,192,47118,1,8,0:0:0:0:
192,192,47118,1,0,0:0:0:30:hihat.wav
192,192,47277,1,8,0:0:0:0:
64,192,47277,1,0,0:0:0:30:hihat.wav
448,192,47437,1,0,0:0:0:0:
320,192,47437,1,2,0:0:0:0:
448,192,47597,1,0,0:0:0:0:
320,192,47597,1,2,0:0:0:0:
192,192,47756,1,2,0:0:0:0:
64,192,47756,1,8,0:0:0:0:
320,192,48075,1,2,0:0:0:0:
192,192,48235,1,2,0:0:0:0:
448,192,48394,1,8,0:0:0:0:
64,192,48394,1,2,0:0:0:0:
192,192,48714,1,0,0:0:0:0:
64,192,48714,1,2,0:0:0:0:
64,192,48873,1,2,0:0:0:0:
192,192,48873,1,0,0:0:0:0:
320,192,49033,1,2,0:0:0:0:
448,192,49033,1,8,0:0:0:0:
64,192,49352,1,2,0:0:0:0:
448,192,49511,1,2,0:0:0:0:
320,192,49671,1,8,0:0:0:0:
192,192,49671,1,2,0:0:0:0:
448,192,49990,1,0,0:0:0:0:
64,192,49990,1,2,0:0:0:0:
448,192,50150,1,0,0:0:0:0:
64,192,50150,1,2,0:0:0:0:
192,192,50309,1,8,0:0:0:0:
320,192,50309,1,2,0:0:0:0:
192,192,50628,1,2,0:0:0:0:
320,192,50788,1,2,0:0:0:0:
64,192,50948,1,2,0:0:0:0:
448,192,50948,1,8,0:0:0:0:
320,192,51267,1,0,0:0:0:0:
192,192,51267,1,2,0:0:0:0:
320,192,51426,1,0,0:0:0:0:
192,192,51426,1,2,0:0:0:0:
448,192,51586,1,8,0:0:0:0:
64,192,51586,1,2,0:0:0:0:
320,192,51905,1,2,0:0:0:0:
192,192,52065,1,2,0:0:0:0:
320,192,52224,1,8,0:0:0:0:
64,192,52224,1,0,0:0:0:0:
448,192,52224,1,2,0:0:0:0:
192,192,52543,1,8,0:0:0:0:
64,192,52543,1,4,0:0:0:0:
448,192,52543,1,2,0:0:0:0:
192,192,52862,1,2,0:0:0:0:
320,192,53022,1,8,0:0:0:0:
64,192,53022,1,2,0:0:0:0:
448,192,53022,1,4,0:0:0:0:
448,192,53341,1,2,0:0:0:0:
320,192,53501,1,2,0:0:0:0:
64,192,53501,1,4,0:0:0:0:
192,192,53501,1,8,0:0:0:0:
64,192,53820,1,2,0:0:0:0:
448,192,53980,1,4,0:0:0:0:
320,192,53980,1,8,0:0:0:0:
192,192,53980,1,2,0:0:0:0:
320,192,54299,1,2,0:0:0:0:
448,192,54458,1,2,0:0:0:0:
192,192,54458,1,8,0:0:0:0:
64,192,54458,1,4,0:0:0:0:
192,192,54618,1,2,0:0:0:0:
320,192,54618,1,8,0:0:0:0:
192,192,54777,1,2,0:0:0:0:
320,192,54777,1,8,0:0:0:0:
64,192,54937,1,2,0:0:0:0:
192,192,55097,1,2,0:0:0:0:
320,192,55097,1,8,0:0:0:0:
448,192,55097,1,4,0:0:0:0:
64,192,55416,1,0,0:0:0:0:
192,192,55416,1,2,0:0:0:0:
320,192,55575,1,2,0:0:0:0:
448,192,55575,1,0,0:0:0:0:
192,192,55735,1,2,0:0:0:0:
64,192,55735,1,0,0:0:0:0:
448,192,55894,1,0,0:0:0:0:
320,192,55894,1,2,0:0:0:0:
320,192,56054,1,8,0:0:0:0:
64,192,56054,1,2,0:0:0:0:
192,192,56214,1,8,0:0:0:0:
448,192,56214,1,2,0:0:0:0:
320,192,56373,1,2,0:0:0:0:
448,192,56373,1,4,0:0:0:0:
64,192,56373,1,8,0:0:0:0:
64,192,57011,1,0,0:0:0:0:
192,192,57091,1,0,0:0:0:0:
320,192,57171,1,0,0:0:0:0:
448,192,57251,1,0,0:0:0:0:
320,192,57331,1,0,0:0:0:0:
192,192,57410,1,0,0:0:0:0:
64,192,57490,1,0,0:0:0:0:
192,192,57570,1,0,0:0:0:0:
320,192,57650,1,2,0:0:0:0:
448,192,57650,1,4,0:0:0:0:
64,192,57969,1,2,0:0:0:0:
448,192,57969,1,8,0:0:0:0:
192,192,58288,1,2,0:0:0:0:
192,192,58448,1,2,0:0:0:0:
320,192,58607,1,2,0:0:0:0:
64,192,58607,1,8,0:0:0:0:
448,192,58926,1,2,0:0:0:0:
192,192,59245,1,2,0:0:0:0:
320,192,59245,1,8,0:0:0:0:
64,192,59565,1,2,0:0:0:0:
64,192,59724,1,2,0:0:0:0:
448,192,59884,1,8,0:0:0:0:
192,192,59884,1,2,0:0:0:0:
64,192,60203,1,2,0:0:0:0:
448,192,60203,128,0,60841:0:0:0:0:
192,192,60522,1,2,0:0:0:0:
320,192,60522,1,8,0:0:0:0:
64,192,60841,128,0,61480:0:0:0:0:
320,192,60841,1,2,0:0:0:0:
320,192,61001,1,2,0:0:0:0:
192,192,61160,1,2,0:0:0:0:
448,192,61160,1,8,0:0:0:0:
320,192,61320,1,2,0:0:0:0:
192,192,61480,128,0,61799:0:0:0:0:
448,192,61639,1,2,0:0:0:0:
320,192,61799,128,2,62118:0:0:0:0:
64,192,61799,1,8,0:0:0:0:
448,192,62118,128,0,62437:0:0:0:0:
192,192,62118,1,2,0:0:0:0:
192,192,62277,1,2,0:0:0:0:
64,192,62437,1,8,0:0:0:0:
320,192,62437,1,2,0:0:0:0:
192,192,62597,1,2,0:0:0:0:
320,192,62676,1,2,0:0:0:0:
64,192,62756,1,0,0:0:0:0:
192,192,62756,1,2,0:0:0:0:
448,192,62756,1,4,0:0:0:0:
192,192,63075,1,8,0:0:0:0:
320,192,63075,1,2,0:0:0:0:
448,192,63394,1,2,0:0:0:0:
448,192,63554,1,2,0:0:0:0:
64,192,63714,1,8,0:0:0:0:
192,192,63714,1,2,0:0:0:0:
320,192,64033,1,2,0:0:0:0:
64,192,64352,1,8,0:0:0:0:
448,192,64352,1,2,0:0:0:0:
192,192,64671,1,2,0:0:0:0:
192,192,64831,1,2,0:0:0:0:
320,192,64990,1,8,0:0:0:0:
448,192,64990,1,2,0:0:0:0:
64,192,65150,1,2,0:0:0:0:
192,192,65309,1,8,0:0:0:0:
320,192,65309,1,2,0:0:0:0:
448,192,65628,1,8,0:0:0:0:
64,192,65628,128,0,65948:0:0:0:0:
192,192,65788,1,2,0:0:0:0:
320,192,65948,1,2,0:0:0:0:
192,192,66107,1,2,0:0:0:0:
320,192,66267,1,8,0:0:0:0:
448,192,66267,128,0,66586:0:0:0:0:
64,192,66426,1,2,0:0:0:0:
192,192,66506,1,2,0:0:0:0:
320,192,66586,1,2,0:0:0:0:
192,192,66905,128,0,67224:0:0:0:0:
64,192,66905,1,2,0:0:0:0:
448,192,67065,1,2,0:0:0:0:
320,192,67224,1,2,0:0:0:0:
64,192,67384,1,2,0:0:0:0:
192,192,67543,1,2,0:0:0:0:
448,192,67543,1,8,0:0:0:0:
320,192,67703,1,2,0:0:0:0:
192,192,67783,1,2,0:0:0:0:
64,192,67862,1,4,0:0:0:0:
448,192,67862,1,2,0:0:0:0:
320,192,67862,1,0,0:0:0:0:
64,192,68182,1,2,0:0:0:0:
192,192,68182,1,8,0:0:0:0:
448,192,68341,1,0,0:0:0:0:
320,192,68501,1,0,0:0:0:0:
192,192,68501,1,2,0:0:0:0:
64,192,68660,1,2,0:0:0:0:
192,192,68820,1,2,0:0:0:0:
448,192,68820,1,8,0:0:0:0:
64,192,69139,1,2,0:0:0:0:
320,192,69458,1,2,0:0:0:0:
192,192,69458,1,8,0:0:0:0:
448,192,69777,1,2,0:0:0:0:
448,192,69937,1,2,0:0:0:0:
320,192,70097,1,2,0:0:0:0:
64,192,70097,1,8,0:0:0:0:
192,192,70256,1,2,0:0:0:0:
320,192,70336,1,2,0:0:0:0:
448,192,70416,1,0,0:0:0:0:
192,192,70416,1,2,0:0:0:0:
64,192,70416,1,4,0:0:0:0:
192,192,70735,1,2,0:0:0:0:
64,192,70894,1,8,0:0:0:0:
448,192,70894,1,4,0:0:0:0:
320,192,70894,1,0,0:0:0:0:
320,192,71214,1,2,0:0:0:0:
192,192,71373,1,8,0:0:0:0:
448,192,71373,1,2,0:0:0:0:
320,192,71533,1,8,0:0:0:0:
64,192,71533,1,2,0:0:0:0:
448,192,71692,1,4,0:0:0:0:
192,192,71692,1,2,0:0:0:0:
64,192,71692,1,0,0:0:0:0:
64,192,72011,1,0,0:0:0:0:
448,192,72011,1,0,0:0:0:0:
448,192,72331,1,0,0:0:0:0:
320,192,72331,1,0,0:0:0:0:
64,192,72490,1,0,0:0:0:0:
192,192,72650,1,0,0:0:0:0:
320,192,72650,1,0,0:0:0:0:
448,192,72809,1,0,0:0:0:0:
192,192,72969,1,0,0:0:0:0:
64,192,72969,1,4,0:0:0:0:
320,192,72969,1,2,0:0:0:0:
192,192,73288,1,4,0:0:0:0:
320,192,73448,1,2,0:0:0:0:
448,192,73607,1,8,0:0:0:0:
192,192,73607,1,2,0:0:0:0:
64,192,73767,1,0,0:0:0:0:
320,192,73926,1,2,0:0:0:0:
448,192,74086,1,8,0:0:0:0:
64,192,74086,1,2,0:0:0:0:
192,192,74245,1,2,0:0:0:0:
448,192,74565,1,2,0:0:0:0:
64,192,74884,1,8,0:0:0:0:
320,192,74884,1,2,0:0:0:0:
192,192,75203,1,2,0:0:0:0:
320,192,75362,1,8,0:0:0:0:
448,192,75362,1,2,0:0:0:0:
64,192,75522,1,4,0:0:0:0:
192,192,75522,1,2,0:0:0:0:
448,192,75522,1,0,0:0:0:0:
320,192,75841,1,2,0:0:0:0:
192,192,76001,1,2,0:0:0:0:
448,192,76160,1,8,0:0:0:0:
64,192,76160,128,2,76799:0:0:0:0:
192,192,76480,1,2,0:0:0:0:
448,192,76639,1,8,0:0:0:0:
320,192,76799,1,2,0:0:0:0:
192,192,76799,128,0,77437:0:0:0:0:
448,192,77118,1,2,0:0:0:0:
448,192,77277,1,2,0:0:0:0:
64,192,77437,1,8,0:0:0:0:
320,192,77437,128,2,78075:0:0:0:0:
192,192,77756,1,2,0:0:0:0:
64,192,77916,1,8,0:0:0:0:
192,192,78075,1,2,0:0:0:0:
448,192,78075,1,4,0:0:0:0:
64,192,78394,1,8,0:0:0:0:
320,192,78394,1,2,0:0:0:0:
448,192,78714,1,2,0:0:0:0:
192,192,78714,1,8,0:0:0:0:
448,192,79033,1,2,0:0:0:0:
64,192,79033,1,8,0:0:0:0:
320,192,79352,1,8,0:0:0:0:
192,192,79352,1,2,0:0:0:0:
64,192,79671,1,2,0:0:0:0:
192,192,79671,1,8,0:0:0:0:
320,192,79990,1,8,0:0:0:0:
448,192,79990,1,2,0:0:0:0:
448,192,80309,1,2,0:0:0:0:
192,192,80309,1,8,0:0:0:0:
64,192,80309,128,4,80628:0:0:0:0:
320,192,80628,1,0,0:0:0:0:
448,192,80628,1,0,0:0:0:0:
64,192,81999,1,0,0:0:0:0:
192,192,81999,1,0,0:0:0:0:
448,192,83436,1,0,0:0:0:0:
64,192,83795,1,0,0:0:0:0:
192,192,84154,1,0,0:0:0:0:
320,192,84513,1,0,0:0:0:0:
448,192,84873,1,0,0:0:0:0:
64,192,85232,1,0,0:0:0:0:
320,192,85591,1,0,0:0:0:0:
192,192,85951,1,0,0:0:0:0:
448,192,86305,1,0,0:0:0:0:
320,192,86338,128,0,88080:0:0:0:0:
192,192,86338,128,0,88080:0:0:0:0:
