osu file format v5

[General]
AudioFilename: SOYBEAN SONGS BY KANNAGI.mp3
AudioLeadIn: 0
PreviewTime: -1
Countdown: 1
SampleSet: Normal
StackLeniency: 0.7
Mode: 0
LetterboxInBreaks: 1

[Metadata]
Title:SOYBEAN SONGS - NICO NICO INSANE VERSION
Artist:Kannagi
Creator:wslj14 R2
Version:Insane
Source:Kannagi-SOYBEAN SONGS NICO INSANE
Tags:second BEATMAPS

[Difficulty]
HPDrainRate:10
CircleSize:7
OverallDifficulty:10
SliderMultiplier:1.4
SliderTickRate:1

[Events]
//Background and Video events
0,0,"6048c48ecc4fcecef01f36b7.jpg"
//Break Periods
//Storyboard Layer 0 (Background)
//Storyboard Layer 1 (Failing)
//Storyboard Layer 2 (Passing)
//Storyboard Layer 3 (Foreground)
//Storyboard Sound Samples
//Background Colour Transformations
3,100,163,162,255

[TimingPoints]
0,333.333333333333,4,1,0,100,1
0,-100,4,1,0,100,0

[HitObjects]
160,96,11142,1,0
224,160,11571,1,0
160,160,12000,1,0
256,224,12428,1,0
320,128,12857,1,0
224,160,13285,1,0
128,96,13714,1,0
128,160,14142,1,0
192,128,16285,1,0
128,192,16714,1,0
160,160,17142,1,0
64,224,17571,1,0
192,192,18000,1,0
224,64,18428,1,0
192,160,18857,1,0
128,160,19285,1,0
224,160,19714,1,0
288,160,20142,1,0
224,192,20571,1,0
160,128,21000,1,0
256,128,21428,1,0
320,192,21857,1,0
224,224,22285,1,0
128,224,22714,1,0
96,128,23142,1,0
160,128,23571,1,0
224,224,24000,1,0
128,288,24428,1,0
96,192,24857,1,0
224,160,25285,1,0
320,192,25714,1,0
288,256,26142,1,0
160,160,26571,1,0
256,96,27000,1,0
288,128,27428,1,0
192,224,27857,1,0
160,256,28285,1,0
256,288,30000,1,0
224,192,30428,1,0
160,96,30857,1,0
288,128,31285,1,0
192,160,31714,1,0
128,192,32142,1,0
224,192,32571,1,0
256,128,33000,1,0
160,96,33428,1,0
96,160,33857,1,0
192,224,34285,1,0
320,192,34714,1,0
288,128,35142,1,0
160,128,35571,1,0
128,224,36000,1,0
224,224,36428,1,0
352,192,36857,1,0
352,96,37285,1,0
288,96,37714,1,0
256,128,38142,1,0
128,224,38571,1,0
32,128,39000,1,0
128,128,39428,1,0
128,192,39857,1,0
224,224,40285,1,0
320,128,40714,1,0
192,128,41142,1,0
128,160,41571,1,0
160,320,42000,1,0
192,192,44142,2,0,B|352:256|320:128|448:128|448:128|-32:256,3,700
256,192,51857,12,0,54857
192,160,55285,5,0
32,128,56142,1,0
416,224,57428,1,6
96,160,59571,5,6
192,192,60000,1,6
224,96,60428,1,6
160,128,60857,1,6
128,160,61285,1,6
288,160,61714,1,6
160,160,62571,1,6
288,128,63000,1,6
224,224,63428,1,6
128,160,63857,1,6
128,256,64285,1,6
224,224,64714,1,6
256,96,65142,1,6
160,160,65571,1,6
96,224,66000,1,6
192,192,66428,1,6
352,224,66857,1,6
256,96,67285,1,6
128,160,67714,1,6
96,288,68142,1,6
192,320,68571,1,6
256,224,69000,1,6
192,128,69428,1,6
96,192,69857,1,6
96,288,70285,1,6
160,288,70714,1,6
192,256,71142,1,6
128,160,71571,1,6
288,96,72000,1,6
256,256,72428,1,6
160,192,72857,1,6
96,224,73285,1,6
128,128,73714,1,6
256,128,74142,1,6
352,224,74571,1,6
224,256,75000,1,6
128,192,75428,1,6
64,128,75857,1,6
128,160,76285,1,6
192,160,76714,1,6
160,256,77142,1,6
128,320,77571,1,6
192,256,78000,1,6
256,224,78428,1,6
192,128,78857,1,6
128,224,79285,1,6
160,160,79714,1,6
288,192,80142,1,6
352,288,80571,1,6
224,224,81000,1,6
160,96,81428,1,6
224,96,81857,1,6
128,192,82285,1,6
192,288,82714,1,6
256,224,83142,1,6
256,160,83571,1,6
128,160,84000,1,6
96,192,84428,1,6
192,192,84857,1,6
288,224,85285,1,6
320,160,85714,1,6
256,128,86142,1,6
192,128,86571,1,6
160,224,87000,1,6
256,224,87428,1,6
320,160,87857,1,6
256,96,88285,1,6
128,160,88714,1,6
64,224,89142,1,6
160,224,89571,1,6
288,256,90000,1,6
224,160,90428,1,6
160,96,90857,1,6
96,128,91285,1,6
192,192,91714,1,6
320,128,92142,1,6
192,128,92571,1,6
64,224,93000,1,6
96,96,93428,1,6
192,96,93857,1,6
256,128,94285,1,6
192,192,94714,1,6
128,224,95142,1,6
224,256,95571,1,6
352,224,96000,1,6
352,128,96428,1,6
288,128,96857,1,6
160,160,97285,1,6
64,256,97714,1,6
192,288,98142,1,6
128,192,98571,1,6
160,64,99000,1,6
256,96,99428,1,6
320,128,99857,1,6
352,192,100285,1,6
288,192,100714,1,6
224,160,101142,1,6
128,224,101571,1,6
288,192,102000,1,6
64,64,102857,1,6
384,256,104142,2,6,B|0:256,2,280
256,192,106285,12,6,107571
