osu file format v14

[General]
AudioFilename: Op-Black Clover.mp3
AudioLeadIn: 0
PreviewTime: 50710
Countdown: 0
SampleSet: Normal
StackLeniency: 0.7
Mode: 0
LetterboxInBreaks: 1
WidescreenStoryboard: 1

[Editor]
DistanceSpacing: 0.5
BeatDivisor: 4
GridSize: 8
TimelineZoom: 2

[Metadata]
Title:Haruka Mirai
TitleUnicode:ハルカミライ
Artist:Kankaku Piero
ArtistUnicode:感覚ピエロ
Creator:ChuuritsuTv
Version:Normal
Source:ブラッククローバー
Tags:black clover asta yuno silva noelle elcheer hytex
BeatmapID:1473996
BeatmapSetID:688180

[Difficulty]
HPDrainRate:2.6
CircleSize:3.2
OverallDifficulty:2.6
ApproachRate:4
SliderMultiplier:0.899999999999999
SliderTickRate:1

[Events]
//Background and Video events
0,0,"BG.jpg",0,0
Video,0,"Op-Black Clover (1).avi"
//Break Periods
2,11819,12937
2,83028,84145
//Storyboard Layer 0 (Background)
//Storyboard Layer 1 (Fail)
//Storyboard Layer 2 (Pass)
//Storyboard Layer 3 (Foreground)
//Storyboard Sound Samples

[TimingPoints]
1400,329.67032967033,4,1,0,50,1,0
51509,-100,4,1,0,50,0,1
72608,-100,4,1,0,50,0,0
75246,-100,4,1,0,50,0,1
83158,-100,4,1,0,50,0,0
89586,-100,4,1,0,5,0,0

[Colours]
Combo1 : 63,133,68
Combo2 : 44,53,101
Combo3 : 216,216,216
Combo4 : 179,83,107

[HitObjects]
442,210,1070,5,0,0:0:0:0:
373,157,1400,2,0,B|398:106|398:106|434:100|434:100|460:45,2,135,8|0|0,0:0|0:0|0:0,0:0:0:0:
311,228,2718,2,0,B|350:245|350:245|372:288|372:288|433:296,2,135
223,198,4037,6,0,B|197:252|250:288|219:338,2,135,8|0|8,0:0|0:0|0:0,0:0:0:0:
286,129,5356,2,0,P|274:76|339:26,2,135
368,182,6674,6,0,L|505:182,2,135,8|0|0,0:0|0:0|0:0,0:0:0:0:
313,266,7993,2,0,L|459:266,2,135
237,212,9312,6,0,B|211:250|211:250|233:307|188:340,2,135,8|0|0,0:0|0:0|0:0,0:0:0:0:
276,124,10630,2,0,B|177:126|177:126|139:227|43:202,1,270
83,100,14257,5,4,0:0:0:0:
83,100,14586,2,0,B|157:98|157:98|200:147|200:147|250:147,1,180,8|0,0:0|0:0,0:0:0:0:
313,211,15575,1,0,0:0:0:0:
403,167,15905,2,0,P|473:181|419:240,1,180
386,326,16894,1,0,0:0:0:0:
293,300,17224,6,0,B|312:209|312:209|247:237|220:224,1,180,8|0,0:0|0:0,0:0:0:0:
176,144,18213,1,0,0:0:0:0:
87,207,18542,2,0,B|55:229|37:274|37:274|37:177,1,180
42,80,19531,1,0,0:0:0:0:
127,27,19861,6,0,L|312:27,1,180,8|0,0:0|0:0,0:0:0:0:
368,110,20850,1,0,0:0:0:0:
452,168,21180,2,0,P|417:247|465:319,1,180
508,240,22169,1,0,0:0:0:0:
508,240,22498,6,0,L|326:262,1,180,8|0,0:0|0:0,0:0:0:0:
270,340,23487,1,0,0:0:0:0:
176,305,23817,2,0,B|145:248|145:248|191:211|191:211|154:133|212:77,1,270
301,35,25136,5,8,0:0:0:0:
472,39,25795,1,0,0:0:0:0:
466,183,26454,2,0,B|422:181|404:137|404:137|323:194,1,180
283,284,27443,1,0,0:0:0:0:
195,239,27773,1,8,0:0:0:0:
55,282,28432,2,0,P|38:233|56:197,1,89.9999999999999
23,99,29092,2,0,L|137:100,1,89.9999999999999
216,99,29751,2,0,L|253:136,1,45
231,228,30246,5,0,0:0:0:0:
276,312,30575,2,0,B|306:307|306:307|351:249,1,89.9999999999999
387,249,31070,1,0,0:0:0:0:
512,192,31564,1,0,0:0:0:0:
451,114,31894,2,0,P|448:66|421:27,1,89.9999999999999
377,30,32389,1,0,0:0:0:0:
304,94,32718,1,0,0:0:0:0:
221,39,33048,5,8,0:0:0:0:
80,101,33707,1,0,0:0:0:0:
178,233,34367,2,0,B|213:210|223:158|223:158|314:227,1,180
380,177,35356,1,0,0:0:0:0:
456,232,35685,1,8,0:0:0:0:
388,345,36345,6,0,P|331:346|289:322,1,89.9999999999999
210,365,37004,2,0,L|176:275,1,89.9999999999999
242,204,37663,2,0,L|233:152,1,45
308,101,38158,5,0,0:0:0:0:
404,141,38487,2,0,L|425:209,2,45
433,94,38982,1,0,0:0:0:0:
512,207,39476,5,0,0:0:0:0:
449,282,39806,2,0,L|466:330,2,45
397,269,40301,1,0,0:0:0:0:
323,345,40630,6,0,L|294:287,1,45
249,299,40960,2,0,L|215:261,1,45,8|0,0:0|0:0,0:0:0:0:
126,300,41454,1,0,0:0:0:0:
81,330,41619,2,0,P|45:329|26:312,1,45
59,225,42114,5,0,0:0:0:0:
103,191,42279,2,0,L|134:150,1,45,8|0,0:0|0:0,0:0:0:0:
183,146,42608,2,0,L|231:136,1,45
261,43,43103,5,0,0:0:0:0:
314,31,43268,2,0,L|358:52,1,45
408,35,43597,2,0,L|428:80,1,45,8|0,0:0|0:0,0:0:0:0:
496,149,44092,5,0,0:0:0:0:
511,197,44257,2,0,L|476:226,1,45
386,186,44751,1,0,0:0:0:0:
333,180,44916,2,0,L|301:218,1,45,8|0,0:0|0:0,0:0:0:0:
305,266,45246,2,0,P|276:277|250:278,1,45
193,350,45740,1,0,0:0:0:0:
135,261,46070,5,0,0:0:0:0:
86,226,46235,2,0,L|49:196,1,45,8|0,0:0|0:0,0:0:0:0:
3,195,46564,2,0,L|3:140,1,45
87,94,47059,1,0,0:0:0:0:
137,65,47224,2,0,L|195:67,1,45
263,120,47718,5,0,0:0:0:0:
285,165,47883,2,0,L|327:188,1,45
377,170,48213,2,0,L|386:221,3,45
384,270,48872,6,0,L|462:246,2,67.4999999999999
337,300,49531,2,0,L|401:354,2,67.4999999999999
287,275,50191,2,0,L|257:346,2,67.4999999999999
255,231,50850,6,0,B|191:244|191:244|154:197|154:197|94:197,1,180,0|8,0:0|0:0,0:0:0:0:
49,115,51839,2,0,P|113:73|205:113,1,180
294,124,52828,1,8,0:0:0:0:
401,42,53487,6,0,B|389:66|389:66|408:95|408:95|405:131,1,89.9999999999999
394,165,53982,1,0,0:0:0:0:
415,212,54147,1,8,0:0:0:0:
476,289,54476,1,0,0:0:0:0:
402,349,54806,1,0,0:0:0:0:
313,317,55136,2,0,B|242:293|242:293|187:318|187:318|146:300,1,180
57,256,56125,6,0,L|59:199,1,45
24,173,56454,2,0,P|6:121|23:90,1,89.9999999999999,0|8,0:0|0:0,0:0:0:0:
168,25,57443,1,0,0:0:0:0:
263,45,57773,2,0,B|241:99|241:99|278:99,1,89.9999999999999,0|8,0:0|0:0,0:0:0:0:
377,90,58432,5,0,0:0:0:0:
457,149,58762,1,0,0:0:0:0:
380,215,59092,1,0,0:0:0:0:
256,192,59257,12,0,60740,0:0:0:0:
197,291,61400,6,0,B|169:248|125:240|125:240|165:153,1,180,0|8,0:0|0:0,0:0:0:0:
267,159,62389,2,0,P|242:199|330:203,1,180
365,121,63378,1,0,0:0:0:0:
484,186,63872,5,0,0:0:0:0:
445,226,64037,2,0,B|410:256|410:256|428:286,1,67.4999999999999
474,337,64531,1,0,0:0:0:0:
433,379,64696,2,0,L|375:375,1,45
362,327,65026,2,0,L|307:338,1,45
275,307,65356,2,0,L|258:354,2,45
103,266,66509,5,0,0:0:0:0:
52,284,66674,2,0,L|43:336,2,45
15,242,67169,1,0,0:0:0:0:
88,67,67993,2,0,B|129:83|129:83|190:73,1,89.9999999999999
223,64,68487,1,0,0:0:0:0:
364,90,68982,5,0,0:0:0:0:
326,179,69312,1,0,0:0:0:0:
426,172,69641,1,0,0:0:0:0:
256,192,69806,12,0,72608,0:0:0:0:
255,189,73927,5,0,0:0:0:0:
169,66,75246,2,0,L|78:66,1,89.9999999999999,8|0,0:0|0:0,0:0:0:0:
38,142,75905,2,0,L|134:142,1,89.9999999999999
175,219,76564,2,0,L|74:219,1,89.9999999999999
31,296,77224,2,0,L|141:296,1,89.9999999999999
179,298,77718,1,8,0:0:0:0:
263,301,78048,5,0,0:0:0:0:
315,285,78213,2,0,L|342:232,1,45
385,223,78542,2,0,L|358:177,1,45
379,133,78872,2,0,L|333:109,1,45
293,85,79202,1,8,0:0:0:0:
219,149,79531,1,0,0:0:0:0:
164,72,79861,1,0,0:0:0:0:
43,175,80685,5,0,0:0:0:0:
30,224,80850,2,0,L|62:258,1,45
61,307,81180,2,0,L|123:300,1,45
140,347,81509,2,0,L|176:315,1,45
206,295,81839,1,8,0:0:0:0:
306,342,82169,1,0,0:0:0:0:
359,231,82498,1,0,0:0:0:0:
255,187,82828,1,0,0:0:0:0:
255,187,85465,5,0,0:0:0:0:
255,187,85630,1,0,0:0:0:0:
256,192,85795,12,0,89751,0:0:0:0:
