osu file format v14

[General]
AudioFilename: Op-Black Clover.mp3
AudioLeadIn: 0
PreviewTime: 50710
Countdown: 0
SampleSet: Normal
StackLeniency: 0.7
Mode: 0
LetterboxInBreaks: 1
WidescreenStoryboard: 1

[Editor]
DistanceSpacing: 0.5
BeatDivisor: 4
GridSize: 8
TimelineZoom: 2

[Metadata]
Title:Haruka Mirai
TitleUnicode:ハルカミライ
Artist:Kankaku Piero
ArtistUnicode:感覚ピエロ
Creator:ChuuritsuTv
Version:Never give up
Source:ブラッククローバー
Tags:black clover asta yuno silva noelle elcheer hytex
BeatmapID:1456413
BeatmapSetID:688180

[Difficulty]
HPDrainRate:5.2
CircleSize:4
OverallDifficulty:8.2
ApproachRate:9.4
SliderMultiplier:1.7
SliderTickRate:1

[Events]
//Background and Video events
0,0,"BG.jpg",0,0
Video,0,"Op-Black Clover (1).avi"
//Break Periods
//Storyboard Layer 0 (Background)
//Storyboard Layer 1 (Fail)
//Storyboard Layer 2 (Pass)
//Storyboard Layer 3 (Foreground)
//Storyboard Sound Samples

[TimingPoints]
1400,329.67032967033,4,1,0,50,1,0
51509,-100,4,1,0,50,0,1
72608,-100,4,1,0,50,0,0
75246,-100,4,1,0,50,0,1
83158,-100,4,1,0,50,0,0
89586,-100,4,1,0,5,0,0

[Colours]
Combo1 : 63,133,68
Combo2 : 44,53,101
Combo3 : 216,216,216
Combo4 : 179,83,107

[HitObjects]
66,43,1400,6,0,P|43:91|48:125,1,85,8|0,0:0|0:0,0:0:0:0:
207,223,1729,2,0,P|230:175|225:141,1,85,8|0,0:0|0:0,0:0:0:0:
45,197,2059,1,2,0:0:0:0:
119,334,2224,2,0,P|162:345|213:328,1,85
296,205,2553,1,2,0:0:0:0:
128,120,2718,2,0,P|119:170|134:212,1,85
265,281,3048,1,2,0:0:0:0:
362,114,3213,2,0,P|325:93|277:96,1,85
389,212,3542,5,12,0:0:0:0:
409,26,3707,1,0,0:0:0:0:
221,27,3872,1,8,0:0:0:0:
296,205,4037,6,0,P|331:224|379:218,1,85
477,97,4367,1,2,0:0:0:0:
439,287,4531,2,0,P|463:241|463:202,1,85
380,74,4861,1,2,0:0:0:0:
215,169,5026,2,0,P|210:220|226:257,1,85
344,348,5356,1,2,0:0:0:0:
166,319,5520,2,0,P|203:334|263:320,1,85
380,233,5850,5,12,0:0:0:0:
267,83,6015,1,0,0:0:0:0:
217,261,6180,1,8,0:0:0:0:
380,160,6345,1,0,0:0:0:0:
174,93,6509,1,8,0:0:0:0:
287,291,6674,6,0,P|304:253|302:199,1,85
258,56,7004,1,2,0:0:0:0:
112,172,7169,2,0,P|155:203|197:209,1,85
337,174,7498,1,2,0:0:0:0:
230,22,7663,2,0,P|199:60|196:98,1,85
279,218,7993,1,2,0:0:0:0:
433,102,8158,2,0,P|403:72|357:66,1,85
230,155,8487,1,2,0:0:0:0:
274,342,8652,6,0,P|331:341|366:317,1,85
416,178,8982,1,12,0:0:0:0:
200,225,9147,1,0,0:0:0:0:
396,255,9312,6,0,P|445:250|478:228,1,85
505,80,9641,1,2,0:0:0:0:
320,24,9806,2,0,P|272:24|230:47,1,85
153,127,10136,1,2,0:0:0:0:
212,313,10301,2,0,P|255:294|282:254,1,85
296,102,10630,1,2,0:0:0:0:
90,0,10795,2,0,P|83:38|94:95,1,85
150,251,11125,5,0,0:0:0:0:
179,287,11207,1,0,0:0:0:0:
212,313,11289,1,0,0:0:0:0:
251,329,11372,1,0,0:0:0:0:
293,335,11454,1,0,0:0:0:0:
336,332,11537,1,0,0:0:0:0:
377,322,11619,1,0,0:0:0:0:
411,297,11701,1,0,0:0:0:0:
436,261,11784,1,0,0:0:0:0:
456,225,11867,1,0,0:0:0:0:
466,176,11949,5,0,0:0:0:0:
304,174,12114,1,0,0:0:0:0:
304,174,12279,1,0,0:0:0:0:
348,29,12443,1,0,0:0:0:0:
466,176,12608,5,0,0:0:0:0:
292,108,12773,1,0,0:0:0:0:
460,35,12938,1,0,0:0:0:0:
346,177,13103,1,0,0:0:0:0:
348,29,13268,5,0,0:0:0:0:
346,177,13432,1,0,0:0:0:0:
474,101,13597,1,0,0:0:0:0:
294,115,13762,1,0,0:0:0:0:
475,113,13927,1,0,0:0:0:0:
293,99,14092,1,0,0:0:0:0:
120,16,14257,6,0,P|129:61|121:100,1,85,4|0,0:0|0:0,0:0:0:0:
4,275,14586,6,0,P|-7:230|9:188,1,85,8|0,0:0|0:0,0:0:0:0:
52,46,14916,1,0,0:0:0:0:
225,124,15081,1,0,0:0:0:0:
72,234,15246,1,0,0:0:0:0:
250,299,15411,1,0,0:0:0:0:
293,99,15575,6,0,P|270:59|223:44,1,85,8|0,0:0|0:0,0:0:0:0:
182,199,15905,1,2,0:0:0:0:
148,6,16070,2,0,P|132:49|147:90,1,85
255,222,16400,1,0,0:0:0:0:
72,234,16564,1,0,0:0:0:0:
255,222,16729,1,0,0:0:0:0:
72,234,16894,6,0,P|113:246|154:237,1,85,4|0,0:0|0:0,0:0:0:0:
333,169,17224,6,0,P|345:220|332:259,1,85,8|0,0:0|0:0,0:0:0:0:
226,376,17553,1,0,0:0:0:0:
147,195,17718,1,0,0:0:0:0:
86,374,17883,1,0,0:0:0:0:
0,202,18048,1,0,0:0:0:0:
204,284,18213,6,0,P|235:264|255:216,1,85,8|0,0:0|0:0,0:0:0:0:
251,66,18542,1,2,0:0:0:0:
330,248,18707,2,0,P|344:202|323:158,1,85
191,101,19037,5,0,0:0:0:0:
376,68,19202,1,0,0:0:0:0:
191,101,19367,1,0,0:0:0:0:
376,68,19531,6,0,P|334:61|290:79,1,85,4|0,0:0|0:0,0:0:0:0:
114,144,19861,6,0,P|97:99|109:61,1,85,8|0,0:0|0:0,0:0:0:0:
256,23,20191,1,0,0:0:0:0:
360,176,20356,1,0,0:0:0:0:
191,101,20520,1,0,0:0:0:0:
271,276,20685,1,0,0:0:0:0:
443,195,20850,2,0,P|442:149|400:105,1,85
263,96,21180,1,2,0:0:0:0:
447,42,21345,2,0,P|397:40|360:61,1,85
232,167,21674,5,0,0:0:0:0:
418,109,21839,1,0,0:0:0:0:
232,167,22004,1,0,0:0:0:0:
418,109,22169,6,0,P|385:135|343:150,1,85,4|0,0:0|0:0,0:0:0:0:
159,204,22498,6,0,P|147:154|161:125,1,85,8|0,0:0|0:0,0:0:0:0:
295,31,22828,1,0,0:0:0:0:
293,235,22993,1,0,0:0:0:0:
195,39,23158,1,0,0:0:0:0:
392,199,23323,1,0,0:0:0:0:
392,199,23405,1,0,0:0:0:0:
392,199,23487,1,0,0:0:0:0:
392,199,23570,1,0,0:0:0:0:
392,199,23652,1,0,0:0:0:0:
161,145,23817,5,0,0:0:0:0:
416,76,23982,1,0,0:0:0:0:
172,250,24147,1,0,0:0:0:0:
172,250,24229,1,0,0:0:0:0:
172,250,24312,1,0,0:0:0:0:
172,250,24394,1,0,0:0:0:0:
172,250,24476,6,0,L|141:281,2,42.5
357,126,24806,1,0,0:0:0:0:
213,112,24971,1,0,0:0:0:0:
416,76,25136,6,0,P|435:122|424:165,1,85
361,214,25465,2,0,P|346:261|361:293,1,85
451,280,25795,2,0,B|464:331|416:364,2,85
360,291,26290,5,0,0:0:0:0:
275,250,26454,2,0,P|228:254|191:227,1,85,8|0,0:0|0:0,0:0:0:0:
98,251,26784,1,0,0:0:0:0:
135,162,26949,1,0,0:0:0:0:
118,70,27114,2,0,L|183:9,1,85
269,33,27443,2,0,P|260:80|278:116,1,85
365,109,27773,2,0,P|402:188|395:274,1,170,8|0,0:0|0:0,0:0:0:0:
314,254,28268,5,0,0:0:0:0:
252,314,28432,2,0,P|285:336|341:335,2,85
174,276,28927,1,0,0:0:0:0:
100,317,29092,2,0,P|61:277|55:245,1,85,8|0,0:0|0:0,0:0:0:0:
136,205,29421,1,0,0:0:0:0:
136,205,29586,2,0,P|197:198|227:208,2,85
285,342,30246,6,0,P|315:355|369:342,1,85
440,296,30575,1,0,0:0:0:0:
452,198,30740,1,0,0:0:0:0:
357,175,30905,1,0,0:0:0:0:
300,252,31070,2,0,L|205:252,1,85
134,178,31400,5,0,0:0:0:0:
179,85,31564,2,0,P|204:58|273:45,1,85
343,40,31894,1,0,0:0:0:0:
417,97,32059,1,0,0:0:0:0:
334,147,32224,1,0,0:0:0:0:
413,193,32389,2,0,L|437:278,1,85
437,280,32636,1,0,0:0:0:0:
438,286,32718,1,0,0:0:0:0:
251,242,33048,6,0,L|188:311,1,85,8|0,0:0|0:0,0:0:0:0:
143,230,33378,1,0,0:0:0:0:
68,271,33542,1,0,0:0:0:0:
37,184,33707,2,0,P|71:142|74:106,1,85
40,39,34037,1,0,0:0:0:0:
40,39,34202,1,0,0:0:0:0:
132,40,34367,6,0,L|219:40,1,85,8|0,0:0|0:0,0:0:0:0:
286,93,34696,1,0,0:0:0:0:
368,130,34861,2,0,P|399:90|405:51,2,85
303,186,35356,1,0,0:0:0:0:
336,272,35520,1,0,0:0:0:0:
437,268,35685,6,0,P|425:224|395:202,1,85,8|0,0:0|0:0,0:0:0:0:
369,130,36015,1,0,0:0:0:0:
424,60,36180,1,0,0:0:0:0:
321,35,36345,2,0,P|285:72|250:78,1,85
166,34,36674,1,0,0:0:0:0:
197,228,36839,5,0,0:0:0:0:
197,228,36921,1,0,0:0:0:0:
197,228,37004,1,8,0:0:0:0:
369,130,37169,1,0,0:0:0:0:
166,34,37334,2,0,P|152:74|159:117,1,85
317,236,37663,1,0,0:0:0:0:
243,15,37828,1,4,0:0:0:0:
498,47,38158,6,0,L|399:27,1,85
292,62,38487,1,0,0:0:0:0:
246,178,38652,2,0,P|206:201|157:202,1,85
21,139,38982,1,0,0:0:0:0:
102,0,39147,1,0,0:0:0:0:
187,129,39312,1,0,0:0:0:0:
28,32,39476,6,0,P|57:6|104:0,1,85
292,62,39806,1,0,0:0:0:0:
178,210,39971,1,0,0:0:0:0:
93,71,40136,1,0,0:0:0:0:
273,213,40301,2,0,B|277:262|232:288,1,85
47,217,40630,6,0,B|57:177|33:177|45:130,1,85
219,70,40960,1,4,0:0:0:0:
379,227,41125,1,0,0:0:0:0:
169,290,41290,1,0,0:0:0:0:
299,101,41454,5,0,0:0:0:0:
318,321,41619,1,0,0:0:0:0:
119,229,41784,1,0,0:0:0:0:
336,168,41949,5,0,0:0:0:0:
230,361,42114,1,0,0:0:0:0:
180,146,42279,1,0,0:0:0:0:
375,248,42443,1,0,0:0:0:0:
157,301,42608,2,0,P|113:310|64:287,1,85
29,80,42938,5,0,0:0:0:0:
247,43,43103,1,0,0:0:0:0:
119,229,43268,1,0,0:0:0:0:
86,197,43350,1,0,0:0:0:0:
76,148,43432,1,0,0:0:0:0:
97,102,43515,1,0,0:0:0:0:
134,74,43597,5,4,0:0:0:0:
356,98,43762,1,0,0:0:0:0:
205,265,43927,2,0,P|200:215|217:180,1,85
431,106,44257,1,0,0:0:0:0:
405,322,44421,1,0,0:0:0:0:
179,258,44586,6,0,P|188:212|216:181,1,85
444,185,44916,2,0,P|424:223|389:248,1,85
238,86,45246,1,0,0:0:0:0:
452,27,45410,2,0,P|493:54|512:93,1,85
419,290,45740,1,0,0:0:0:0:
223,198,45905,5,0,0:0:0:0:
182,175,45987,1,0,0:0:0:0:
138,153,46070,1,0,0:0:0:0:
94,131,46152,1,0,0:0:0:0:
53,111,46235,6,0,P|30:69|38:22,1,85
257,20,46564,1,0,0:0:0:0:
291,243,46729,2,0,P|256:274|206:280,1,85
161,66,47059,1,0,0:0:0:0:
370,117,47224,1,0,0:0:0:0:
288,324,47389,2,0,P|242:308|217:277,1,85
111,95,47718,5,0,0:0:0:0:
329,50,47883,2,0,P|293:87|252:96,1,85
49,31,48213,5,0,0:0:0:0:
28,77,48295,1,0,0:0:0:0:
16,125,48378,1,0,0:0:0:0:
20,179,48460,1,0,0:0:0:0:
33,236,48542,1,0,0:0:0:0:
58,288,48625,1,0,0:0:0:0:
91,335,48707,1,0,0:0:0:0:
138,365,48790,1,0,0:0:0:0:
192,375,48872,5,4,0:0:0:0:
390,43,49119,1,0,0:0:0:0:
28,0,49367,1,0,0:0:0:0:
224,296,49531,5,0,0:0:0:0:
46,89,49779,1,0,0:0:0:0:
305,37,50026,1,0,0:0:0:0:
198,216,50191,5,0,0:0:0:0:
250,96,50438,1,0,0:0:0:0:
122,110,50685,1,0,0:0:0:0:
316,228,50850,5,0,0:0:0:0:
366,219,50932,1,0,0:0:0:0:
406,183,51015,1,0,0:0:0:0:
422,131,51097,1,0,0:0:0:0:
413,76,51180,1,0,0:0:0:0:
377,37,51262,1,0,0:0:0:0:
321,29,51345,1,0,0:0:0:0:
274,49,51427,1,0,0:0:0:0:
251,96,51509,6,0,P|187:128|161:127,1,85,12|0,0:0|0:0,0:0:0:0:
0,54,51839,1,0,0:0:0:0:
187,44,52004,1,0,0:0:0:0:
117,219,52169,1,0,0:0:0:0:
92,32,52334,1,0,0:0:0:0:
117,219,52498,6,0,P|97:173|100:139,1,85,8|0,0:0|0:0,0:0:0:0:
254,25,52828,1,0,0:0:0:0:
396,144,52993,1,0,0:0:0:0:
176,159,53158,1,0,0:0:0:0:
313,296,53323,1,0,0:0:0:0:
176,159,53487,6,0,B|143:119|143:119|145:78|115:46,2,127.5
396,144,54147,2,0,P|463:155|442:235,2,170
217,257,54971,1,0,0:0:0:0:
270,34,55136,2,0,P|294:77|300:114,1,85
120,240,55465,5,0,0:0:0:0:
8,82,55630,1,0,0:0:0:0:
226,100,55795,1,0,0:0:0:0:
40,222,55960,1,0,0:0:0:0:
188,36,56125,6,0,P|229:25|272:35,1,85,8|0,0:0|0:0,0:0:0:0:
217,257,56454,2,0,P|200:213|210:175,1,85
428,198,56784,1,0,0:0:0:0:
226,100,56949,1,0,0:0:0:0:
441,114,57114,2,0,P|482:134|505:168,1,85,8|0,0:0|0:0,0:0:0:0:
379,361,57443,6,0,P|367:316|382:262,1,85
460,77,57773,1,0,0:0:0:0:
461,303,57938,1,0,0:0:0:0:
240,307,58103,1,0,0:0:0:0:
352,111,58268,1,0,0:0:0:0:
312,330,58432,6,0,P|283:368|250:384,1,85,8|0,0:0|0:0,0:0:0:0:
208,169,58762,2,0,P|265:171|290:185,1,85,8|0,0:0|0:0,0:0:0:0:
112,311,59092,1,0,0:0:0:0:
185,99,59257,2,0,P|229:91|277:95,1,85,8|0,0:0|0:0,0:0:0:0:
466,192,59586,1,0,0:0:0:0:
296,341,59751,6,0,P|300:294|325:263,1,85,8|0,0:0|0:0,0:0:0:0:
512,155,60081,1,0,0:0:0:0:
425,355,60246,1,0,0:0:0:0:
410,134,60410,2,0,P|453:163|467:206,1,85,8|0,0:0|0:0,0:0:0:0:
247,239,60740,1,0,0:0:0:0:
475,274,60905,1,0,0:0:0:0:
256,352,61070,6,4,P|232:386|212:358,1,85,12|4,0:0|0:0,0:0:0:0:
262,146,61400,1,0,0:0:0:0:
303,109,61482,1,0,0:0:0:0:
364,103,61564,1,0,0:0:0:0:
416,128,61647,1,0,0:0:0:0:
444,178,61729,1,0,0:0:0:0:
444,236,61812,1,0,0:0:0:0:
415,286,61894,1,0,0:0:0:0:
367,314,61976,1,0,0:0:0:0:
314,326,62059,6,0,P|295:277|307:233,1,85
489,116,62389,1,0,0:0:0:0:
288,21,62553,1,0,0:0:0:0:
371,221,62718,1,0,0:0:0:0:
260,22,62882,1,0,0:0:0:0:
393,217,63048,6,0,P|385:175|356:131,1,85,8|0,0:0|0:0,0:0:0:0:
180,17,63378,1,0,0:0:0:0:
87,224,63542,1,0,0:0:0:0:
306,197,63707,1,0,0:0:0:0:
100,95,63872,1,0,0:0:0:0:
194,295,64037,2,0,B|231:296|231:296|275:334|331:320,2,127.5,8|0|0,0:0|0:0|0:0,0:0:0:0:
24,160,64696,5,0,0:0:0:0:
226,21,64861,1,0,0:0:0:0:
4,92,65026,1,0,0:0:0:0:
242,93,65191,1,0,0:0:0:0:
28,23,65356,1,0,0:0:0:0:
221,163,65520,1,0,0:0:0:0:
189,380,65685,6,0,P|228:349|244:311,1,85,8|0,0:0|0:0,0:0:0:0:
165,94,66015,1,0,0:0:0:0:
150,311,66180,1,0,0:0:0:0:
339,195,66345,1,0,0:0:0:0:
117,159,66509,5,2,0:0:0:0:
117,159,66674,2,0,P|124:204|150:240,1,85,8|0,0:0|0:0,0:0:0:0:
368,266,67004,2,0,P|401:238|416:198,1,85,8|0,0:0|0:0,0:0:0:0:
329,0,67334,1,0,0:0:0:0:
189,177,67498,1,0,0:0:0:0:
401,125,67663,1,0,0:0:0:0:
217,9,67827,1,0,0:0:0:0:
362,187,67993,6,0,P|405:197|457:172,2,85,8|0|0,0:0|0:0|0:0,0:0:0:0:
166,78,68487,1,0,0:0:0:0:
386,44,68652,2,0,P|405:94|397:133,1,85,8|0,0:0|0:0,0:0:0:0:
260,303,68982,1,0,0:0:0:0:
317,92,69147,1,0,0:0:0:0:
336,321,69312,6,0,P|307:361|262:378,1,85,8|0,0:0|0:0,0:0:0:0:
46,370,69641,1,0,0:0:0:0:
260,303,69806,1,0,0:0:0:0:
400,118,69971,6,0,P|406:170|389:205,1,85,8|0,0:0|0:0,0:0:0:0:
275,375,70301,1,0,0:0:0:0:
326,157,70465,1,0,0:0:0:0:
182,3,70630,2,0,P|226:5|265:25,1,85,8|0,0:0|0:0,0:0:0:0:
393,198,70960,1,0,0:0:0:0:
207,78,71125,1,0,0:0:0:0:
73,259,71290,6,0,P|40:233|34:181,1,85,8|0,0:0|0:0,0:0:0:0:
36,146,71537,1,0,0:0:0:0:
51,102,71619,1,0,0:0:0:0:
95,76,71702,1,0,0:0:0:0:
144,79,71784,1,0,0:0:0:0:
183,111,71867,1,0,0:0:0:0:
196,163,71949,1,0,0:0:0:0:
217,209,72031,1,0,0:0:0:0:
261,233,72114,1,0,0:0:0:0:
309,240,72196,1,0,0:0:0:0:
357,233,72279,1,0,0:0:0:0:
393,198,72361,1,0,0:0:0:0:
415,154,72443,1,0,0:0:0:0:
413,103,72526,1,0,0:0:0:0:
388,56,72608,1,4,0:0:0:0:
95,76,73103,5,0,0:0:0:0:
95,76,73268,2,0,P|103:131|125:162,1,85
202,199,73597,1,0,0:0:0:0:
202,199,73762,2,0,P|167:234|119:247,2,85,0|4|0,0:0|0:0|0:0,0:0:0:0:
388,56,74257,5,0,0:0:0:0:
415,86,74339,1,0,0:0:0:0:
427,125,74421,1,0,0:0:0:0:
416,166,74504,1,0,0:0:0:0:
387,197,74586,1,0,0:0:0:0:
358,232,74669,1,0,0:0:0:0:
347,268,74751,2,0,P|354:290|369:304,1,42.5
412,326,74916,2,0,L|307:326,1,85
101,345,75246,6,0,P|87:300|101:257,1,85,12|0,0:0|0:0,0:0:0:0:
255,32,75575,1,8,0:0:0:0:
248,344,75740,1,0,0:0:0:0:
84,78,75905,1,8,0:0:0:0:
398,77,76070,1,0,0:0:0:0:
113,223,76235,1,8,0:0:0:0:
343,12,76400,1,0,0:0:0:0:
323,312,76564,6,0,P|283:340|228:338,1,85,8|0,0:0|0:0,0:0:0:0:
84,78,76894,2,0,P|129:56|172:62,1,85,8|0,0:0|0:0,0:0:0:0:
456,165,77224,1,8,0:0:0:0:
165,290,77389,1,0,0:0:0:0:
398,77,77553,1,8,0:0:0:0:
381,372,77718,1,0,0:0:0:0:
150,159,77883,1,12,0:0:0:0:
432,6,78048,6,0,P|460:34|469:78,1,85,0|8,0:0|0:0,0:0:0:0:
271,321,78378,1,0,0:0:0:0:
0,167,78542,1,8,0:0:0:0:
337,171,78707,1,0,0:0:0:0:
109,365,78872,1,8,0:0:0:0:
108,56,79036,1,0,0:0:0:0:
407,125,79202,6,0,P|414:174|387:216,1,85,8|0,0:0|0:0,0:0:0:0:
123,350,79531,2,0,P|109:302|122:266,1,85,8|0,0:0|0:0,0:0:0:0:
331,76,79861,2,0,L|338:167,1,85,8|0,0:0|0:0,0:0:0:0:
192,379,80191,1,8,0:0:0:0:
128,101,80356,5,0,0:0:0:0:
390,223,80520,1,12,0:0:0:0:
96,235,80685,1,0,0:0:0:0:
423,98,80850,1,12,0:0:0:0:
53,75,81015,1,0,0:0:0:0:
326,371,81180,1,12,0:0:0:0:
240,18,81345,1,0,0:0:0:0:
195,384,81509,6,0,P|175:339|184:298,1,85,12|0,0:0|0:0,0:0:0:0:
345,0,81839,2,0,P|362:43|356:81,1,85,12|0,0:0|0:0,0:0:0:0:
53,115,82169,2,0,P|99:92|142:101,1,85,12|0,0:0|0:0,0:0:0:0:
435,232,82498,2,0,P|394:248|348:243,1,85,12|0,0:0|0:0,0:0:0:0:
256,195,82828,1,0,0:0:0:0:
256,195,82993,1,0,0:0:0:0:
306,100,83158,5,0,0:0:0:0:
370,194,83323,1,0,0:0:0:0:
256,195,83487,1,0,0:0:0:0:
256,195,83652,1,0,0:0:0:0:
383,118,83817,1,0,0:0:0:0:
355,269,83982,1,0,0:0:0:0:
394,119,84147,1,0,0:0:0:0:
341,263,84312,1,0,0:0:0:0:
462,205,84476,5,0,0:0:0:0:
276,189,84641,1,0,0:0:0:0:
458,227,84806,1,0,0:0:0:0:
268,104,84971,1,0,0:0:0:0:
111,123,85136,2,0,P|152:151|202:151,1,85
268,105,85465,1,0,0:0:0:0:
268,104,85630,1,4,0:0:0:0:
256,192,85795,12,0,89751,0:0:0:0:
