osu file format v14

[General]
AudioFilename: Op-Black Clover.mp3
AudioLeadIn: 0
PreviewTime: 50710
Countdown: 0
SampleSet: Normal
StackLeniency: 0.7
Mode: 0
LetterboxInBreaks: 1
WidescreenStoryboard: 1

[Editor]
Bookmarks: 48732,51369,61919
DistanceSpacing: 1.5
BeatDivisor: 4
GridSize: 32
TimelineZoom: 1.9

[Metadata]
Title:Haruka Mirai
TitleUnicode:ハルカミライ
Artist:Kankaku Piero
ArtistUnicode:感覚ピエロ
Creator:ChuuritsuTv
Version:Elcheer's Insane
Source:ブラッククローバー
Tags:black clover asta yuno silva noelle elcheer hytex
BeatmapID:1459795
BeatmapSetID:688180

[Difficulty]
HPDrainRate:7
CircleSize:3.6
OverallDifficulty:7
ApproachRate:9
SliderMultiplier:1.5
SliderTickRate:1

[Events]
//Background and Video events
0,0,"BG.jpg",0,0
Video,0,"Op-Black Clover (1).avi"
//Break Periods
//Storyboard Layer 0 (Background)
//Storyboard Layer 1 (Fail)
//Storyboard Layer 2 (Pass)
//Storyboard Layer 3 (Foreground)
//Storyboard Sound Samples

[TimingPoints]
1400,329.67032967033,4,1,0,50,1,0
11949,-125,4,1,0,25,0,0
14257,-166.666666666667,4,1,0,25,0,0
14504,-166.666666666667,4,1,0,5,0,0
14586,-90.9090909090909,4,1,0,25,0,0
25136,-100,4,1,0,25,0,0
25301,-100,4,1,0,5,0,0
25465,-100,4,1,0,25,0,0
27938,-100,4,1,0,5,0,0
28103,-100,4,1,0,25,0,0
30246,-95.2380952380952,4,1,0,25,0,0
32965,-95.2380952380952,4,1,0,5,0,0
33048,-100,4,1,0,25,0,0
38158,-90.9090909090909,4,1,0,25,0,0
38817,-95.2380952380952,4,1,0,25,0,0
40795,-100,4,1,0,25,0,0
51509,-90.9090909090909,4,1,0,25,0,1
72608,-100,4,1,0,25,0,0
74834,-100,4,1,0,5,0,0
75246,-90.9090909090909,4,1,0,25,0,1
83158,-100,4,1,0,25,0,0
89586,-100,4,1,0,5,0,0

[Colours]
Combo1 : 63,133,68
Combo2 : 44,53,101
Combo3 : 216,216,216
Combo4 : 179,83,107

[HitObjects]
383,284,1400,6,0,L|375:182,1,75,8|0,0:0|0:0,0:0:0:0:
307,164,1729,2,0,L|312:70,1,75
377,39,2059,1,2,0:0:0:0:
310,89,2224,2,0,P|270:88|233:76,1,75,8|0,0:0|0:0,0:0:0:0:
377,39,2553,1,2,0:0:0:0:
424,106,2718,2,0,L|421:182,1,75,8|0,0:0|0:0,0:0:0:0:
371,247,3048,1,2,0:0:0:0:
307,164,3213,2,0,B|261:160|261:160|209:171,1,75,8|0,0:0|0:0,0:0:0:0:
173,223,3542,1,0,0:0:0:0:
268,297,3707,1,0,0:0:0:0:
154,207,3872,1,0,0:0:0:0:
291,317,4037,6,0,L|368:311,1,75,8|0,0:0|0:0,0:0:0:0:
280,232,4367,2,0,L|203:238,1,75,8|0,0:0|0:0,0:0:0:0:
149,298,4696,1,2,0:0:0:0:
93,237,4861,2,0,L|99:157,1,75
149,298,5191,1,2,0:0:0:0:
78,341,5356,2,0,B|36:344|36:344|2:340,1,75,8|0,0:0|0:0,0:0:0:0:
93,237,5685,1,2,0:0:0:0:
149,298,5850,2,0,P|197:298|232:283,1,75,8|0,0:0|0:0,0:0:0:0:
275,225,6180,1,0,0:0:0:0:
181,129,6345,1,0,0:0:0:0:
294,243,6509,1,0,0:0:0:0:
157,108,6674,6,0,B|121:100|121:100|76:108,1,75,8|0,0:0|0:0,0:0:0:0:
36,175,7004,2,0,L|51:256,1,75,8|0,0:0|0:0,0:0:0:0:
116,298,7334,1,2,0:0:0:0:
200,231,7498,2,0,P|258:224|287:226,1,75,8|0,0:0|0:0,0:0:0:0:
333,283,7828,1,2,0:0:0:0:
398,188,7993,2,0,L|390:100,1,75,8|0,0:0|0:0,0:0:0:0:
315,79,8323,1,2,0:0:0:0:
240,180,8487,2,0,P|285:179|318:167,1,75,8|0,0:0|0:0,0:0:0:0:
198,96,8817,1,0,0:0:0:0:
178,254,8982,1,0,0:0:0:0:
200,72,9147,1,0,0:0:0:0:
174,278,9312,6,0,B|168:323|168:323|174:358,1,75,8|0,0:0|0:0,0:0:0:0:
261,304,9641,2,0,B|267:259|267:259|261:224,1,75,8|0,0:0|0:0,0:0:0:0:
197,178,9971,1,2,0:0:0:0:
289,93,10136,2,0,L|375:97,1,75,8|0,0:0|0:0,0:0:0:0:
429,146,10465,1,2,0:0:0:0:
486,86,10630,2,0,L|480:10,1,75,8|0,0:0|0:0,0:0:0:0:
429,146,10960,1,0,0:0:0:0:
372,206,11125,1,0,0:0:0:0:
372,206,11207,1,0,0:0:0:0:
372,206,11290,6,0,P|324:216|281:209,1,75
272,198,11537,1,0,0:0:0:0:
243,198,11619,1,0,0:0:0:0:
218,207,11701,1,0,0:0:0:0:
199,228,11784,1,0,0:0:0:0:
185,252,11866,1,0,0:0:0:0:
181,276,11949,6,0,P|187:329|196:355,2,60
289,143,12443,2,0,P|283:90|274:64,2,60
237,217,12938,1,0,0:0:0:0:
134,184,13103,1,0,0:0:0:0:
214,111,13268,1,0,0:0:0:0:
157,290,13432,5,0,0:0:0:0:
134,184,13597,1,0,0:0:0:0:
237,217,13762,1,0,0:0:0:0:
157,290,13927,5,0,0:0:0:0:
112,79,14092,1,0,0:0:0:0:
214,111,14257,6,0,P|256:113|299:103,1,67.4999979400635,4|0,0:0|0:0,0:0:0:0:
312,71,14586,6,0,L|308:168,1,82.5000025177003,8|0,0:0|0:0,0:0:0:0:
373,229,14916,2,0,L|369:326,1,82.5000025177003
273,375,15246,1,0,0:0:0:0:
190,224,15410,1,0,0:0:0:0:
111,337,15575,2,0,P|154:342|199:337,1,82.5000025177003
271,225,15905,6,0,P|228:220|183:225,1,82.5000025177003,8|0,0:0|0:0,0:0:0:0:
128,302,16235,1,0,0:0:0:0:
104,127,16400,1,0,0:0:0:0:
174,214,16564,1,0,0:0:0:0:
199,51,16729,1,0,0:0:0:0:
104,127,16894,2,0,B|89:167|89:167|94:222,1,82.5000025177003,8|0,0:0|0:0,0:0:0:0:
188,180,17224,6,0,B|203:140|203:140|198:85,2,82.5000025177003,8|0|0,0:0|0:0|0:0,0:0:0:0:
114,246,17718,1,0,0:0:0:0:
189,310,17883,2,0,L|276:303,1,82.5000025177003
357,254,18213,2,0,L|444:261,1,82.5000025177003
511,328,18542,1,8,0:0:0:0:
460,167,18707,1,0,0:0:0:0:
357,254,18872,2,0,L|366:342,1,82.5000025177003
440,270,19202,1,0,0:0:0:0:
331,157,19367,1,0,0:0:0:0:
401,87,19531,2,0,L|501:97,1,82.5000025177003
331,157,19861,6,0,P|244:149|159:139,1,165.000005035401,8|0,0:0|0:0,0:0:0:0:
99,67,20356,1,0,0:0:0:0:
12,160,20520,2,0,P|7:205|8:248,1,82.5000025177003
75,315,20850,1,0,0:0:0:0:
136,237,21015,1,0,0:0:0:0:
213,298,21180,2,0,P|261:295|303:291,2,82.5000025177003,8|0|0,0:0|0:0|0:0,0:0:0:0:
136,237,21674,1,0,0:0:0:0:
209,170,21839,2,0,P|216:118|220:78,2,82.5000025177003
136,237,22334,1,0,0:0:0:0:
56,179,22498,6,0,B|47:132|47:132|53:89,1,82.5000025177003,8|0,0:0|0:0,0:0:0:0:
121,26,22828,1,0,0:0:0:0:
219,88,22993,2,0,B|266:97|266:97|309:91,1,82.5000025177003,8|0,0:0|0:0,0:0:0:0:
379,32,23323,1,0,0:0:0:0:
379,32,23405,1,0,0:0:0:0:
379,32,23487,2,0,L|430:26,1,41.2500012588501
466,44,23652,6,0,L|454:217,1,165.000005035401,8|0,0:0|0:0,0:0:0:0:
376,271,24147,1,0,0:0:0:0:
278,160,24312,1,0,0:0:0:0:
278,160,24394,1,0,0:0:0:0:
278,160,24476,1,0,0:0:0:0:
237,250,24641,1,0,0:0:0:0:
206,71,24806,1,0,0:0:0:0:
167,162,24971,1,0,0:0:0:0:
302,38,25136,6,0,P|352:40|384:46,1,75,8|0,0:0|0:0,0:0:0:0:
433,114,25465,1,0,0:0:0:0:
229,100,25795,1,0,0:0:0:0:
433,114,26125,1,0,0:0:0:0:
367,175,26290,2,0,P|329:172|289:162,1,75
229,100,26619,2,0,L|239:19,1,75
132,96,26949,2,0,L|154:254,1,150
227,294,27443,1,0,0:0:0:0:
266,181,27608,1,0,0:0:0:0:
193,331,27773,6,0,P|191:277|193:236,1,75,8|0,0:0|0:0,0:0:0:0:
230,174,28103,1,0,0:0:0:0:
426,177,28432,1,0,0:0:0:0:
230,174,28762,1,0,0:0:0:0:
289,106,28927,2,0,P|291:63|289:26,1,75
202,6,29257,1,0,0:0:0:0:
166,88,29421,1,0,0:0:0:0:
306,124,29586,1,0,0:0:0:0:
133,80,29751,5,0,0:0:0:0:
348,37,29916,1,4,0:0:0:0:
348,37,30246,6,0,L|338:206,1,157.499995193482,8|0,0:0|0:0,0:0:0:0:
280,268,30740,1,0,0:0:0:0:
247,178,30905,1,0,0:0:0:0:
163,275,31070,2,0,P|166:314|172:355,2,78.7499975967408
90,204,31564,2,0,P|161:174|232:205,1,157.499995193482,8|0,0:0|0:0,0:0:0:0:
283,284,32059,1,0,0:0:0:0:
163,275,32224,2,0,P|160:195|169:110,1,157.499995193482
241,59,32718,2,0,L|362:67,1,118.124996395111
390,98,33048,5,8,0:0:0:0:
311,295,33378,1,0,0:0:0:0:
179,128,33707,1,0,0:0:0:0:
100,325,34037,1,0,0:0:0:0:
58,245,34202,1,0,0:0:0:0:
148,248,34367,2,0,L|229:241,2,75
47,216,34861,2,0,P|42:172|134:136,1,150
195,202,35356,2,0,L|188:279,1,75
125,340,35685,5,8,0:0:0:0:
41,147,36015,1,0,0:0:0:0:
250,170,36345,1,0,0:0:0:0:
334,363,36674,1,0,0:0:0:0:
395,297,36839,1,0,0:0:0:0:
395,297,36921,1,0,0:0:0:0:
395,297,37004,2,0,P|395:241|391:208,1,75
326,160,37334,1,0,0:0:0:0:
276,234,37498,1,0,0:0:0:0:
378,89,37663,5,0,0:0:0:0:
168,167,37828,1,4,0:0:0:0:
168,167,38158,5,8,0:0:0:0:
140,261,38323,2,0,L|173:337,1,82.5000025177003
263,370,38652,1,0,0:0:0:0:
353,341,38817,1,0,0:0:0:0:
283,278,38982,2,0,P|276:220|276:184,1,78.7499975967408
345,134,39312,1,0,0:0:0:0:
219,67,39476,2,0,P|137:71|58:83,1,157.499995193482,8|0,0:0|0:0,0:0:0:0:
3,156,39971,1,0,0:0:0:0:
37,11,40136,1,0,0:0:0:0:
141,134,40301,2,0,P|141:175|138:222,1,78.7499975967408
237,300,40630,6,0,P|235:242|237:210,1,78.7499975967408
302,159,40960,1,4,0:0:0:0:
392,289,41125,1,0,0:0:0:0:
405,304,41454,5,0,0:0:0:0:
236,221,41619,1,0,0:0:0:0:
406,182,41784,1,0,0:0:0:0:
434,173,42114,5,0,0:0:0:0:
213,227,42279,2,0,L|87:238,1,112.5
77,246,42608,1,0,0:0:0:0:
30,150,42773,2,0,P|30:92|32:64,1,75
106,25,43103,1,0,0:0:0:0:
164,93,43268,1,0,0:0:0:0:
236,40,43432,1,0,0:0:0:0:
236,40,43515,1,0,0:0:0:0:
236,40,43597,2,0,L|328:45,1,75,4|0,0:0|0:0,0:0:0:0:
310,44,44092,5,0,0:0:0:0:
401,203,44257,1,0,0:0:0:0:
294,143,44421,1,0,0:0:0:0:
274,129,44751,5,0,0:0:0:0:
415,106,44916,1,0,0:0:0:0:
305,257,45081,1,0,0:0:0:0:
430,86,45246,1,0,0:0:0:0:
406,212,45410,2,0,P|373:169|261:155,1,150
305,257,45905,1,0,0:0:0:0:
380,306,46070,1,0,0:0:0:0:
462,270,46235,6,0,P|479:220|480:189,1,75
426,125,46564,1,0,0:0:0:0:
352,177,46729,2,0,P|299:168|272:154,1,75
223,88,47059,1,0,0:0:0:0:
333,33,47224,1,0,0:0:0:0:
194,99,47389,2,0,L|112:94,1,75
48,149,47718,1,0,0:0:0:0:
48,149,47801,1,0,0:0:0:0:
48,149,47883,2,0,L|32:197,2,37.5
110,83,48213,5,0,0:0:0:0:
173,147,48378,1,0,0:0:0:0:
173,147,48460,1,0,0:0:0:0:
173,147,48542,1,0,0:0:0:0:
206,162,48624,1,0,0:0:0:0:
243,160,48706,1,0,0:0:0:0:
275,141,48789,1,0,0:0:0:0:
294,109,48872,6,0,P|301:43|289:10,2,100,4|0|0,0:0|0:0|0:0,0:0:0:0:
206,162,49531,2,0,P|199:228|211:261,2,100
287,103,50191,1,0,0:0:0:0:
374,210,50410,1,0,0:0:0:0:
265,74,50630,1,0,0:0:0:0:
228,206,50850,5,0,0:0:0:0:
246,238,50932,1,0,0:0:0:0:
277,258,51014,1,0,0:0:0:0:
314,263,51097,1,0,0:0:0:0:
349,251,51179,1,0,0:0:0:0:
374,224,51262,1,0,0:0:0:0:
386,189,51344,1,0,0:0:0:0:
380,152,51426,1,0,0:0:0:0:
382,109,51509,6,0,P|436:97|471:108,1,82.5000025177003,12|0,0:0|0:0,0:0:0:0:
374,224,51839,2,0,P|336:183|328:148,1,82.5000025177003
485,205,52169,1,0,0:0:0:0:
422,313,52334,1,0,0:0:0:0:
321,240,52498,2,0,L|329:146,1,82.5000025177003
411,103,52828,1,0,0:0:0:0:
475,178,52993,1,0,0:0:0:0:
403,246,53158,2,0,L|317:239,1,82.5000025177003
272,135,53487,1,0,0:0:0:0:
367,160,53652,1,0,0:0:0:0:
229,204,53817,2,0,P|197:161|196:113,1,82.5000025177003
323,226,54147,6,0,L|316:319,1,82.5000025177003,8|0,0:0|0:0,0:0:0:0:
222,286,54476,2,0,L|229:193,1,82.5000025177003
298,145,54806,1,0,0:0:0:0:
323,226,54971,1,0,0:0:0:0:
201,135,55136,1,0,0:0:0:0:
259,56,55301,1,0,0:0:0:0:
371,114,55465,2,0,P|341:136|287:144,1,82.5000025177003
402,38,55795,1,0,0:0:0:0:
472,119,55960,1,0,0:0:0:0:
368,212,56125,1,0,0:0:0:0:
371,114,56290,1,0,0:0:0:0:
466,241,56454,2,0,B|473:281|473:281|466:325,1,82.5000025177003
348,307,56784,6,0,L|348:111,1,165.000005035401,8|0,0:0|0:0,0:0:0:0:
422,89,57279,1,0,0:0:0:0:
488,193,57443,2,0,L|487:277,1,82.5000025177003
358,237,57773,2,0,L|359:153,1,82.5000025177003
422,89,58103,1,0,0:0:0:0:
487,192,58268,1,0,0:0:0:0:
358,237,58432,1,8,0:0:0:0:
418,122,58597,1,0,0:0:0:0:
461,270,58762,2,0,L|371:263,1,82.5000025177003
299,203,59092,1,8,0:0:0:0:
391,169,59257,1,0,0:0:0:0:
461,270,59421,6,0,B|466:315|466:315|456:362,1,82.5000025177003
371,379,59751,1,8,0:0:0:0:
318,267,59916,1,0,0:0:0:0:
421,198,60081,2,0,P|483:192|512:203,2,82.5000025177003
291,281,60575,2,0,P|227:276|205:180,1,165.000005035401
271,124,61070,1,0,0:0:0:0:
186,89,61235,1,0,0:0:0:0:
287,214,61400,1,0,0:0:0:0:
287,214,61482,1,0,0:0:0:0:
287,214,61564,1,0,0:0:0:0:
287,214,61647,1,0,0:0:0:0:
317,217,61729,1,0,0:0:0:0:
348,213,61811,1,0,0:0:0:0:
377,202,61894,1,0,0:0:0:0:
369,243,61976,1,0,0:0:0:0:
372,284,62059,6,0,P|371:324|376:367,1,82.5000025177003,12|0,0:0|0:0,0:0:0:0:
502,280,62389,2,0,P|503:240|498:197,1,82.5000025177003
431,135,62718,1,0,0:0:0:0:
431,135,62883,1,0,0:0:0:0:
347,226,63048,2,0,P|402:228|435:212,1,82.5000025177003
305,144,63378,1,0,0:0:0:0:
291,306,63542,1,0,0:0:0:0:
438,217,63707,2,0,P|435:168|430:129,1,82.5000025177003
363,76,64037,1,0,0:0:0:0:
269,167,64202,1,0,0:0:0:0:
359,240,64367,2,0,P|416:234|454:226,1,82.5000025177003
350,156,64696,6,0,P|293:162|255:170,1,82.5000025177003,8|0,0:0|0:0,0:0:0:0:
199,227,65026,1,0,0:0:0:0:
199,227,65191,1,0,0:0:0:0:
297,243,65356,1,0,0:0:0:0:
186,89,65520,1,0,0:0:0:0:
119,183,65685,2,0,P|118:232|121:271,1,82.5000025177003
201,323,66015,1,0,0:0:0:0:
297,243,66180,1,0,0:0:0:0:
200,181,66345,2,0,P|132:179|104:188,1,82.5000025177003
64,255,66674,1,0,0:0:0:0:
132,314,66839,1,0,0:0:0:0:
206,263,67004,2,0,L|199:168,1,82.5000025177003
97,119,67334,6,0,L|96:293,1,165.000005035401,8|0,0:0|0:0,0:0:0:0:
174,344,67828,1,0,0:0:0:0:
260,214,67993,2,0,P|211:217|175:237,1,82.5000025177003
313,291,68323,1,0,0:0:0:0:
331,114,68487,1,0,0:0:0:0:
184,149,68652,2,0,P|180:221|183:252,1,82.5000025177003,8|0,0:0|0:0,0:0:0:0:
251,301,68982,1,0,0:0:0:0:
402,205,69147,1,0,0:0:0:0:
275,142,69312,2,0,P|280:195|286:226,1,82.5000025177003,8|0,0:0|0:0,0:0:0:0:
364,283,69641,1,0,0:0:0:0:
433,145,69806,1,0,0:0:0:0:
274,114,69971,6,0,L|189:122,1,82.5000025177003,8|0,0:0|0:0,0:0:0:0:
120,191,70301,1,0,0:0:0:0:
205,239,70465,1,0,0:0:0:0:
107,87,70630,1,0,0:0:0:0:
46,207,70795,1,0,0:0:0:0:
228,137,70960,1,0,0:0:0:0:
107,87,71125,1,0,0:0:0:0:
46,207,71290,6,0,L|51:263,3,41.2500012588501
89,277,71619,2,0,L|92:327,3,41.2500012588501
125,354,71949,1,0,0:0:0:0:
162,337,72031,1,0,0:0:0:0:
202,330,72113,1,0,0:0:0:0:
243,329,72196,1,0,0:0:0:0:
285,329,72279,1,0,0:0:0:0:
264,293,72361,1,0,0:0:0:0:
262,252,72443,1,0,0:0:0:0:
278,215,72526,1,0,0:0:0:0:
309,189,72608,5,4,0:0:0:0:
309,189,73927,5,4,0:0:0:0:
170,71,74257,2,0,L|120:78,4,37.5
309,189,74751,1,0,0:0:0:0:
346,164,74834,1,0,0:0:0:0:
383,140,74916,2,0,L|379:263,1,112.5
368,272,75246,6,0,P|322:281|284:269,1,82.5000025177003,12|0,0:0|0:0,0:0:0:0:
291,133,75575,2,0,P|321:168|330:207,1,82.5000025177003,8|0,0:0|0:0,0:0:0:0:
189,120,75905,1,8,0:0:0:0:
337,40,76070,1,0,0:0:0:0:
309,227,76235,1,8,0:0:0:0:
291,133,76400,1,0,0:0:0:0:
418,191,76564,2,0,L|410:285,1,82.5000025177003,8|0,0:0|0:0,0:0:0:0:
284,215,76894,2,0,L|292:121,1,82.5000025177003,8|0,0:0|0:0,0:0:0:0:
370,53,77224,1,8,0:0:0:0:
425,187,77389,1,0,0:0:0:0:
493,53,77553,1,8,0:0:0:0:
332,158,77718,1,0,0:0:0:0:
332,158,77801,1,0,0:0:0:0:
332,158,77883,6,0,L|340:256,1,82.5000025177003,8|0,0:0|0:0,0:0:0:0:
477,202,78213,2,0,L|469:104,1,82.5000025177003,8|0,0:0|0:0,0:0:0:0:
379,62,78542,1,8,0:0:0:0:
332,158,78707,1,0,0:0:0:0:
474,83,78872,1,8,0:0:0:0:
289,37,79037,1,0,0:0:0:0:
438,164,79202,2,0,P|439:208|432:260,1,82.5000025177003,8|0,0:0|0:0,0:0:0:0:
354,316,79531,1,8,0:0:0:0:
245,169,79696,1,0,0:0:0:0:
215,325,79861,2,0,P|255:283|267:255,1,82.5000025177003,8|0,0:0|0:0,0:0:0:0:
156,171,80191,2,0,P|171:227|189:251,1,82.5000025177003,8|0,0:0|0:0,0:0:0:0:
301,101,80520,6,0,P|244:86|214:89,1,82.5000025177003,8|0,0:0|0:0,0:0:0:0:
290,236,80850,2,0,P|346:250|376:247,1,82.5000025177003,8|0,0:0|0:0,0:0:0:0:
456,183,81180,1,8,0:0:0:0:
332,106,81345,1,0,0:0:0:0:
407,263,81509,1,8,0:0:0:0:
446,57,81674,1,0,0:0:0:0:
311,189,81839,2,0,L|218:183,1,82.5000025177003,8|0,0:0|0:0,0:0:0:0:
288,76,82169,2,0,L|381:82,1,82.5000025177003,8|0,0:0|0:0,0:0:0:0:
441,161,82498,1,8,0:0:0:0:
491,4,82663,1,0,0:0:0:0:
361,190,82828,5,8,0:0:0:0:
504,88,82993,1,0,0:0:0:0:
377,38,83158,6,0,P|336:35|296:39,2,75
444,108,83652,2,0,L|440:188,2,75
377,38,84147,1,0,0:0:0:0:
300,165,84312,1,0,0:0:0:0:
444,108,84476,1,0,0:0:0:0:
281,71,84641,5,0,0:0:0:0:
387,196,84806,1,0,0:0:0:0:
214,225,84971,1,0,0:0:0:0:
369,104,85136,2,0,L|455:108,1,75
332,192,85465,1,0,0:0:0:0:
375,12,85630,1,4,0:0:0:0:
256,192,85713,12,0,89751,0:0:0:0:
